  0
SECTION
  2
HEADER
  9
$ACADVER
  1
AC1015
  9
$ACADMAINTVER
 70
    20
  9
$DWGCODEPAGE
  3
ANSI_932
  9
$INSBASE
 10
0.0
 20
0.0
 30
0.0
  9
$EXTMIN
 10
148.6162821516373
 20
-93.35404855051093
 30
0.0
  9
$EXTMAX
 10
8181.593311444498
 20
5632.042442328446
 30
0.0
  9
$LIMMIN
 10
0.0
 20
0.0
  9
$LIMMAX
 10
8400.0
 20
5940.0
  9
$ORTHOMODE
 70
     1
  9
$REGENMODE
 70
     1
  9
$FILLMODE
 70
     1
  9
$QTEXTMODE
 70
     0
  9
$MIRRTEXT
 70
     0
  9
$LTSCALE
 40
200.0
  9
$ATTMODE
 70
     1
  9
$TEXTSIZE
 40
50.0
  9
$TRACEWID
 40
0.05
  9
$TEXTSTYLE
  7
STANDARD
  9
$CLAYER
  8
SUNPOU
  9
$CELTYPE
  6
BYLAYER
  9
$CECOLOR
 62
   256
  9
$CELTSCALE
 40
1.0
  9
$DISPSILH
 70
     0
  9
$DIMSCALE
 40
20.0
  9
$DIMASZ
 40
1.5
  9
$DIMEXO
 40
1.5
  9
$DIMDLI
 40
7.0
  9
$DIMRND
 40
0.0
  9
$DIMDLE
 40
0.0
  9
$DIMEXE
 40
0.5
  9
$DIMTP
 40
0.0
  9
$DIMTM
 40
0.0
  9
$DIMTXT
 40
2.5
  9
$DIMCEN
 40
0.0
  9
$DIMTSZ
 40
0.0
  9
$DIMTOL
 70
     0
  9
$DIMLIM
 70
     0
  9
$DIMTIH
 70
     0
  9
$DIMTOH
 70
     0
  9
$DIMSE1
 70
     0
  9
$DIMSE2
 70
     0
  9
$DIMTAD
 70
     1
  9
$DIMZIN
 70
     8
  9
$DIMBLK
  1

  9
$DIMASO
 70
     1
  9
$DIMSHO
 70
     1
  9
$DIMPOST
  1

  9
$DIMAPOST
  1

  9
$DIMALT
 70
     0
  9
$DIMALTD
 70
     2
  9
$DIMALTF
 40
25.4
  9
$DIMLFAC
 40
1.0
  9
$DIMTOFL
 70
     0
  9
$DIMTVP
 40
1.0
  9
$DIMTIX
 70
     1
  9
$DIMSOXD
 70
     0
  9
$DIMSAH
 70
     0
  9
$DIMBLK1
  1

  9
$DIMBLK2
  1

  9
$DIMSTYLE
  2
STANDARD
  9
$DIMCLRD
 70
     0
  9
$DIMCLRE
 70
     0
  9
$DIMCLRT
 70
     0
  9
$DIMTFAC
 40
1.0
  9
$DIMGAP
 40
0.7
  9
$DIMJUST
 70
     0
  9
$DIMSD1
 70
     0
  9
$DIMSD2
 70
     0
  9
$DIMTOLJ
 70
     1
  9
$DIMTZIN
 70
     8
  9
$DIMALTZ
 70
     8
  9
$DIMALTTZ
 70
     8
  9
$DIMUPT
 70
     0
  9
$DIMDEC
 70
     0
  9
$DIMTDEC
 70
     0
  9
$DIMALTU
 70
     2
  9
$DIMALTTD
 70
     2
  9
$DIMTXSTY
  7
STANDARD
  9
$DIMAUNIT
 70
     0
  9
$DIMADEC
 70
     4
  9
$DIMALTRND
 40
0.0
  9
$DIMAZIN
 70
     0
  9
$DIMDSEP
 70
    46
  9
$DIMATFIT
 70
     3
  9
$DIMFRAC
 70
     0
  9
$DIMLDRBLK
  1

  9
$DIMLUNIT
 70
     2
  9
$DIMLWD
 70
    -2
  9
$DIMLWE
 70
    -2
  9
$DIMTMOVE
 70
     2
  9
$LUNITS
 70
     2
  9
$LUPREC
 70
     4
  9
$SKETCHINC
 40
0.1
  9
$FILLETRAD
 40
0.0
  9
$AUNITS
 70
     0
  9
$AUPREC
 70
     6
  9
$MENU
  1
acad
  9
$ELEVATION
 40
0.0
  9
$PELEVATION
 40
0.0
  9
$THICKNESS
 40
0.0
  9
$LIMCHECK
 70
     0
  9
$CHAMFERA
 40
0.0
  9
$CHAMFERB
 40
0.0
  9
$CHAMFERC
 40
0.0
  9
$CHAMFERD
 40
0.0
  9
$SKPOLY
 70
     0
  9
$TDCREATE
 40
2450014.656655093
  9
$TDUCREATE
 40
2450014.281655093
  9
$TDUPDATE
 40
2456189.563056088
  9
$TDUUPDATE
 40
2456189.188056088
  9
$TDINDWG
 40
0.2502531019
  9
$TDUSRTIMER
 40
0.2502531019
  9
$USRTIMER
 70
     1
  9
$ANGBASE
 50
0.0
  9
$ANGDIR
 70
     0
  9
$PDMODE
 70
     0
  9
$PDSIZE
 40
0.0
  9
$PLINEWID
 40
0.0
  9
$SPLFRAME
 70
     0
  9
$SPLINETYPE
 70
     6
  9
$SPLINESEGS
 70
     8
  9
$HANDSEED
  5
56A7
  9
$SURFTAB1
 70
     6
  9
$SURFTAB2
 70
     6
  9
$SURFTYPE
 70
     6
  9
$SURFU
 70
     6
  9
$SURFV
 70
     6
  9
$UCSBASE
  2

  9
$UCSNAME
  2

  9
$UCSORG
 10
0.0
 20
0.0
 30
0.0
  9
$UCSXDIR
 10
1.0
 20
0.0
 30
0.0
  9
$UCSYDIR
 10
0.0
 20
1.0
 30
0.0
  9
$UCSORTHOREF
  2

  9
$UCSORTHOVIEW
 70
     0
  9
$UCSORGTOP
 10
0.0
 20
0.0
 30
0.0
  9
$UCSORGBOTTOM
 10
0.0
 20
0.0
 30
0.0
  9
$UCSORGLEFT
 10
0.0
 20
0.0
 30
0.0
  9
$UCSORGRIGHT
 10
0.0
 20
0.0
 30
0.0
  9
$UCSORGFRONT
 10
0.0
 20
0.0
 30
0.0
  9
$UCSORGBACK
 10
0.0
 20
0.0
 30
0.0
  9
$PUCSBASE
  2

  9
$PUCSNAME
  2

  9
$PUCSORG
 10
0.0
 20
0.0
 30
0.0
  9
$PUCSXDIR
 10
1.0
 20
0.0
 30
0.0
  9
$PUCSYDIR
 10
0.0
 20
1.0
 30
0.0
  9
$PUCSORTHOREF
  2

  9
$PUCSORTHOVIEW
 70
     0
  9
$PUCSORGTOP
 10
0.0
 20
0.0
 30
0.0
  9
$PUCSORGBOTTOM
 10
0.0
 20
0.0
 30
0.0
  9
$PUCSORGLEFT
 10
0.0
 20
0.0
 30
0.0
  9
$PUCSORGRIGHT
 10
0.0
 20
0.0
 30
0.0
  9
$PUCSORGFRONT
 10
0.0
 20
0.0
 30
0.0
  9
$PUCSORGBACK
 10
0.0
 20
0.0
 30
0.0
  9
$USERI1
 70
     0
  9
$USERI2
 70
     0
  9
$USERI3
 70
     0
  9
$USERI4
 70
     0
  9
$USERI5
 70
     0
  9
$USERR1
 40
0.0
  9
$USERR2
 40
0.0
  9
$USERR3
 40
0.0
  9
$USERR4
 40
0.0
  9
$USERR5
 40
0.0
  9
$WORLDVIEW
 70
     1
  9
$SHADEDGE
 70
     3
  9
$SHADEDIF
 70
    70
  9
$TILEMODE
 70
     1
  9
$MAXACTVP
 70
    48
  9
$PINSBASE
 10
0.0
 20
0.0
 30
0.0
  9
$PLIMCHECK
 70
     0
  9
$PEXTMIN
 10
1.000000000000000E+20
 20
1.000000000000000E+20
 30
1.000000000000000E+20
  9
$PEXTMAX
 10
-1.000000000000000E+20
 20
-1.000000000000000E+20
 30
-1.000000000000000E+20
  9
$PLIMMIN
 10
0.0
 20
0.0
  9
$PLIMMAX
 10
12.0
 20
9.0
  9
$UNITMODE
 70
     0
  9
$VISRETAIN
 70
     0
  9
$PLINEGEN
 70
     0
  9
$PSLTSCALE
 70
     0
  9
$TREEDEPTH
 70
  3020
  9
$CMLSTYLE
  2
STANDARD
  9
$CMLJUST
 70
     0
  9
$CMLSCALE
 40
1.0
  9
$PROXYGRAPHICS
 70
     1
  9
$MEASUREMENT
 70
     0
  9
$CELWEIGHT
370
    -1
  9
$ENDCAPS
280
     0
  9
$JOINSTYLE
280
     0
  9
$LWDISPLAY
290
     0
  9
$INSUNITS
 70
     0
  9
$HYPERLINKBASE
  1

  9
$STYLESHEET
  1
acad.ctb
  9
$XEDIT
290
     1
  9
$CEPSNTYPE
380
     0
  9
$PSTYLEMODE
290
     1
  9
$FINGERPRINTGUID
  2
{F67648C0-8D40-11D8-A1CD-0050FC45377D}
  9
$VERSIONGUID
  2
{1575D947-C3A1-4240-8DB7-D871FCBE697E}
  9
$EXTNAMES
290
     1
  9
$PSVPSCALE
 40
0.0
  9
$OLESTARTUP
290
     0
  0
ENDSEC
  0
SECTION
  2
CLASSES
  0
CLASS
  1
ACDBDICTIONARYWDFLT
  2
AcDbDictionaryWithDefault
  3
ObjectDBX Classes
 90
        0
280
     0
281
     0
  0
CLASS
  1
ACDBPLACEHOLDER
  2
AcDbPlaceHolder
  3
ObjectDBX Classes
 90
        0
280
     0
281
     0
  0
CLASS
  1
LAYOUT
  2
AcDbLayout
  3
ObjectDBX Classes
 90
        0
280
     0
281
     0
  0
CLASS
  1
DICTIONARYVAR
  2
AcDbDictionaryVar
  3
ObjectDBX Classes
 90
        0
280
     0
281
     0
  0
CLASS
  1
TABLESTYLE
  2
AcDbTableStyle
  3
ObjectDBX Classes
 90
     2047
280
     0
281
     0
  0
ENDSEC
  0
SECTION
  2
TABLES
  0
TABLE
  2
VPORT
  5
8
330
0
100
AcDbSymbolTable
 70
     2
  0
VPORT
  5
56A1
330
8
100
AcDbSymbolTableRecord
100
AcDbViewportTableRecord
  2
*Active
 70
     0
 10
0.0
 20
0.0
 11
1.0
 21
1.0
 12
4343.574481527585
 22
2756.957548806055
 13
0.0
 23
0.0
 14
20.0
 24
20.0
 15
200.0
 25
200.0
 16
0.0
 26
0.0
 36
1.0
 17
0.0
 27
0.0
 37
0.0
 40
7257.167813357845
 41
1.507024265644955
 42
50.0
 43
0.0
 44
0.0
 50
0.0
 51
0.0
 71
     0
 72
   100
 73
     1
 74
     1
 75
     0
 76
     0
 77
     0
 78
     0
281
     0
 65
     1
110
0.0
120
0.0
130
0.0
111
1.0
121
0.0
131
0.0
112
0.0
122
1.0
132
0.0
 79
     0
146
0.0
  0
ENDTAB
  0
TABLE
  2
LTYPE
  5
5
330
0
100
AcDbSymbolTable
 70
     5
  0
LTYPE
  5
11
330
5
100
AcDbSymbolTableRecord
100
AcDbLinetypeTableRecord
  2
BYBLOCK
 70
     0
  3

 72
    65
 73
     0
 40
0.0
  0
LTYPE
  5
12
330
5
100
AcDbSymbolTableRecord
100
AcDbLinetypeTableRecord
  2
BYLAYER
 70
     0
  3

 72
    65
 73
     0
 40
0.0
  0
LTYPE
  5
13
330
5
100
AcDbSymbolTableRecord
100
AcDbLinetypeTableRecord
  2
CONTINUOUS
 70
     0
  3
Solid line
 72
    65
 73
     0
 40
0.0
  0
LTYPE
  5
1E
330
5
100
AcDbSymbolTableRecord
100
AcDbLinetypeTableRecord
  2
HIDDEN
 70
     0
  3
_ _ _ _ _ _ _ _ _ _ _ _ _ _ _ _ _ _ _ _ _ _ _
 72
    65
 73
     2
 40
0.375
 49
0.25
 74
     0
 49
-0.125
 74
     0
  0
LTYPE
  5
1F
330
5
100
AcDbSymbolTableRecord
100
AcDbLinetypeTableRecord
  2
CENTER
 70
     0
  3
____ _ ____ _ ____ _ ____ _ ____ _ ____ _ ____
 72
    65
 73
     4
 40
2.0
 49
1.25
 74
     0
 49
-0.25
 74
     0
 49
0.25
 74
     0
 49
-0.25
 74
     0
  0
LTYPE
  5
20
330
5
100
AcDbSymbolTableRecord
100
AcDbLinetypeTableRecord
  2
PHANTOM
 70
     0
  3
_____ _ _ _____ _ _ _____ _ _ _____ _ _ ____
 72
    65
 73
     6
 40
2.5
 49
1.25
 74
     0
 49
-0.25
 74
     0
 49
0.25
 74
     0
 49
-0.25
 74
     0
 49
0.25
 74
     0
 49
-0.25
 74
     0
  0
LTYPE
  5
AA6
330
5
100
AcDbSymbolTableRecord
100
AcDbLinetypeTableRecord
  2
DASHED2
 70
     0
  3
Dashed (.5x) _ _ _ _ _ _ _ _ _ _ _ _ _ _ _ _ _
 72
    65
 73
     2
 40
0.375
 49
0.25
 74
     0
 49
-0.125
 74
     0
  0
ENDTAB
  0
TABLE
  2
LAYER
  5
2
330
0
100
AcDbSymbolTable
 70
    10
  0
LAYER
  5
E
330
2
100
AcDbSymbolTableRecord
100
AcDbLayerTableRecord
  2
0
 70
     0
 62
     7
  6
CONTINUOUS
370
    -3
390
6E
  0
LAYER
  5
23
330
2
100
AcDbSymbolTableRecord
100
AcDbLayerTableRecord
  2
SUNPOU
 70
     0
 62
     1
  6
CONTINUOUS
370
    -3
390
6E
  0
LAYER
  5
24
330
2
100
AcDbSymbolTableRecord
100
AcDbLayerTableRecord
  2
HAIKIN
 70
     0
 62
     2
  6
CONTINUOUS
370
    -3
390
6E
  0
LAYER
  5
25
330
2
100
AcDbSymbolTableRecord
100
AcDbLayerTableRecord
  2
SEIHIN
 70
     0
 62
     3
  6
CONTINUOUS
370
    -3
390
6E
  0
LAYER
  5
26
330
2
100
AcDbSymbolTableRecord
100
AcDbLayerTableRecord
  2
HASEN
 70
     0
 62
     4
  6
HIDDEN
370
    -3
390
6E
  0
LAYER
  5
27
330
2
100
AcDbSymbolTableRecord
100
AcDbLayerTableRecord
  2
1HASEN
 70
     0
 62
     5
  6
CENTER
370
    -3
390
6E
  0
LAYER
  5
28
330
2
100
AcDbSymbolTableRecord
100
AcDbLayerTableRecord
  2
2HASEN
 70
     0
 62
     6
  6
PHANTOM
370
    -3
390
6E
  0
LAYER
  5
29
330
2
100
AcDbSymbolTableRecord
100
AcDbLayerTableRecord
  2
HOJO
 70
     0
 62
     7
  6
CONTINUOUS
370
    -3
390
6E
  0
LAYER
  5
2A
330
2
100
AcDbSymbolTableRecord
100
AcDbLayerTableRecord
  2
TEN
 70
     0
 62
     7
  6
CONTINUOUS
370
    -3
390
6E
  0
LAYER
  5
A7
330
2
100
AcDbSymbolTableRecord
100
AcDbLayerTableRecord
  2
Defpoints
 70
     0
 62
     7
  6
CONTINUOUS
290
     0
370
    -3
390
6E
  0
ENDTAB
  0
TABLE
  2
STYLE
  5
3
330
0
100
AcDbSymbolTable
 70
     1
  0
STYLE
  5
F
330
3
100
AcDbSymbolTableRecord
100
AcDbTextStyleTableRecord
  2
STANDARD
 70
     0
 40
0.0
 41
0.8
 50
0.0
 71
     0
 42
50.0
  3
TXT.shx
  4
BIGFONT.shx
  0
ENDTAB
  0
TABLE
  2
VIEW
  5
6
330
0
100
AcDbSymbolTable
 70
     0
  0
ENDTAB
  0
TABLE
  2
UCS
  5
7
330
0
100
AcDbSymbolTable
 70
     0
  0
ENDTAB
  0
TABLE
  2
APPID
  5
9
330
0
100
AcDbSymbolTable
 70
     1
  0
APPID
  5
10
330
9
100
AcDbSymbolTableRecord
100
AcDbRegAppTableRecord
  2
ACAD
 70
     0
  0
ENDTAB
  0
TABLE
  2
DIMSTYLE
  5
A
330
0
100
AcDbSymbolTable
 70
     1
100
AcDbDimStyleTable
 71
     0
  0
DIMSTYLE
105
61
102
{ACAD_REACTORS
330
443A
330
4447
330
4454
330
4461
330
446E
330
447B
330
44A5
330
44B2
330
44BF
330
44CD
330
44F8
330
4896
330
48A4
330
48B1
330
48BE
330
48CC
330
4901
330
4922
330
492F
330
493D
330
494A
330
4985
330
4F5A
330
4F59
330
4F58
330
4F9E
330
4FAB
330
504B
330
5058
330
5065
102
}
330
A
100
AcDbSymbolTableRecord
100
AcDbDimStyleTableRecord
  2
STANDARD
 70
     0
340
F
  0
ENDTAB
  0
TABLE
  2
BLOCK_RECORD
  5
1
330
0
100
AcDbSymbolTable
 70
    64
  0
BLOCK_RECORD
  5
17
102
{ACAD_XDICTIONARY
360
9C
102
}
330
1
100
AcDbSymbolTableRecord
100
AcDbBlockTableRecord
  2
*MODEL_SPACE
340
71
  0
BLOCK_RECORD
  5
14
102
{ACAD_XDICTIONARY
360
9A
102
}
330
1
100
AcDbSymbolTableRecord
100
AcDbBlockTableRecord
  2
*PAPER_SPACE
340
72
  0
BLOCK_RECORD
  5
1C
330
1
100
AcDbSymbolTableRecord
100
AcDbBlockTableRecord
  2
BORDER
340
0
  0
BLOCK_RECORD
  5
1D
330
1
100
AcDbSymbolTableRecord
100
AcDbBlockTableRecord
  2
SA3
340
0
  0
BLOCK_RECORD
  5
3C77
330
1
100
AcDbSymbolTableRecord
100
AcDbBlockTableRecord
  2
HAI-D
340
0
  0
BLOCK_RECORD
  5
419D
330
1
100
AcDbSymbolTableRecord
100
AcDbBlockTableRecord
  2
_DOTSMALL
340
0
  0
BLOCK_RECORD
  5
443B
330
1
100
AcDbSymbolTableRecord
100
AcDbBlockTableRecord
  2
*D4
340
0
  0
BLOCK_RECORD
  5
4448
330
1
100
AcDbSymbolTableRecord
100
AcDbBlockTableRecord
  2
*D5
340
0
  0
BLOCK_RECORD
  5
4455
330
1
100
AcDbSymbolTableRecord
100
AcDbBlockTableRecord
  2
*D6
340
0
  0
BLOCK_RECORD
  5
4462
330
1
100
AcDbSymbolTableRecord
100
AcDbBlockTableRecord
  2
*D7
340
0
  0
BLOCK_RECORD
  5
446F
330
1
100
AcDbSymbolTableRecord
100
AcDbBlockTableRecord
  2
*D8
340
0
  0
BLOCK_RECORD
  5
447C
330
1
100
AcDbSymbolTableRecord
100
AcDbBlockTableRecord
  2
*D9
340
0
  0
BLOCK_RECORD
  5
44A6
330
1
100
AcDbSymbolTableRecord
100
AcDbBlockTableRecord
  2
*D11
340
0
  0
BLOCK_RECORD
  5
44B3
330
1
100
AcDbSymbolTableRecord
100
AcDbBlockTableRecord
  2
*D12
340
0
  0
BLOCK_RECORD
  5
44C0
330
1
100
AcDbSymbolTableRecord
100
AcDbBlockTableRecord
  2
*D13
340
0
  0
BLOCK_RECORD
  5
44CE
330
1
100
AcDbSymbolTableRecord
100
AcDbBlockTableRecord
  2
*D14
340
0
  0
BLOCK_RECORD
  5
44F9
330
1
100
AcDbSymbolTableRecord
100
AcDbBlockTableRecord
  2
*D15
340
0
  0
BLOCK_RECORD
  5
4897
330
1
100
AcDbSymbolTableRecord
100
AcDbBlockTableRecord
  2
*D24
340
0
  0
BLOCK_RECORD
  5
48A5
330
1
100
AcDbSymbolTableRecord
100
AcDbBlockTableRecord
  2
*D25
340
0
  0
BLOCK_RECORD
  5
48B2
330
1
100
AcDbSymbolTableRecord
100
AcDbBlockTableRecord
  2
*D26
340
0
  0
BLOCK_RECORD
  5
48BF
330
1
100
AcDbSymbolTableRecord
100
AcDbBlockTableRecord
  2
*D27
340
0
  0
BLOCK_RECORD
  5
48CD
330
1
100
AcDbSymbolTableRecord
100
AcDbBlockTableRecord
  2
*D28
340
0
  0
BLOCK_RECORD
  5
4902
330
1
100
AcDbSymbolTableRecord
100
AcDbBlockTableRecord
  2
*D32
340
0
  0
BLOCK_RECORD
  5
4923
330
1
100
AcDbSymbolTableRecord
100
AcDbBlockTableRecord
  2
*D33
340
0
  0
BLOCK_RECORD
  5
4930
330
1
100
AcDbSymbolTableRecord
100
AcDbBlockTableRecord
  2
*D34
340
0
  0
BLOCK_RECORD
  5
493E
330
1
100
AcDbSymbolTableRecord
100
AcDbBlockTableRecord
  2
*D35
340
0
  0
BLOCK_RECORD
  5
494B
330
1
100
AcDbSymbolTableRecord
100
AcDbBlockTableRecord
  2
*D36
340
0
  0
BLOCK_RECORD
  5
4986
330
1
100
AcDbSymbolTableRecord
100
AcDbBlockTableRecord
  2
*D37
340
0
  0
BLOCK_RECORD
  5
4F5B
330
1
100
AcDbSymbolTableRecord
100
AcDbBlockTableRecord
  2
*D49
340
0
  0
BLOCK_RECORD
  5
4F68
330
1
100
AcDbSymbolTableRecord
100
AcDbBlockTableRecord
  2
*D50
340
0
  0
BLOCK_RECORD
  5
4F75
330
1
100
AcDbSymbolTableRecord
100
AcDbBlockTableRecord
  2
*D51
340
0
  0
BLOCK_RECORD
  5
4F9F
330
1
100
AcDbSymbolTableRecord
100
AcDbBlockTableRecord
  2
*D52
340
0
  0
BLOCK_RECORD
  5
4FAC
330
1
100
AcDbSymbolTableRecord
100
AcDbBlockTableRecord
  2
*D53
340
0
  0
BLOCK_RECORD
  5
504C
330
1
100
AcDbSymbolTableRecord
100
AcDbBlockTableRecord
  2
*D59
340
0
  0
BLOCK_RECORD
  5
5059
330
1
100
AcDbSymbolTableRecord
100
AcDbBlockTableRecord
  2
*D60
340
0
  0
BLOCK_RECORD
  5
5066
330
1
100
AcDbSymbolTableRecord
100
AcDbBlockTableRecord
  2
*D61
340
0
  0
ENDTAB
  0
ENDSEC
  0
SECTION
  2
BLOCKS
  0
BLOCK
  5
2D
330
17
100
AcDbEntity
  8
0
100
AcDbBlockBegin
  2
*MODEL_SPACE
 70
     0
 10
0.0
 20
0.0
 30
0.0
  3
*MODEL_SPACE
  1

  0
ENDBLK
  5
2E
330
17
100
AcDbEntity
  8
0
100
AcDbBlockEnd
  0
BLOCK
  5
2B
330
14
100
AcDbEntity
 67
     1
  8
0
100
AcDbBlockBegin
  2
*PAPER_SPACE
 70
     0
 10
0.0
 20
0.0
 30
0.0
  3
*PAPER_SPACE
  1

  0
ENDBLK
  5
2C
330
14
100
AcDbEntity
 67
     1
  8
0
100
AcDbBlockEnd
  0
BLOCK
  5
2F
330
1C
100
AcDbEntity
  8
0
100
AcDbBlockBegin
  2
BORDER
 70
     0
 10
0.0
 20
0.0
 30
0.0
  3
BORDER
  1

  0
LINE
  5
30
330
1C
100
AcDbEntity
  8
0
100
AcDbLine
 10
0.0
 20
0.0
 30
0.0
 11
1.00000000000004
 21
0.0
 31
0.0
  0
LINE
  5
31
330
1C
100
AcDbEntity
  8
0
100
AcDbLine
 10
1.00000000000004
 20
0.0
 30
0.0
 11
1.00000000000004
 21
1.00000000000004
 31
0.0
  0
LINE
  5
32
330
1C
100
AcDbEntity
  8
0
100
AcDbLine
 10
1.00000000000004
 20
1.00000000000004
 30
0.0
 11
0.0
 21
1.00000000000004
 31
0.0
  0
LINE
  5
33
330
1C
100
AcDbEntity
  8
0
100
AcDbLine
 10
0.0
 20
1.00000000000004
 30
0.0
 11
0.0
 21
0.0
 31
0.0
  0
ENDBLK
  5
34
330
1C
100
AcDbEntity
  8
0
100
AcDbBlockEnd
  0
BLOCK
  5
35
330
1D
100
AcDbEntity
  8
HAIKIN
100
AcDbBlockBegin
  2
SA3
 70
     0
 10
0.0
 20
0.0
 30
0.0
  3
SA3
  1

  0
TEXT
  5
36
330
1D
100
AcDbEntity
  8
SUNPOU
100
AcDbText
 10
340.0
 20
0.0
 30
0.0
 40
2.5
  1
新和コンクリート工業株式会社
100
AcDbText
  0
TEXT
  5
39
330
1D
100
AcDbEntity
  8
SUNPOU
100
AcDbText
 10
361.4166666666667
 20
6.25
 30
0.0
 40
2.5
  1
製図
 72
     4
 11
364.0
 21
7.5
 31
0.0
100
AcDbText
  0
TEXT
  5
3A
330
1D
100
AcDbEntity
  8
SUNPOU
100
AcDbText
 10
361.3333333333333
 20
11.25
 30
0.0
 40
2.5
  1
設計
 72
     4
 11
364.0
 21
12.5
 31
0.0
100
AcDbText
  0
TEXT
  5
3B
330
1D
100
AcDbEntity
  8
SUNPOU
100
AcDbText
 10
339.0833333333333
 20
6.250000000000014
 30
0.0
 40
2.5
  1
認
 72
     4
 11
340.25
 21
7.500000000000014
 31
0.0
100
AcDbText
  0
TEXT
  5
3C
330
1D
100
AcDbEntity
  8
SUNPOU
100
AcDbText
 10
339.0833333333333
 20
11.33333333333336
 30
0.0
 40
2.5
  1
承
 72
     4
 11
340.25
 21
12.50000000000003
 31
0.0
100
AcDbText
  0
TEXT
  5
3D
330
1D
100
AcDbEntity
  8
SUNPOU
100
AcDbText
 10
312.75
 20
11.75000000000001
 30
0.0
 40
2.5
  1
図　面　番　号
 72
     4
 11
323.0
 21
13.00000000000001
 31
0.0
100
AcDbText
  0
TEXT
  5
3E
330
1D
100
AcDbEntity
  8
SUNPOU
100
AcDbText
 10
362.0
 20
17.0
 30
0.0
 40
2.5
  1
１／
100
AcDbText
  0
TEXT
  5
3F
330
1D
100
AcDbEntity
  8
SUNPOU
100
AcDbText
 10
347.3333333333333
 20
16.25000000000001
 30
0.0
 40
2.5
  1
縮　　尺
 72
     4
 11
353.0
 21
17.50000000000001
 31
0.0
100
AcDbText
  0
TEXT
  5
40
330
1D
100
AcDbEntity
  8
SUNPOU
100
AcDbText
 10
347.3333333333333
 20
21.25
 30
0.0
 40
2.5
  1
鉄 筋 量
 72
     4
 11
353.0
 21
22.5
 31
0.0
100
AcDbText
  0
TEXT
  5
41
330
1D
100
AcDbEntity
  8
SUNPOU
100
AcDbText
 10
347.3333333333333
 20
26.25
 30
0.0
 40
2.5
  1
製 造 数
 72
     4
 11
353.0
 21
27.5
 31
0.0
100
AcDbText
  0
TEXT
  5
42
330
1D
100
AcDbEntity
  8
SUNPOU
100
AcDbText
 10
377.0
 20
21.0
 30
0.0
 40
2.5
  1
ｋｇ
 72
     2
 11
382.0
 21
21.0
 31
0.0
100
AcDbText
  0
TEXT
  5
43
330
1D
100
AcDbEntity
  8
SUNPOU
100
AcDbText
 10
339.5
 20
21.0
 30
0.0
 40
2.5
  1
ｋｇ
 72
     2
 11
344.5
 21
21.0
 31
0.0
100
AcDbText
  0
TEXT
  5
44
330
1D
100
AcDbEntity
  8
SUNPOU
100
AcDbText
 10
310.0
 20
16.25000000000001
 30
0.0
 40
2.5
  1
年 月 日
 72
     4
 11
315.5
 21
17.50000000000001
 31
0.0
100
AcDbText
  0
TEXT
  5
45
330
1D
100
AcDbEntity
  8
SUNPOU
100
AcDbText
 10
309.8333333333333
 20
21.25
 30
0.0
 40
2.5
  1
製品質量
 72
     4
 11
315.5
 21
22.5
 31
0.0
100
AcDbText
  0
TEXT
  5
46
330
1D
100
AcDbEntity
  8
SUNPOU
100
AcDbText
 10
309.9166666666667
 20
26.25
 30
0.0
 40
2.5
  1
業 者 名
 72
     4
 11
315.5
 21
27.5
 31
0.0
100
AcDbText
  0
TEXT
  5
47
330
1D
100
AcDbEntity
  8
SUNPOU
100
AcDbText
 10
309.8333333333333
 20
32.5
 30
0.0
 40
2.5
  1
名　　称
 72
     4
 11
315.5
 21
33.75
 31
0.0
100
AcDbText
  0
LINE
  5
48
330
1D
100
AcDbEntity
  8
SUNPOU
100
AcDbLine
 10
338.0
 20
11.00000000000001
 30
0.0
 11
308.0
 21
11.00000000000001
 31
0.0
  0
LINE
  5
49
330
1D
100
AcDbEntity
  8
SUNPOU
100
AcDbLine
 10
367.5
 20
4.999999999999985
 30
0.0
 11
367.5
 21
14.99999999999999
 31
0.0
  0
LINE
  5
4A
330
1D
100
AcDbEntity
  8
SUNPOU
100
AcDbLine
 10
360.5
 20
4.999999999999985
 30
0.0
 11
360.5
 21
14.99999999999999
 31
0.0
  0
LINE
  5
4B
330
1D
100
AcDbEntity
  8
SUNPOU
100
AcDbLine
 10
342.5
 20
4.999999999999994
 30
0.0
 11
342.5
 21
15.0
 31
0.0
  0
LINE
  5
4C
330
1D
100
AcDbEntity
  8
SUNPOU
100
AcDbLine
 10
338.0
 20
4.999999999999994
 30
0.0
 11
338.0
 21
15.0
 31
0.0
  0
LINE
  5
4D
330
1D
100
AcDbEntity
  8
SUNPOU
100
AcDbLine
 10
323.0
 20
15.00000000000001
 30
0.0
 11
323.0
 21
37.5
 31
0.0
  0
LINE
  5
4E
330
1D
100
AcDbEntity
  8
SUNPOU
100
AcDbLine
 10
360.5
 20
15.00000000000001
 30
0.0
 11
360.5
 21
30.0
 31
0.0
  0
LINE
  5
4F
330
1D
100
AcDbEntity
  8
SUNPOU
100
AcDbLine
 10
345.5
 20
15.00000000000001
 30
0.0
 11
345.5
 21
30.0
 31
0.0
  0
LINE
  5
50
330
1D
100
AcDbEntity
  8
SUNPOU
100
AcDbLine
 10
383.0
 20
30.0
 30
0.0
 11
308.0
 21
30.0
 31
0.0
  0
LINE
  5
51
330
1D
100
AcDbEntity
  8
SUNPOU
100
AcDbLine
 10
383.0
 20
25.0
 30
0.0
 11
308.0
 21
25.0
 31
0.0
  0
LINE
  5
52
330
1D
100
AcDbEntity
  8
SUNPOU
100
AcDbLine
 10
383.0
 20
20.0
 30
0.0
 11
308.0
 21
20.0
 31
0.0
  0
LINE
  5
53
330
1D
100
AcDbEntity
  8
SUNPOU
100
AcDbLine
 10
383.0
 20
14.99999999999999
 30
0.0
 11
308.0
 21
15.00000000000003
 31
0.0
  0
LINE
  5
54
330
1D
100
AcDbEntity
  8
HAIKIN
100
AcDbLine
 10
308.0
 20
37.5
 30
0.0
 11
383.0
 21
37.5
 31
0.0
  0
LINE
  5
55
330
1D
100
AcDbEntity
  8
HAIKIN
100
AcDbLine
 10
308.0
 20
5.000000000000008
 30
0.0
 11
308.0
 21
37.5
 31
0.0
  0
LINE
  5
56
330
1D
100
AcDbEntity
  8
SUNPOU
100
AcDbLine
 10
0.000000000000016
 20
277.0
 30
0.0
 11
0.000000000000016
 21
272.0
 31
0.0
  0
LINE
  5
57
330
1D
100
AcDbEntity
  8
SUNPOU
100
AcDbLine
 10
25.00000000000002
 20
277.0
 30
0.0
 11
0.000000000000016
 21
277.0
 31
0.0
  0
LINE
  5
58
330
1D
100
AcDbEntity
  8
SUNPOU
100
AcDbLine
 10
25.00000000000002
 20
272.0
 30
0.0
 11
25.00000000000002
 21
277.0
 31
0.0
  0
LINE
  5
59
330
1D
100
AcDbEntity
  8
HAIKIN
100
AcDbLine
 10
0.0000000000000004
 20
5.0
 30
0.0
 11
383.0
 21
5.0
 31
0.0
  0
LINE
  5
5A
330
1D
100
AcDbEntity
  8
HAIKIN
100
AcDbLine
 10
0.0000000000000158
 20
272.0
 30
0.0
 11
383.0
 21
272.0
 31
0.0
  0
LINE
  5
5B
330
1D
100
AcDbEntity
  8
HAIKIN
100
AcDbLine
 10
383.0
 20
272.0
 30
0.0
 11
383.0
 21
5.0
 31
0.0
  0
TEXT
  5
5C
330
1D
100
AcDbEntity
  8
SUNPOU
100
AcDbText
 10
3.700000000000017
 20
273.0
 30
0.0
 40
3.0
  1
Ｈ－２－共
 72
     4
 11
12.50000000000001
 21
274.5
 31
0.0
100
AcDbText
  0
LINE
  5
5D
330
1D
100
AcDbEntity
  8
HAIKIN
100
AcDbLine
 10
0.0000000000000004
 20
5.0
 30
0.0
 11
0.0000000000000158
 21
272.0
 31
0.0
  0
ENDBLK
  5
5E
330
1D
100
AcDbEntity
  8
HAIKIN
100
AcDbBlockEnd
  0
BLOCK
  5
3C79
330
3C77
100
AcDbEntity
  8
SUNPOU
100
AcDbBlockBegin
  2
HAI-D
 70
     0
 10
0.0
 20
0.0
 30
0.0
  3
HAI-D
  1

  0
CIRCLE
  5
3C78
330
3C77
100
AcDbEntity
  8
HAIKIN
100
AcDbCircle
 10
0.0
 20
-10.0
 30
0.0
 40
10.0
  0
ENDBLK
  5
3C7A
330
3C77
100
AcDbEntity
  8
SUNPOU
100
AcDbBlockEnd
  0
BLOCK
  5
419F
330
419D
100
AcDbEntity
  8
0
100
AcDbBlockBegin
  2
_DOTSMALL
 70
     0
 10
0.0
 20
0.0
 30
0.0
  3
_DOTSMALL
  1

  0
LWPOLYLINE
  5
419E
330
419D
100
AcDbEntity
  8
0
  6
ByBlock
 62
     0
100
AcDbPolyline
 90
        2
 70
     1
 43
0.5
 10
-0.0625
 20
0.0
 42
1.0
 10
0.0625
 20
0.0
 42
1.0
  0
ENDBLK
  5
41A0
330
419D
100
AcDbEntity
  8
0
100
AcDbBlockEnd
  0
BLOCK
  5
4445
330
443B
100
AcDbEntity
  8
0
100
AcDbBlockBegin
  2
*D4
 70
     1
 10
0.0
 20
0.0
 30
0.0
  3
*D4
  1

  0
LINE
  5
5473
330
443B
100
AcDbEntity
  8
SUNPOU
 62
     0
100
AcDbLine
 10
1273.030192220218
 20
4316.946392120487
 30
0.0
 11
1273.030192220218
 21
4514.726748920315
 31
0.0
  0
LINE
  5
5474
330
443B
100
AcDbEntity
  8
SUNPOU
 62
     0
100
AcDbLine
 10
1613.030192220218
 20
4316.946392120487
 30
0.0
 11
1613.030192220218
 21
4514.726748920315
 31
0.0
  0
LINE
  5
5475
330
443B
100
AcDbEntity
  8
SUNPOU
 62
     0
100
AcDbLine
 10
1303.030192220218
 20
4504.726748920314
 30
0.0
 11
1583.030192220218
 21
4504.726748920314
 31
0.0
  0
SOLID
  5
5476
330
443B
100
AcDbEntity
  8
SUNPOU
 62
     0
100
AcDbTrace
 10
1303.030192220218
 20
4509.726748920314
 30
0.0
 11
1303.030192220218
 21
4499.726748920315
 31
0.0
 12
1273.030192220218
 22
4504.726748920314
 32
0.0
 13
1273.030192220218
 23
4504.726748920314
 33
0.0
  0
SOLID
  5
5477
330
443B
100
AcDbEntity
  8
SUNPOU
 62
     0
100
AcDbTrace
 10
1583.030192220218
 20
4509.726748920314
 30
0.0
 11
1583.030192220218
 21
4499.726748920315
 31
0.0
 12
1613.030192220218
 22
4504.726748920314
 32
0.0
 13
1613.030192220218
 23
4504.726748920314
 33
0.0
  0
MTEXT
  5
5478
330
443B
100
AcDbEntity
  8
SUNPOU
 62
     0
100
AcDbMText
 10
1443.030192220218
 20
4543.726748920315
 30
0.0
 40
50.0
 41
0.0
 71
     5
 72
     1
  1
\A1;340
 73
     1
 44
1.0
1001
ACAD
1000
MTEXTBEGIN
1070
    73
1070
     1
1070
    44
1040
1.0
1070
    74
1070
     0
1000
MTEXTEND
  0
POINT
  5
5479
330
443B
100
AcDbEntity
  8
Defpoints
 62
     0
100
AcDbPoint
 10
1273.030192220218
 20
4286.946392120486
 30
0.0
  0
POINT
  5
547A
330
443B
100
AcDbEntity
  8
Defpoints
 62
     0
100
AcDbPoint
 10
1613.030192220218
 20
4286.946392120486
 30
0.0
  0
POINT
  5
547B
330
443B
100
AcDbEntity
  8
Defpoints
 62
     0
100
AcDbPoint
 10
1613.030192220218
 20
4504.726748920314
 30
0.0
  0
ENDBLK
  5
4446
330
443B
100
AcDbEntity
  8
0
100
AcDbBlockEnd
  0
BLOCK
  5
4452
330
4448
100
AcDbEntity
  8
0
100
AcDbBlockBegin
  2
*D5
 70
     1
 10
0.0
 20
0.0
 30
0.0
  3
*D5
  1

  0
LINE
  5
547C
330
4448
100
AcDbEntity
  8
SUNPOU
 62
     0
100
AcDbLine
 10
1613.030192220218
 20
4316.946392120487
 30
0.0
 11
1613.030192220218
 21
4514.726748920315
 31
0.0
  0
LINE
  5
547D
330
4448
100
AcDbEntity
  8
SUNPOU
 62
     0
100
AcDbLine
 10
2213.030192220218
 20
4316.946392120487
 30
0.0
 11
2213.030192220218
 21
4514.726748920315
 31
0.0
  0
LINE
  5
547E
330
4448
100
AcDbEntity
  8
SUNPOU
 62
     0
100
AcDbLine
 10
1643.030192220218
 20
4504.726748920314
 30
0.0
 11
2183.030192220218
 21
4504.726748920314
 31
0.0
  0
SOLID
  5
547F
330
4448
100
AcDbEntity
  8
SUNPOU
 62
     0
100
AcDbTrace
 10
1643.030192220218
 20
4509.726748920314
 30
0.0
 11
1643.030192220218
 21
4499.726748920315
 31
0.0
 12
1613.030192220218
 22
4504.726748920314
 32
0.0
 13
1613.030192220218
 23
4504.726748920314
 33
0.0
  0
SOLID
  5
5480
330
4448
100
AcDbEntity
  8
SUNPOU
 62
     0
100
AcDbTrace
 10
2183.030192220218
 20
4509.726748920314
 30
0.0
 11
2183.030192220218
 21
4499.726748920315
 31
0.0
 12
2213.030192220218
 22
4504.726748920314
 32
0.0
 13
2213.030192220218
 23
4504.726748920314
 33
0.0
  0
MTEXT
  5
5481
330
4448
100
AcDbEntity
  8
SUNPOU
 62
     0
100
AcDbMText
 10
1913.030192220218
 20
4543.726748920315
 30
0.0
 40
50.0
 41
0.0
 71
     5
 72
     1
  1
\A1;600
 73
     1
 44
1.0
1001
ACAD
1000
MTEXTBEGIN
1070
    73
1070
     1
1070
    44
1040
1.0
1070
    74
1070
     0
1000
MTEXTEND
  0
POINT
  5
5482
330
4448
100
AcDbEntity
  8
Defpoints
 62
     0
100
AcDbPoint
 10
1613.030192220218
 20
4286.946392120486
 30
0.0
  0
POINT
  5
5483
330
4448
100
AcDbEntity
  8
Defpoints
 62
     0
100
AcDbPoint
 10
2213.030192220218
 20
4286.946392120486
 30
0.0
  0
POINT
  5
5484
330
4448
100
AcDbEntity
  8
Defpoints
 62
     0
100
AcDbPoint
 10
2213.030192220218
 20
4504.726748920314
 30
0.0
  0
ENDBLK
  5
4453
330
4448
100
AcDbEntity
  8
0
100
AcDbBlockEnd
  0
BLOCK
  5
445F
330
4455
100
AcDbEntity
  8
0
100
AcDbBlockBegin
  2
*D6
 70
     1
 10
0.0
 20
0.0
 30
0.0
  3
*D6
  1

  0
LINE
  5
5485
330
4455
100
AcDbEntity
  8
SUNPOU
 62
     0
100
AcDbLine
 10
2213.030192220218
 20
4316.946392120487
 30
0.0
 11
2213.030192220218
 21
4514.726748920315
 31
0.0
  0
LINE
  5
5486
330
4455
100
AcDbEntity
  8
SUNPOU
 62
     0
100
AcDbLine
 10
2323.030192220218
 20
4316.946392120487
 30
0.0
 11
2323.030192220218
 21
4514.726748920315
 31
0.0
  0
LINE
  5
5487
330
4455
100
AcDbEntity
  8
SUNPOU
 62
     0
100
AcDbLine
 10
2243.030192220218
 20
4504.726748920314
 30
0.0
 11
2293.030192220218
 21
4504.726748920314
 31
0.0
  0
SOLID
  5
5488
330
4455
100
AcDbEntity
  8
SUNPOU
 62
     0
100
AcDbTrace
 10
2243.030192220218
 20
4509.726748920314
 30
0.0
 11
2243.030192220218
 21
4499.726748920315
 31
0.0
 12
2213.030192220218
 22
4504.726748920314
 32
0.0
 13
2213.030192220218
 23
4504.726748920314
 33
0.0
  0
SOLID
  5
5489
330
4455
100
AcDbEntity
  8
SUNPOU
 62
     0
100
AcDbTrace
 10
2293.030192220218
 20
4509.726748920314
 30
0.0
 11
2293.030192220218
 21
4499.726748920315
 31
0.0
 12
2323.030192220218
 22
4504.726748920314
 32
0.0
 13
2323.030192220218
 23
4504.726748920314
 33
0.0
  0
MTEXT
  5
548A
330
4455
100
AcDbEntity
  8
SUNPOU
 62
     0
100
AcDbMText
 10
2268.030192220218
 20
4543.726748920315
 30
0.0
 40
50.0
 41
0.0
 71
     5
 72
     1
  1
\A1;110
 73
     1
 44
1.0
1001
ACAD
1000
MTEXTBEGIN
1070
    73
1070
     1
1070
    44
1040
1.0
1070
    74
1070
     0
1000
MTEXTEND
  0
POINT
  5
548B
330
4455
100
AcDbEntity
  8
Defpoints
 62
     0
100
AcDbPoint
 10
2213.030192220218
 20
4286.946392120486
 30
0.0
  0
POINT
  5
548C
330
4455
100
AcDbEntity
  8
Defpoints
 62
     0
100
AcDbPoint
 10
2323.030192220218
 20
4286.946392120486
 30
0.0
  0
POINT
  5
548D
330
4455
100
AcDbEntity
  8
Defpoints
 62
     0
100
AcDbPoint
 10
2323.030192220218
 20
4504.726748920314
 30
0.0
  0
ENDBLK
  5
4460
330
4455
100
AcDbEntity
  8
0
100
AcDbBlockEnd
  0
BLOCK
  5
446C
330
4462
100
AcDbEntity
  8
0
100
AcDbBlockBegin
  2
*D7
 70
     1
 10
0.0
 20
0.0
 30
0.0
  3
*D7
  1

  0
LINE
  5
548E
330
4462
100
AcDbEntity
  8
SUNPOU
 62
     0
100
AcDbLine
 10
1273.030192220218
 20
4316.946392120487
 30
0.0
 11
1273.030192220218
 21
4615.930957422203
 31
0.0
  0
LINE
  5
548F
330
4462
100
AcDbEntity
  8
SUNPOU
 62
     0
100
AcDbLine
 10
2323.030192220218
 20
4316.946392120487
 30
0.0
 11
2323.030192220218
 21
4615.930957422203
 31
0.0
  0
LINE
  5
5490
330
4462
100
AcDbEntity
  8
SUNPOU
 62
     0
100
AcDbLine
 10
1303.030192220218
 20
4605.930957422202
 30
0.0
 11
2293.030192220218
 21
4605.930957422202
 31
0.0
  0
SOLID
  5
5491
330
4462
100
AcDbEntity
  8
SUNPOU
 62
     0
100
AcDbTrace
 10
1303.030192220218
 20
4610.930957422202
 30
0.0
 11
1303.030192220218
 21
4600.930957422202
 31
0.0
 12
1273.030192220218
 22
4605.930957422202
 32
0.0
 13
1273.030192220218
 23
4605.930957422202
 33
0.0
  0
SOLID
  5
5492
330
4462
100
AcDbEntity
  8
SUNPOU
 62
     0
100
AcDbTrace
 10
2293.030192220218
 20
4610.930957422202
 30
0.0
 11
2293.030192220218
 21
4600.930957422202
 31
0.0
 12
2323.030192220218
 22
4605.930957422202
 32
0.0
 13
2323.030192220218
 23
4605.930957422202
 33
0.0
  0
MTEXT
  5
5493
330
4462
100
AcDbEntity
  8
SUNPOU
 62
     0
100
AcDbMText
 10
1798.030192220218
 20
4644.930957422203
 30
0.0
 40
50.0
 41
0.0
 71
     5
 72
     1
  1
\A1;1050
 73
     1
 44
1.0
1001
ACAD
1000
MTEXTBEGIN
1070
    73
1070
     1
1070
    44
1040
1.0
1070
    74
1070
     0
1000
MTEXTEND
  0
POINT
  5
5494
330
4462
100
AcDbEntity
  8
Defpoints
 62
     0
100
AcDbPoint
 10
1273.030192220218
 20
4286.946392120486
 30
0.0
  0
POINT
  5
5495
330
4462
100
AcDbEntity
  8
Defpoints
 62
     0
100
AcDbPoint
 10
2323.030192220218
 20
4286.946392120486
 30
0.0
  0
POINT
  5
5496
330
4462
100
AcDbEntity
  8
Defpoints
 62
     0
100
AcDbPoint
 10
2323.030192220218
 20
4605.930957422202
 30
0.0
  0
ENDBLK
  5
446D
330
4462
100
AcDbEntity
  8
0
100
AcDbBlockEnd
  0
BLOCK
  5
4479
330
446F
100
AcDbEntity
  8
0
100
AcDbBlockBegin
  2
*D8
 70
     1
 10
0.0
 20
0.0
 30
0.0
  3
*D8
  1

  0
LINE
  5
5497
330
446F
100
AcDbEntity
  8
SUNPOU
 62
     0
100
AcDbLine
 10
2353.030192220218
 20
4286.946392120486
 30
0.0
 11
2577.903238111372
 21
4286.946392120486
 31
0.0
  0
LINE
  5
5498
330
446F
100
AcDbEntity
  8
SUNPOU
 62
     0
100
AcDbLine
 10
2353.030192220218
 20
4136.946392120487
 30
0.0
 11
2577.903238111372
 21
4136.946392120487
 31
0.0
  0
LINE
  5
5499
330
446F
100
AcDbEntity
  8
SUNPOU
 62
     0
100
AcDbLine
 10
2567.903238111372
 20
4256.946392120487
 30
0.0
 11
2567.903238111372
 21
4166.946392120487
 31
0.0
  0
SOLID
  5
549A
330
446F
100
AcDbEntity
  8
SUNPOU
 62
     0
100
AcDbTrace
 10
2562.903238111372
 20
4256.946392120487
 30
0.0
 11
2572.903238111373
 21
4256.946392120487
 31
0.0
 12
2567.903238111372
 22
4286.946392120486
 32
0.0
 13
2567.903238111372
 23
4286.946392120486
 33
0.0
  0
SOLID
  5
549B
330
446F
100
AcDbEntity
  8
SUNPOU
 62
     0
100
AcDbTrace
 10
2562.903238111372
 20
4166.946392120487
 30
0.0
 11
2572.903238111373
 21
4166.946392120487
 31
0.0
 12
2567.903238111372
 22
4136.946392120487
 32
0.0
 13
2567.903238111372
 23
4136.946392120487
 33
0.0
  0
MTEXT
  5
549C
330
446F
100
AcDbEntity
  8
SUNPOU
 62
     0
100
AcDbMText
 10
2528.903238111372
 20
4211.946392120488
 30
0.0
 40
50.0
 41
0.0
 71
     5
 72
     1
  1
\A1;150
 11
0.0000000000000001
 21
1.0
 31
0.0
 73
     1
 44
1.0
1001
ACAD
1000
MTEXTBEGIN
1070
    73
1070
     1
1070
    44
1040
1.0
1070
    74
1070
     0
1000
MTEXTEND
  0
POINT
  5
549D
330
446F
100
AcDbEntity
  8
Defpoints
 62
     0
100
AcDbPoint
 10
2323.030192220218
 20
4286.946392120486
 30
0.0
  0
POINT
  5
549E
330
446F
100
AcDbEntity
  8
Defpoints
 62
     0
100
AcDbPoint
 10
2323.030192220218
 20
4136.946392120487
 30
0.0
  0
POINT
  5
549F
330
446F
100
AcDbEntity
  8
Defpoints
 62
     0
100
AcDbPoint
 10
2567.903238111372
 20
4136.946392120487
 30
0.0
  0
ENDBLK
  5
447A
330
446F
100
AcDbEntity
  8
0
100
AcDbBlockEnd
  0
BLOCK
  5
4486
330
447C
100
AcDbEntity
  8
0
100
AcDbBlockBegin
  2
*D9
 70
     1
 10
0.0
 20
0.0
 30
0.0
  3
*D9
  1

  0
LINE
  5
54A0
330
447C
100
AcDbEntity
  8
SUNPOU
 62
     0
100
AcDbLine
 10
1243.030192220218
 20
4286.946392120486
 30
0.0
 11
972.7434216146939
 21
4286.946392120486
 31
0.0
  0
LINE
  5
54A1
330
447C
100
AcDbEntity
  8
SUNPOU
 62
     0
100
AcDbLine
 10
1243.030192220218
 20
4146.946392120486
 30
0.0
 11
972.7434216146939
 21
4146.946392120486
 31
0.0
  0
LINE
  5
54A2
330
447C
100
AcDbEntity
  8
SUNPOU
 62
     0
100
AcDbLine
 10
982.7434216146938
 20
4256.946392120487
 30
0.0
 11
982.7434216146938
 21
4176.946392120487
 31
0.0
  0
SOLID
  5
54A3
330
447C
100
AcDbEntity
  8
SUNPOU
 62
     0
100
AcDbTrace
 10
977.7434216146939
 20
4256.946392120487
 30
0.0
 11
987.7434216146939
 21
4256.946392120487
 31
0.0
 12
982.7434216146938
 22
4286.946392120486
 32
0.0
 13
982.7434216146938
 23
4286.946392120486
 33
0.0
  0
SOLID
  5
54A4
330
447C
100
AcDbEntity
  8
SUNPOU
 62
     0
100
AcDbTrace
 10
977.7434216146939
 20
4176.946392120487
 30
0.0
 11
987.7434216146939
 21
4176.946392120487
 31
0.0
 12
982.7434216146938
 22
4146.946392120486
 32
0.0
 13
982.7434216146938
 23
4146.946392120486
 33
0.0
  0
MTEXT
  5
54A5
330
447C
100
AcDbEntity
  8
SUNPOU
 62
     0
100
AcDbMText
 10
943.7434216146932
 20
4216.946392120487
 30
0.0
 40
50.0
 41
0.0
 71
     5
 72
     1
  1
\A1;140
 11
0.0000000000000001
 21
1.0
 31
0.0
 73
     1
 44
1.0
1001
ACAD
1000
MTEXTBEGIN
1070
    73
1070
     1
1070
    44
1040
1.0
1070
    74
1070
     0
1000
MTEXTEND
  0
POINT
  5
54A6
330
447C
100
AcDbEntity
  8
Defpoints
 62
     0
100
AcDbPoint
 10
1273.030192220218
 20
4286.946392120486
 30
0.0
  0
POINT
  5
54A7
330
447C
100
AcDbEntity
  8
Defpoints
 62
     0
100
AcDbPoint
 10
1273.030192220218
 20
4146.946392120486
 30
0.0
  0
POINT
  5
54A8
330
447C
100
AcDbEntity
  8
Defpoints
 62
     0
100
AcDbPoint
 10
982.7434216146938
 20
4146.946392120486
 30
0.0
  0
ENDBLK
  5
4487
330
447C
100
AcDbEntity
  8
0
100
AcDbBlockEnd
  0
BLOCK
  5
44B0
330
44A6
100
AcDbEntity
  8
0
100
AcDbBlockBegin
  2
*D11
 70
     1
 10
0.0
 20
0.0
 30
0.0
  3
*D11
  1

  0
LINE
  5
54B3
330
44A6
100
AcDbEntity
  8
SUNPOU
 62
     0
100
AcDbLine
 10
1348.030192220218
 20
4107.946392120487
 30
0.0
 11
1348.030192220218
 21
3896.812652467852
 31
0.0
  0
LINE
  5
54B4
330
44A6
100
AcDbEntity
  8
SUNPOU
 62
     0
100
AcDbLine
 10
1578.030192220218
 20
4107.946392120487
 30
0.0
 11
1578.030192220218
 21
3896.812652467852
 31
0.0
  0
LINE
  5
54B5
330
44A6
100
AcDbEntity
  8
SUNPOU
 62
     0
100
AcDbLine
 10
1378.030192220218
 20
3906.812652467852
 30
0.0
 11
1548.030192220218
 21
3906.812652467852
 31
0.0
  0
SOLID
  5
54B6
330
44A6
100
AcDbEntity
  8
SUNPOU
 62
     0
100
AcDbTrace
 10
1378.030192220218
 20
3911.812652467853
 30
0.0
 11
1378.030192220218
 21
3901.812652467852
 31
0.0
 12
1348.030192220218
 22
3906.812652467852
 32
0.0
 13
1348.030192220218
 23
3906.812652467852
 33
0.0
  0
SOLID
  5
54B7
330
44A6
100
AcDbEntity
  8
SUNPOU
 62
     0
100
AcDbTrace
 10
1548.030192220218
 20
3911.812652467853
 30
0.0
 11
1548.030192220218
 21
3901.812652467852
 31
0.0
 12
1578.030192220218
 22
3906.812652467852
 32
0.0
 13
1578.030192220218
 23
3906.812652467852
 33
0.0
  0
MTEXT
  5
54B8
330
44A6
100
AcDbEntity
  8
SUNPOU
 62
     0
100
AcDbMText
 10
1463.030192220218
 20
3945.812652467852
 30
0.0
 40
50.0
 41
0.0
 71
     5
 72
     1
  1
\A1;230
 73
     1
 44
1.0
1001
ACAD
1000
MTEXTBEGIN
1070
    73
1070
     1
1070
    44
1040
1.0
1070
    74
1070
     0
1000
MTEXTEND
  0
POINT
  5
54B9
330
44A6
100
AcDbEntity
  8
Defpoints
 62
     0
100
AcDbPoint
 10
1348.030192220218
 20
4137.946392120487
 30
0.0
  0
POINT
  5
54BA
330
44A6
100
AcDbEntity
  8
Defpoints
 62
     0
100
AcDbPoint
 10
1578.030192220218
 20
4137.946392120487
 30
0.0
  0
POINT
  5
54BB
330
44A6
100
AcDbEntity
  8
Defpoints
 62
     0
100
AcDbPoint
 10
1578.030192220218
 20
3906.812652467852
 30
0.0
  0
ENDBLK
  5
44B1
330
44A6
100
AcDbEntity
  8
0
100
AcDbBlockEnd
  0
BLOCK
  5
44BD
330
44B3
100
AcDbEntity
  8
0
100
AcDbBlockBegin
  2
*D12
 70
     1
 10
0.0
 20
0.0
 30
0.0
  3
*D12
  1

  0
LINE
  5
54BC
330
44B3
100
AcDbEntity
  8
SUNPOU
 62
     0
100
AcDbLine
 10
1578.030192220218
 20
4107.946392120487
 30
0.0
 11
1578.030192220218
 21
3896.812652467852
 31
0.0
  0
LINE
  5
54BD
330
44B3
100
AcDbEntity
  8
SUNPOU
 62
     0
100
AcDbLine
 10
2248.030192220218
 20
4107.946392120487
 30
0.0
 11
2248.030192220218
 21
3896.812652467852
 31
0.0
  0
LINE
  5
54BE
330
44B3
100
AcDbEntity
  8
SUNPOU
 62
     0
100
AcDbLine
 10
1608.030192220217
 20
3906.812652467852
 30
0.0
 11
2218.030192220218
 21
3906.812652467852
 31
0.0
  0
SOLID
  5
54BF
330
44B3
100
AcDbEntity
  8
SUNPOU
 62
     0
100
AcDbTrace
 10
1608.030192220217
 20
3911.812652467853
 30
0.0
 11
1608.030192220217
 21
3901.812652467852
 31
0.0
 12
1578.030192220218
 22
3906.812652467852
 32
0.0
 13
1578.030192220218
 23
3906.812652467852
 33
0.0
  0
SOLID
  5
54C0
330
44B3
100
AcDbEntity
  8
SUNPOU
 62
     0
100
AcDbTrace
 10
2218.030192220218
 20
3911.812652467853
 30
0.0
 11
2218.030192220218
 21
3901.812652467852
 31
0.0
 12
2248.030192220218
 22
3906.812652467852
 32
0.0
 13
2248.030192220218
 23
3906.812652467852
 33
0.0
  0
MTEXT
  5
54C1
330
44B3
100
AcDbEntity
  8
SUNPOU
 62
     0
100
AcDbMText
 10
1913.030192220218
 20
3945.812652467852
 30
0.0
 40
50.0
 41
0.0
 71
     5
 72
     1
  1
\A1;670
 73
     1
 44
1.0
1001
ACAD
1000
MTEXTBEGIN
1070
    73
1070
     1
1070
    44
1040
1.0
1070
    74
1070
     0
1000
MTEXTEND
  0
POINT
  5
54C2
330
44B3
100
AcDbEntity
  8
Defpoints
 62
     0
100
AcDbPoint
 10
1578.030192220218
 20
4137.946392120487
 30
0.0
  0
POINT
  5
54C3
330
44B3
100
AcDbEntity
  8
Defpoints
 62
     0
100
AcDbPoint
 10
2248.030192220218
 20
4137.946392120487
 30
0.0
  0
POINT
  5
54C4
330
44B3
100
AcDbEntity
  8
Defpoints
 62
     0
100
AcDbPoint
 10
2248.030192220218
 20
3906.812652467852
 30
0.0
  0
ENDBLK
  5
44BE
330
44B3
100
AcDbEntity
  8
0
100
AcDbBlockEnd
  0
BLOCK
  5
44CB
330
44C0
100
AcDbEntity
  8
0
100
AcDbBlockBegin
  2
*D13
 70
     1
 10
0.0
 20
0.0
 30
0.0
  3
*D13
  1

  0
LINE
  5
4C20
330
44C0
100
AcDbEntity
  8
SUNPOU
 62
     0
370
    -2
100
AcDbLine
 10
2248.030192220218
 20
4107.946392120487
 30
0.0
 11
2248.030192220218
 21
3797.248177260445
 31
0.0
  0
LINE
  5
4C21
330
44C0
100
AcDbEntity
  8
SUNPOU
 62
     0
370
    -2
100
AcDbLine
 10
2323.030192220218
 20
4106.946392120486
 30
0.0
 11
2323.030192220218
 21
3797.248177260445
 31
0.0
  0
LINE
  5
4C22
330
44C0
100
AcDbEntity
  8
SUNPOU
 62
     0
370
    -2
100
AcDbLine
 10
2218.030192220218
 20
3807.248177260444
 30
0.0
 11
2188.030192220218
 21
3807.248177260444
 31
0.0
  0
LINE
  5
4C23
330
44C0
100
AcDbEntity
  8
SUNPOU
 62
     0
370
    -2
100
AcDbLine
 10
2353.030192220218
 20
3807.248177260444
 30
0.0
 11
2383.030192220218
 21
3807.248177260444
 31
0.0
  0
SOLID
  5
4C24
330
44C0
100
AcDbEntity
  8
SUNPOU
 62
     0
100
AcDbTrace
 10
2218.030192220218
 20
3812.248177260445
 30
0.0
 11
2218.030192220218
 21
3802.248177260445
 31
0.0
 12
2248.030192220218
 22
3807.248177260444
 32
0.0
 13
2248.030192220218
 23
3807.248177260444
 33
0.0
  0
SOLID
  5
4C25
330
44C0
100
AcDbEntity
  8
SUNPOU
 62
     0
100
AcDbTrace
 10
2353.030192220218
 20
3812.248177260445
 30
0.0
 11
2353.030192220218
 21
3802.248177260445
 31
0.0
 12
2323.030192220218
 22
3807.248177260444
 32
0.0
 13
2323.030192220218
 23
3807.248177260444
 33
0.0
  0
MTEXT
  5
4C26
330
44C0
100
AcDbEntity
  8
SUNPOU
 62
     0
100
AcDbMText
 10
2285.530192220218
 20
3846.248177260444
 30
0.0
 40
50.0
 41
0.0
 71
     5
 72
     1
  1
\A1;75
 73
     1
 44
1.0
1001
ACAD
1000
MTEXTBEGIN
1070
    73
1070
     1
1070
    44
1040
1.0
1070
    74
1070
     0
1000
MTEXTEND
  0
POINT
  5
4C27
330
44C0
100
AcDbEntity
  8
Defpoints
 62
     0
100
AcDbPoint
 10
2248.030192220218
 20
4137.946392120487
 30
0.0
  0
POINT
  5
4C28
330
44C0
100
AcDbEntity
  8
Defpoints
 62
     0
100
AcDbPoint
 10
2323.030192220218
 20
4136.946392120487
 30
0.0
  0
POINT
  5
4C29
330
44C0
100
AcDbEntity
  8
Defpoints
 62
     0
100
AcDbPoint
 10
2323.030192220218
 20
3807.248177260444
 30
0.0
  0
ENDBLK
  5
44CC
330
44C0
100
AcDbEntity
  8
0
100
AcDbBlockEnd
  0
BLOCK
  5
44D8
330
44CE
100
AcDbEntity
  8
0
100
AcDbBlockBegin
  2
*D14
 70
     1
 10
0.0
 20
0.0
 30
0.0
  3
*D14
  1

  0
LINE
  5
54C5
330
44CE
100
AcDbEntity
  8
SUNPOU
 62
     0
100
AcDbLine
 10
1348.030192220218
 20
4106.946392120486
 30
0.0
 11
1348.030192220218
 21
3797.248177260445
 31
0.0
  0
LINE
  5
54C6
330
44CE
100
AcDbEntity
  8
SUNPOU
 62
     0
100
AcDbLine
 10
2248.030192220218
 20
4106.946392120486
 30
0.0
 11
2248.030192220218
 21
3797.248177260445
 31
0.0
  0
LINE
  5
54C7
330
44CE
100
AcDbEntity
  8
SUNPOU
 62
     0
100
AcDbLine
 10
1378.030192220218
 20
3807.248177260444
 30
0.0
 11
2218.030192220218
 21
3807.248177260444
 31
0.0
  0
SOLID
  5
54C8
330
44CE
100
AcDbEntity
  8
SUNPOU
 62
     0
100
AcDbTrace
 10
1378.030192220218
 20
3812.248177260445
 30
0.0
 11
1378.030192220218
 21
3802.248177260445
 31
0.0
 12
1348.030192220218
 22
3807.248177260444
 32
0.0
 13
1348.030192220218
 23
3807.248177260444
 33
0.0
  0
SOLID
  5
54C9
330
44CE
100
AcDbEntity
  8
SUNPOU
 62
     0
100
AcDbTrace
 10
2218.030192220218
 20
3812.248177260445
 30
0.0
 11
2218.030192220218
 21
3802.248177260445
 31
0.0
 12
2248.030192220218
 22
3807.248177260444
 32
0.0
 13
2248.030192220218
 23
3807.248177260444
 33
0.0
  0
MTEXT
  5
54CA
330
44CE
100
AcDbEntity
  8
SUNPOU
 62
     0
100
AcDbMText
 10
1798.030192220218
 20
3846.248177260444
 30
0.0
 40
50.0
 41
0.0
 71
     5
 72
     1
  1
\A1;900
 73
     1
 44
1.0
1001
ACAD
1000
MTEXTBEGIN
1070
    73
1070
     1
1070
    44
1040
1.0
1070
    74
1070
     0
1000
MTEXTEND
  0
POINT
  5
54CB
330
44CE
100
AcDbEntity
  8
Defpoints
 62
     0
100
AcDbPoint
 10
1348.030192220218
 20
4136.946392120487
 30
0.0
  0
POINT
  5
54CC
330
44CE
100
AcDbEntity
  8
Defpoints
 62
     0
100
AcDbPoint
 10
2248.030192220218
 20
4136.946392120487
 30
0.0
  0
POINT
  5
54CD
330
44CE
100
AcDbEntity
  8
Defpoints
 62
     0
100
AcDbPoint
 10
2248.030192220218
 20
3807.248177260444
 30
0.0
  0
ENDBLK
  5
44D9
330
44CE
100
AcDbEntity
  8
0
100
AcDbBlockEnd
  0
BLOCK
  5
4504
330
44F9
100
AcDbEntity
  8
0
100
AcDbBlockBegin
  2
*D15
 70
     1
 10
0.0
 20
0.0
 30
0.0
  3
*D15
  1

  0
LINE
  5
4C16
330
44F9
100
AcDbEntity
  8
SUNPOU
 62
     0
370
    -2
100
AcDbLine
 10
1348.030192220218
 20
4107.946392120487
 30
0.0
 11
1348.030192220218
 21
3797.248177260445
 31
0.0
  0
LINE
  5
4C17
330
44F9
100
AcDbEntity
  8
SUNPOU
 62
     0
370
    -2
100
AcDbLine
 10
1273.030192220218
 20
4106.946392120486
 30
0.0
 11
1273.030192220218
 21
3797.248177260445
 31
0.0
  0
LINE
  5
4C18
330
44F9
100
AcDbEntity
  8
SUNPOU
 62
     0
370
    -2
100
AcDbLine
 10
1378.030192220218
 20
3807.248177260444
 30
0.0
 11
1408.030192220218
 21
3807.248177260444
 31
0.0
  0
LINE
  5
4C19
330
44F9
100
AcDbEntity
  8
SUNPOU
 62
     0
370
    -2
100
AcDbLine
 10
1243.030192220218
 20
3807.248177260444
 30
0.0
 11
1213.030192220218
 21
3807.248177260444
 31
0.0
  0
SOLID
  5
4C1A
330
44F9
100
AcDbEntity
  8
SUNPOU
 62
     0
100
AcDbTrace
 10
1378.030192220218
 20
3812.248177260445
 30
0.0
 11
1378.030192220218
 21
3802.248177260445
 31
0.0
 12
1348.030192220218
 22
3807.248177260444
 32
0.0
 13
1348.030192220218
 23
3807.248177260444
 33
0.0
  0
SOLID
  5
4C1B
330
44F9
100
AcDbEntity
  8
SUNPOU
 62
     0
100
AcDbTrace
 10
1243.030192220218
 20
3812.248177260445
 30
0.0
 11
1243.030192220218
 21
3802.248177260445
 31
0.0
 12
1273.030192220218
 22
3807.248177260444
 32
0.0
 13
1273.030192220218
 23
3807.248177260444
 33
0.0
  0
MTEXT
  5
4C1C
330
44F9
100
AcDbEntity
  8
SUNPOU
 62
     0
100
AcDbMText
 10
1310.530192220218
 20
3846.248177260444
 30
0.0
 40
50.0
 41
0.0
 71
     5
 72
     1
  1
\A1;75
 73
     1
 44
1.0
1001
ACAD
1000
MTEXTBEGIN
1070
    73
1070
     1
1070
    44
1040
1.0
1070
    74
1070
     0
1000
MTEXTEND
  0
POINT
  5
4C1D
330
44F9
100
AcDbEntity
  8
Defpoints
 62
     0
100
AcDbPoint
 10
1348.030192220218
 20
4137.946392120487
 30
0.0
  0
POINT
  5
4C1E
330
44F9
100
AcDbEntity
  8
Defpoints
 62
     0
100
AcDbPoint
 10
1273.030192220218
 20
4136.946392120487
 30
0.0
  0
POINT
  5
4C1F
330
44F9
100
AcDbEntity
  8
Defpoints
 62
     0
100
AcDbPoint
 10
1273.030192220218
 20
3807.248177260444
 30
0.0
  0
ENDBLK
  5
4505
330
44F9
100
AcDbEntity
  8
0
100
AcDbBlockEnd
  0
BLOCK
  5
48A2
330
4897
100
AcDbEntity
  8
0
100
AcDbBlockBegin
  2
*D24
 70
     1
 10
0.0
 20
0.0
 30
0.0
  3
*D24
  1

  0
LINE
  5
551A
330
4897
100
AcDbEntity
  8
SUNPOU
 62
     0
100
AcDbLine
 10
3571.128116475084
 20
4316.946392120487
 30
0.0
 11
3571.128116475084
 21
4514.726748920315
 31
0.0
  0
LINE
  5
551B
330
4897
100
AcDbEntity
  8
SUNPOU
 62
     0
100
AcDbLine
 10
3646.128116475084
 20
4316.946392120487
 30
0.0
 11
3646.128116475084
 21
4514.726748920315
 31
0.0
  0
LINE
  5
551C
330
4897
100
AcDbEntity
  8
SUNPOU
 62
     0
100
AcDbLine
 10
3541.128116475084
 20
4504.726748920314
 30
0.0
 11
3511.128116475084
 21
4504.726748920314
 31
0.0
  0
LINE
  5
551D
330
4897
100
AcDbEntity
  8
SUNPOU
 62
     0
100
AcDbLine
 10
3676.128116475084
 20
4504.726748920314
 30
0.0
 11
3706.128116475084
 21
4504.726748920314
 31
0.0
  0
SOLID
  5
551E
330
4897
100
AcDbEntity
  8
SUNPOU
 62
     0
100
AcDbTrace
 10
3541.128116475084
 20
4509.726748920314
 30
0.0
 11
3541.128116475084
 21
4499.726748920315
 31
0.0
 12
3571.128116475084
 22
4504.726748920314
 32
0.0
 13
3571.128116475084
 23
4504.726748920314
 33
0.0
  0
SOLID
  5
551F
330
4897
100
AcDbEntity
  8
SUNPOU
 62
     0
100
AcDbTrace
 10
3676.128116475084
 20
4509.726748920314
 30
0.0
 11
3676.128116475084
 21
4499.726748920315
 31
0.0
 12
3646.128116475084
 22
4504.726748920314
 32
0.0
 13
3646.128116475084
 23
4504.726748920314
 33
0.0
  0
MTEXT
  5
5520
330
4897
100
AcDbEntity
  8
SUNPOU
 62
     0
100
AcDbMText
 10
3608.628116475084
 20
4543.726748920315
 30
0.0
 40
50.0
 41
0.0
 71
     5
 72
     1
  1
\A1;75
 73
     1
 44
1.0
1001
ACAD
1000
MTEXTBEGIN
1070
    73
1070
     1
1070
    44
1040
1.0
1070
    74
1070
     0
1000
MTEXTEND
  0
POINT
  5
5521
330
4897
100
AcDbEntity
  8
Defpoints
 62
     0
100
AcDbPoint
 10
3571.128116475084
 20
4286.946392120486
 30
0.0
  0
POINT
  5
5522
330
4897
100
AcDbEntity
  8
Defpoints
 62
     0
100
AcDbPoint
 10
3646.128116475084
 20
4286.946392120486
 30
0.0
  0
POINT
  5
5523
330
4897
100
AcDbEntity
  8
Defpoints
 62
     0
100
AcDbPoint
 10
3646.128116475084
 20
4504.726748920314
 30
0.0
  0
ENDBLK
  5
48A3
330
4897
100
AcDbEntity
  8
0
100
AcDbBlockEnd
  0
BLOCK
  5
48AF
330
48A5
100
AcDbEntity
  8
0
100
AcDbBlockBegin
  2
*D25
 70
     1
 10
0.0
 20
0.0
 30
0.0
  3
*D25
  1

  0
LINE
  5
5524
330
48A5
100
AcDbEntity
  8
SUNPOU
 62
     0
100
AcDbLine
 10
3646.128116475084
 20
4316.946392120487
 30
0.0
 11
3646.128116475084
 21
4514.726748920315
 31
0.0
  0
LINE
  5
5525
330
48A5
100
AcDbEntity
  8
SUNPOU
 62
     0
100
AcDbLine
 10
3946.128116475084
 20
4316.946392120487
 30
0.0
 11
3946.128116475084
 21
4514.726748920315
 31
0.0
  0
LINE
  5
5526
330
48A5
100
AcDbEntity
  8
SUNPOU
 62
     0
100
AcDbLine
 10
3676.128116475084
 20
4504.726748920314
 30
0.0
 11
3916.128116475084
 21
4504.726748920314
 31
0.0
  0
SOLID
  5
5527
330
48A5
100
AcDbEntity
  8
SUNPOU
 62
     0
100
AcDbTrace
 10
3676.128116475084
 20
4509.726748920314
 30
0.0
 11
3676.128116475084
 21
4499.726748920315
 31
0.0
 12
3646.128116475084
 22
4504.726748920314
 32
0.0
 13
3646.128116475084
 23
4504.726748920314
 33
0.0
  0
SOLID
  5
5528
330
48A5
100
AcDbEntity
  8
SUNPOU
 62
     0
100
AcDbTrace
 10
3916.128116475084
 20
4509.726748920314
 30
0.0
 11
3916.128116475084
 21
4499.726748920315
 31
0.0
 12
3946.128116475084
 22
4504.726748920314
 32
0.0
 13
3946.128116475084
 23
4504.726748920314
 33
0.0
  0
MTEXT
  5
5529
330
48A5
100
AcDbEntity
  8
SUNPOU
 62
     0
100
AcDbMText
 10
3796.128116475084
 20
4543.726748920315
 30
0.0
 40
50.0
 41
0.0
 71
     5
 72
     1
  1
\A1;300
 73
     1
 44
1.0
1001
ACAD
1000
MTEXTBEGIN
1070
    73
1070
     1
1070
    44
1040
1.0
1070
    74
1070
     0
1000
MTEXTEND
  0
POINT
  5
552A
330
48A5
100
AcDbEntity
  8
Defpoints
 62
     0
100
AcDbPoint
 10
3646.128116475084
 20
4286.946392120486
 30
0.0
  0
POINT
  5
552B
330
48A5
100
AcDbEntity
  8
Defpoints
 62
     0
100
AcDbPoint
 10
3946.128116475084
 20
4286.946392120486
 30
0.0
  0
POINT
  5
552C
330
48A5
100
AcDbEntity
  8
Defpoints
 62
     0
100
AcDbPoint
 10
3946.128116475084
 20
4504.726748920314
 30
0.0
  0
ENDBLK
  5
48B0
330
48A5
100
AcDbEntity
  8
0
100
AcDbBlockEnd
  0
BLOCK
  5
48BC
330
48B2
100
AcDbEntity
  8
0
100
AcDbBlockBegin
  2
*D26
 70
     1
 10
0.0
 20
0.0
 30
0.0
  3
*D26
  1

  0
LINE
  5
552D
330
48B2
100
AcDbEntity
  8
SUNPOU
 62
     0
100
AcDbLine
 10
3946.128116475084
 20
4316.946392120487
 30
0.0
 11
3946.128116475084
 21
4514.726748920315
 31
0.0
  0
LINE
  5
552E
330
48B2
100
AcDbEntity
  8
SUNPOU
 62
     0
100
AcDbLine
 10
4546.128116475084
 20
4316.946392120487
 30
0.0
 11
4546.128116475084
 21
4514.726748920315
 31
0.0
  0
LINE
  5
552F
330
48B2
100
AcDbEntity
  8
SUNPOU
 62
     0
100
AcDbLine
 10
3976.128116475083
 20
4504.726748920314
 30
0.0
 11
4516.128116475083
 21
4504.726748920314
 31
0.0
  0
SOLID
  5
5530
330
48B2
100
AcDbEntity
  8
SUNPOU
 62
     0
100
AcDbTrace
 10
3976.128116475083
 20
4509.726748920314
 30
0.0
 11
3976.128116475083
 21
4499.726748920315
 31
0.0
 12
3946.128116475084
 22
4504.726748920314
 32
0.0
 13
3946.128116475084
 23
4504.726748920314
 33
0.0
  0
SOLID
  5
5531
330
48B2
100
AcDbEntity
  8
SUNPOU
 62
     0
100
AcDbTrace
 10
4516.128116475083
 20
4509.726748920314
 30
0.0
 11
4516.128116475083
 21
4499.726748920315
 31
0.0
 12
4546.128116475084
 22
4504.726748920314
 32
0.0
 13
4546.128116475084
 23
4504.726748920314
 33
0.0
  0
MTEXT
  5
5532
330
48B2
100
AcDbEntity
  8
SUNPOU
 62
     0
100
AcDbMText
 10
4246.128116475083
 20
4543.726748920315
 30
0.0
 40
50.0
 41
0.0
 71
     5
 72
     1
  1
\A1;600
 73
     1
 44
1.0
1001
ACAD
1000
MTEXTBEGIN
1070
    73
1070
     1
1070
    44
1040
1.0
1070
    74
1070
     0
1000
MTEXTEND
  0
POINT
  5
5533
330
48B2
100
AcDbEntity
  8
Defpoints
 62
     0
100
AcDbPoint
 10
3946.128116475084
 20
4286.946392120486
 30
0.0
  0
POINT
  5
5534
330
48B2
100
AcDbEntity
  8
Defpoints
 62
     0
100
AcDbPoint
 10
4546.128116475084
 20
4286.946392120486
 30
0.0
  0
POINT
  5
5535
330
48B2
100
AcDbEntity
  8
Defpoints
 62
     0
100
AcDbPoint
 10
4546.128116475084
 20
4504.726748920314
 30
0.0
  0
ENDBLK
  5
48BD
330
48B2
100
AcDbEntity
  8
0
100
AcDbBlockEnd
  0
BLOCK
  5
48CA
330
48BF
100
AcDbEntity
  8
0
100
AcDbBlockBegin
  2
*D27
 70
     1
 10
0.0
 20
0.0
 30
0.0
  3
*D27
  1

  0
LINE
  5
5536
330
48BF
100
AcDbEntity
  8
SUNPOU
 62
     0
100
AcDbLine
 10
4546.128116475084
 20
4316.946392120487
 30
0.0
 11
4546.128116475084
 21
4514.726748920315
 31
0.0
  0
LINE
  5
5537
330
48BF
100
AcDbEntity
  8
SUNPOU
 62
     0
100
AcDbLine
 10
4621.128116475083
 20
4316.946392120487
 30
0.0
 11
4621.128116475083
 21
4514.726748920315
 31
0.0
  0
LINE
  5
5538
330
48BF
100
AcDbEntity
  8
SUNPOU
 62
     0
100
AcDbLine
 10
4516.128116475083
 20
4504.726748920314
 30
0.0
 11
4486.128116475083
 21
4504.726748920314
 31
0.0
  0
LINE
  5
5539
330
48BF
100
AcDbEntity
  8
SUNPOU
 62
     0
100
AcDbLine
 10
4651.128116475083
 20
4504.726748920314
 30
0.0
 11
4681.128116475083
 21
4504.726748920314
 31
0.0
  0
SOLID
  5
553A
330
48BF
100
AcDbEntity
  8
SUNPOU
 62
     0
100
AcDbTrace
 10
4516.128116475083
 20
4509.726748920314
 30
0.0
 11
4516.128116475083
 21
4499.726748920315
 31
0.0
 12
4546.128116475084
 22
4504.726748920314
 32
0.0
 13
4546.128116475084
 23
4504.726748920314
 33
0.0
  0
SOLID
  5
553B
330
48BF
100
AcDbEntity
  8
SUNPOU
 62
     0
100
AcDbTrace
 10
4651.128116475083
 20
4509.726748920314
 30
0.0
 11
4651.128116475083
 21
4499.726748920315
 31
0.0
 12
4621.128116475083
 22
4504.726748920314
 32
0.0
 13
4621.128116475083
 23
4504.726748920314
 33
0.0
  0
MTEXT
  5
553C
330
48BF
100
AcDbEntity
  8
SUNPOU
 62
     0
100
AcDbMText
 10
4583.628116475083
 20
4543.726748920315
 30
0.0
 40
50.0
 41
0.0
 71
     5
 72
     1
  1
\A1;75
 73
     1
 44
1.0
1001
ACAD
1000
MTEXTBEGIN
1070
    73
1070
     1
1070
    44
1040
1.0
1070
    74
1070
     0
1000
MTEXTEND
  0
POINT
  5
553D
330
48BF
100
AcDbEntity
  8
Defpoints
 62
     0
100
AcDbPoint
 10
4546.128116475084
 20
4286.946392120486
 30
0.0
  0
POINT
  5
553E
330
48BF
100
AcDbEntity
  8
Defpoints
 62
     0
100
AcDbPoint
 10
4621.128116475083
 20
4286.946392120486
 30
0.0
  0
POINT
  5
553F
330
48BF
100
AcDbEntity
  8
Defpoints
 62
     0
100
AcDbPoint
 10
4621.128116475083
 20
4504.726748920314
 30
0.0
  0
ENDBLK
  5
48CB
330
48BF
100
AcDbEntity
  8
0
100
AcDbBlockEnd
  0
BLOCK
  5
48D7
330
48CD
100
AcDbEntity
  8
0
100
AcDbBlockBegin
  2
*D28
 70
     1
 10
0.0
 20
0.0
 30
0.0
  3
*D28
  1

  0
LINE
  5
5540
330
48CD
100
AcDbEntity
  8
SUNPOU
 62
     0
100
AcDbLine
 10
3571.128116475084
 20
4316.946392120487
 30
0.0
 11
3571.128116475084
 21
4615.930957422203
 31
0.0
  0
LINE
  5
5541
330
48CD
100
AcDbEntity
  8
SUNPOU
 62
     0
100
AcDbLine
 10
4621.128116475083
 20
4316.946392120487
 30
0.0
 11
4621.128116475083
 21
4615.930957422203
 31
0.0
  0
LINE
  5
5542
330
48CD
100
AcDbEntity
  8
SUNPOU
 62
     0
100
AcDbLine
 10
3601.128116475083
 20
4605.930957422202
 30
0.0
 11
4591.128116475084
 21
4605.930957422202
 31
0.0
  0
SOLID
  5
5543
330
48CD
100
AcDbEntity
  8
SUNPOU
 62
     0
100
AcDbTrace
 10
3601.128116475083
 20
4610.930957422202
 30
0.0
 11
3601.128116475083
 21
4600.930957422202
 31
0.0
 12
3571.128116475084
 22
4605.930957422202
 32
0.0
 13
3571.128116475084
 23
4605.930957422202
 33
0.0
  0
SOLID
  5
5544
330
48CD
100
AcDbEntity
  8
SUNPOU
 62
     0
100
AcDbTrace
 10
4591.128116475084
 20
4610.930957422202
 30
0.0
 11
4591.128116475084
 21
4600.930957422202
 31
0.0
 12
4621.128116475083
 22
4605.930957422202
 32
0.0
 13
4621.128116475083
 23
4605.930957422202
 33
0.0
  0
MTEXT
  5
5545
330
48CD
100
AcDbEntity
  8
SUNPOU
 62
     0
100
AcDbMText
 10
4096.128116475084
 20
4644.930957422203
 30
0.0
 40
50.0
 41
0.0
 71
     5
 72
     1
  1
\A1;1050
 73
     1
 44
1.0
1001
ACAD
1000
MTEXTBEGIN
1070
    73
1070
     1
1070
    44
1040
1.0
1070
    74
1070
     0
1000
MTEXTEND
  0
POINT
  5
5546
330
48CD
100
AcDbEntity
  8
Defpoints
 62
     0
100
AcDbPoint
 10
3571.128116475084
 20
4286.946392120486
 30
0.0
  0
POINT
  5
5547
330
48CD
100
AcDbEntity
  8
Defpoints
 62
     0
100
AcDbPoint
 10
4621.128116475083
 20
4286.946392120486
 30
0.0
  0
POINT
  5
5548
330
48CD
100
AcDbEntity
  8
Defpoints
 62
     0
100
AcDbPoint
 10
4621.128116475083
 20
4605.930957422202
 30
0.0
  0
ENDBLK
  5
48D8
330
48CD
100
AcDbEntity
  8
0
100
AcDbBlockEnd
  0
BLOCK
  5
490C
330
4902
100
AcDbEntity
  8
0
100
AcDbBlockBegin
  2
*D32
 70
     1
 10
0.0
 20
0.0
 30
0.0
  3
*D32
  1

  0
LINE
  5
5565
330
4902
100
AcDbEntity
  8
SUNPOU
 62
     0
100
AcDbLine
 10
3541.128116475084
 20
3986.946392120487
 30
0.0
 11
3309.490689245944
 21
3986.946392120487
 31
0.0
  0
LINE
  5
5566
330
4902
100
AcDbEntity
  8
SUNPOU
 62
     0
100
AcDbLine
 10
3541.128116475084
 20
4286.946392120486
 30
0.0
 11
3309.490689245944
 21
4286.946392120486
 31
0.0
  0
LINE
  5
5567
330
4902
100
AcDbEntity
  8
SUNPOU
 62
     0
100
AcDbLine
 10
3319.490689245944
 20
4016.946392120487
 30
0.0
 11
3319.490689245944
 21
4256.946392120487
 31
0.0
  0
SOLID
  5
5568
330
4902
100
AcDbEntity
  8
SUNPOU
 62
     0
100
AcDbTrace
 10
3314.490689245944
 20
4016.946392120487
 30
0.0
 11
3324.490689245944
 21
4016.946392120487
 31
0.0
 12
3319.490689245944
 22
3986.946392120487
 32
0.0
 13
3319.490689245944
 23
3986.946392120487
 33
0.0
  0
SOLID
  5
5569
330
4902
100
AcDbEntity
  8
SUNPOU
 62
     0
100
AcDbTrace
 10
3314.490689245944
 20
4256.946392120487
 30
0.0
 11
3324.490689245944
 21
4256.946392120487
 31
0.0
 12
3319.490689245944
 22
4286.946392120486
 32
0.0
 13
3319.490689245944
 23
4286.946392120486
 33
0.0
  0
MTEXT
  5
556A
330
4902
100
AcDbEntity
  8
SUNPOU
 62
     0
100
AcDbMText
 10
3280.490689245944
 20
4136.946392120488
 30
0.0
 40
50.0
 41
0.0
 71
     5
 72
     1
  1
\A1;300
 11
0.0000000000000001
 21
1.0
 31
0.0
 73
     1
 44
1.0
1001
ACAD
1000
MTEXTBEGIN
1070
    73
1070
     1
1070
    44
1040
1.0
1070
    74
1070
     0
1000
MTEXTEND
  0
POINT
  5
556B
330
4902
100
AcDbEntity
  8
Defpoints
 62
     0
100
AcDbPoint
 10
3571.128116475084
 20
3986.946392120487
 30
0.0
  0
POINT
  5
556C
330
4902
100
AcDbEntity
  8
Defpoints
 62
     0
100
AcDbPoint
 10
3571.128116475084
 20
4286.946392120486
 30
0.0
  0
POINT
  5
556D
330
4902
100
AcDbEntity
  8
Defpoints
 62
     0
100
AcDbPoint
 10
3319.490689245944
 20
4286.946392120486
 30
0.0
  0
ENDBLK
  5
490D
330
4902
100
AcDbEntity
  8
0
100
AcDbBlockEnd
  0
BLOCK
  5
492D
330
4923
100
AcDbEntity
  8
0
100
AcDbBlockBegin
  2
*D33
 70
     1
 10
0.0
 20
0.0
 30
0.0
  3
*D33
  1

  0
LINE
  5
556E
330
4923
100
AcDbEntity
  8
SUNPOU
 62
     0
100
AcDbLine
 10
4651.128116475083
 20
4286.946392120486
 30
0.0
 11
4892.312619056568
 21
4286.946392120486
 31
0.0
  0
LINE
  5
556F
330
4923
100
AcDbEntity
  8
SUNPOU
 62
     0
100
AcDbLine
 10
4651.128116475083
 20
3986.946392120487
 30
0.0
 11
4892.312619056568
 21
3986.946392120487
 31
0.0
  0
LINE
  5
5570
330
4923
100
AcDbEntity
  8
SUNPOU
 62
     0
100
AcDbLine
 10
4882.312619056567
 20
4256.946392120487
 30
0.0
 11
4882.312619056567
 21
4016.946392120487
 31
0.0
  0
SOLID
  5
5571
330
4923
100
AcDbEntity
  8
SUNPOU
 62
     0
100
AcDbTrace
 10
4877.312619056567
 20
4256.946392120487
 30
0.0
 11
4887.312619056567
 21
4256.946392120487
 31
0.0
 12
4882.312619056567
 22
4286.946392120486
 32
0.0
 13
4882.312619056567
 23
4286.946392120486
 33
0.0
  0
SOLID
  5
5572
330
4923
100
AcDbEntity
  8
SUNPOU
 62
     0
100
AcDbTrace
 10
4877.312619056567
 20
4016.946392120487
 30
0.0
 11
4887.312619056567
 21
4016.946392120487
 31
0.0
 12
4882.312619056567
 22
3986.946392120487
 32
0.0
 13
4882.312619056567
 23
3986.946392120487
 33
0.0
  0
MTEXT
  5
5573
330
4923
100
AcDbEntity
  8
SUNPOU
 62
     0
100
AcDbMText
 10
4843.312619056566
 20
4136.946392120488
 30
0.0
 40
50.0
 41
0.0
 71
     5
 72
     1
  1
\A1;300
 11
0.0000000000000001
 21
1.0
 31
0.0
 73
     1
 44
1.0
1001
ACAD
1000
MTEXTBEGIN
1070
    73
1070
     1
1070
    44
1040
1.0
1070
    74
1070
     0
1000
MTEXTEND
  0
POINT
  5
5574
330
4923
100
AcDbEntity
  8
Defpoints
 62
     0
100
AcDbPoint
 10
4621.128116475083
 20
4286.946392120486
 30
0.0
  0
POINT
  5
5575
330
4923
100
AcDbEntity
  8
Defpoints
 62
     0
100
AcDbPoint
 10
4621.128116475083
 20
3986.946392120487
 30
0.0
  0
POINT
  5
5576
330
4923
100
AcDbEntity
  8
Defpoints
 62
     0
100
AcDbPoint
 10
4882.312619056567
 20
3986.946392120487
 30
0.0
  0
ENDBLK
  5
492E
330
4923
100
AcDbEntity
  8
0
100
AcDbBlockEnd
  0
BLOCK
  5
493B
330
4930
100
AcDbEntity
  8
0
100
AcDbBlockBegin
  2
*D34
 70
     1
 10
0.0
 20
0.0
 30
0.0
  3
*D34
  1

  0
LINE
  5
5577
330
4930
100
AcDbEntity
  8
SUNPOU
 62
     0
100
AcDbLine
 10
3571.128116475084
 20
3956.946392120487
 30
0.0
 11
3571.128116475084
 21
3682.072738002933
 31
0.0
  0
LINE
  5
5578
330
4930
100
AcDbEntity
  8
SUNPOU
 62
     0
100
AcDbLine
 10
3646.128116475084
 20
3956.946392120487
 30
0.0
 11
3646.128116475084
 21
3682.072738002933
 31
0.0
  0
LINE
  5
5579
330
4930
100
AcDbEntity
  8
SUNPOU
 62
     0
100
AcDbLine
 10
3541.128116475084
 20
3692.072738002933
 30
0.0
 11
3511.128116475084
 21
3692.072738002933
 31
0.0
  0
LINE
  5
557A
330
4930
100
AcDbEntity
  8
SUNPOU
 62
     0
100
AcDbLine
 10
3676.128116475084
 20
3692.072738002933
 30
0.0
 11
3706.128116475084
 21
3692.072738002933
 31
0.0
  0
SOLID
  5
557B
330
4930
100
AcDbEntity
  8
SUNPOU
 62
     0
100
AcDbTrace
 10
3541.128116475084
 20
3697.072738002933
 30
0.0
 11
3541.128116475084
 21
3687.072738002933
 31
0.0
 12
3571.128116475084
 22
3692.072738002933
 32
0.0
 13
3571.128116475084
 23
3692.072738002933
 33
0.0
  0
SOLID
  5
557C
330
4930
100
AcDbEntity
  8
SUNPOU
 62
     0
100
AcDbTrace
 10
3676.128116475084
 20
3697.072738002933
 30
0.0
 11
3676.128116475084
 21
3687.072738002933
 31
0.0
 12
3646.128116475084
 22
3692.072738002933
 32
0.0
 13
3646.128116475084
 23
3692.072738002933
 33
0.0
  0
MTEXT
  5
557D
330
4930
100
AcDbEntity
  8
SUNPOU
 62
     0
100
AcDbMText
 10
3608.628116475084
 20
3731.072738002933
 30
0.0
 40
50.0
 41
0.0
 71
     5
 72
     1
  1
\A1;75
 73
     1
 44
1.0
1001
ACAD
1000
MTEXTBEGIN
1070
    73
1070
     1
1070
    44
1040
1.0
1070
    74
1070
     0
1000
MTEXTEND
  0
POINT
  5
557E
330
4930
100
AcDbEntity
  8
Defpoints
 62
     0
100
AcDbPoint
 10
3571.128116475084
 20
3986.946392120487
 30
0.0
  0
POINT
  5
557F
330
4930
100
AcDbEntity
  8
Defpoints
 62
     0
100
AcDbPoint
 10
3646.128116475084
 20
3986.946392120487
 30
0.0
  0
POINT
  5
5580
330
4930
100
AcDbEntity
  8
Defpoints
 62
     0
100
AcDbPoint
 10
3646.128116475084
 20
3692.072738002933
 30
0.0
  0
ENDBLK
  5
493C
330
4930
100
AcDbEntity
  8
0
100
AcDbBlockEnd
  0
BLOCK
  5
4948
330
493E
100
AcDbEntity
  8
0
100
AcDbBlockBegin
  2
*D35
 70
     1
 10
0.0
 20
0.0
 30
0.0
  3
*D35
  1

  0
LINE
  5
5581
330
493E
100
AcDbEntity
  8
SUNPOU
 62
     0
100
AcDbLine
 10
3646.128116475084
 20
3955.946392120488
 30
0.0
 11
3646.128116475084
 21
3682.072738002933
 31
0.0
  0
LINE
  5
5582
330
493E
100
AcDbEntity
  8
SUNPOU
 62
     0
100
AcDbLine
 10
4546.128116475084
 20
3955.946392120488
 30
0.0
 11
4546.128116475084
 21
3682.072738002933
 31
0.0
  0
LINE
  5
5583
330
493E
100
AcDbEntity
  8
SUNPOU
 62
     0
100
AcDbLine
 10
3676.128116475084
 20
3692.072738002933
 30
0.0
 11
4516.128116475083
 21
3692.072738002933
 31
0.0
  0
SOLID
  5
5584
330
493E
100
AcDbEntity
  8
SUNPOU
 62
     0
100
AcDbTrace
 10
3676.128116475084
 20
3697.072738002933
 30
0.0
 11
3676.128116475084
 21
3687.072738002933
 31
0.0
 12
3646.128116475084
 22
3692.072738002933
 32
0.0
 13
3646.128116475084
 23
3692.072738002933
 33
0.0
  0
SOLID
  5
5585
330
493E
100
AcDbEntity
  8
SUNPOU
 62
     0
100
AcDbTrace
 10
4516.128116475083
 20
3697.072738002933
 30
0.0
 11
4516.128116475083
 21
3687.072738002933
 31
0.0
 12
4546.128116475084
 22
3692.072738002933
 32
0.0
 13
4546.128116475084
 23
3692.072738002933
 33
0.0
  0
MTEXT
  5
5586
330
493E
100
AcDbEntity
  8
SUNPOU
 62
     0
100
AcDbMText
 10
4096.128116475084
 20
3731.072738002933
 30
0.0
 40
50.0
 41
0.0
 71
     5
 72
     1
  1
\A1;900
 73
     1
 44
1.0
1001
ACAD
1000
MTEXTBEGIN
1070
    73
1070
     1
1070
    44
1040
1.0
1070
    74
1070
     0
1000
MTEXTEND
  0
POINT
  5
5587
330
493E
100
AcDbEntity
  8
Defpoints
 62
     0
100
AcDbPoint
 10
3646.128116475084
 20
3985.946392120487
 30
0.0
  0
POINT
  5
5588
330
493E
100
AcDbEntity
  8
Defpoints
 62
     0
100
AcDbPoint
 10
4546.128116475084
 20
3985.946392120487
 30
0.0
  0
POINT
  5
5589
330
493E
100
AcDbEntity
  8
Defpoints
 62
     0
100
AcDbPoint
 10
4546.128116475084
 20
3692.072738002933
 30
0.0
  0
ENDBLK
  5
4949
330
493E
100
AcDbEntity
  8
0
100
AcDbBlockEnd
  0
BLOCK
  5
4956
330
494B
100
AcDbEntity
  8
0
100
AcDbBlockBegin
  2
*D36
 70
     1
 10
0.0
 20
0.0
 30
0.0
  3
*D36
  1

  0
LINE
  5
558A
330
494B
100
AcDbEntity
  8
SUNPOU
 62
     0
100
AcDbLine
 10
4546.128116475084
 20
3955.946392120488
 30
0.0
 11
4546.128116475084
 21
3682.072738002933
 31
0.0
  0
LINE
  5
558B
330
494B
100
AcDbEntity
  8
SUNPOU
 62
     0
100
AcDbLine
 10
4621.128116475083
 20
3956.946392120487
 30
0.0
 11
4621.128116475083
 21
3682.072738002933
 31
0.0
  0
LINE
  5
558C
330
494B
100
AcDbEntity
  8
SUNPOU
 62
     0
100
AcDbLine
 10
4516.128116475083
 20
3692.072738002933
 30
0.0
 11
4486.128116475083
 21
3692.072738002933
 31
0.0
  0
LINE
  5
558D
330
494B
100
AcDbEntity
  8
SUNPOU
 62
     0
100
AcDbLine
 10
4651.128116475083
 20
3692.072738002933
 30
0.0
 11
4681.128116475083
 21
3692.072738002933
 31
0.0
  0
SOLID
  5
558E
330
494B
100
AcDbEntity
  8
SUNPOU
 62
     0
100
AcDbTrace
 10
4516.128116475083
 20
3697.072738002933
 30
0.0
 11
4516.128116475083
 21
3687.072738002933
 31
0.0
 12
4546.128116475084
 22
3692.072738002933
 32
0.0
 13
4546.128116475084
 23
3692.072738002933
 33
0.0
  0
SOLID
  5
558F
330
494B
100
AcDbEntity
  8
SUNPOU
 62
     0
100
AcDbTrace
 10
4651.128116475083
 20
3697.072738002933
 30
0.0
 11
4651.128116475083
 21
3687.072738002933
 31
0.0
 12
4621.128116475083
 22
3692.072738002933
 32
0.0
 13
4621.128116475083
 23
3692.072738002933
 33
0.0
  0
MTEXT
  5
5590
330
494B
100
AcDbEntity
  8
SUNPOU
 62
     0
100
AcDbMText
 10
4583.628116475083
 20
3731.072738002933
 30
0.0
 40
50.0
 41
0.0
 71
     5
 72
     1
  1
\A1;75
 73
     1
 44
1.0
1001
ACAD
1000
MTEXTBEGIN
1070
    73
1070
     1
1070
    44
1040
1.0
1070
    74
1070
     0
1000
MTEXTEND
  0
POINT
  5
5591
330
494B
100
AcDbEntity
  8
Defpoints
 62
     0
100
AcDbPoint
 10
4546.128116475084
 20
3985.946392120487
 30
0.0
  0
POINT
  5
5592
330
494B
100
AcDbEntity
  8
Defpoints
 62
     0
100
AcDbPoint
 10
4621.128116475083
 20
3986.946392120487
 30
0.0
  0
POINT
  5
5593
330
494B
100
AcDbEntity
  8
Defpoints
 62
     0
100
AcDbPoint
 10
4621.128116475083
 20
3692.072738002933
 30
0.0
  0
ENDBLK
  5
4957
330
494B
100
AcDbEntity
  8
0
100
AcDbBlockEnd
  0
BLOCK
  5
4990
330
4986
100
AcDbEntity
  8
0
100
AcDbBlockBegin
  2
*D37
 70
     1
 10
0.0
 20
0.0
 30
0.0
  3
*D37
  1

  0
LINE
  5
5594
330
4986
100
AcDbEntity
  8
SUNPOU
 62
     0
100
AcDbLine
 10
4439.734910992438
 20
2320.313965287827
 30
0.0
 11
4306.519294673187
 21
2320.313965287827
 31
0.0
  0
LINE
  5
5595
330
4986
100
AcDbEntity
  8
SUNPOU
 62
     0
100
AcDbLine
 10
4439.734910992438
 20
2720.313965287827
 30
0.0
 11
4306.519294673187
 21
2720.313965287827
 31
0.0
  0
LINE
  5
5596
330
4986
100
AcDbEntity
  8
SUNPOU
 62
     0
100
AcDbLine
 10
4316.519294673187
 20
2350.313965287827
 30
0.0
 11
4316.519294673187
 21
2690.313965287828
 31
0.0
  0
SOLID
  5
5597
330
4986
100
AcDbEntity
  8
SUNPOU
 62
     0
100
AcDbTrace
 10
4311.519294673188
 20
2350.313965287827
 30
0.0
 11
4321.519294673187
 21
2350.313965287827
 31
0.0
 12
4316.519294673187
 22
2320.313965287827
 32
0.0
 13
4316.519294673187
 23
2320.313965287827
 33
0.0
  0
SOLID
  5
5598
330
4986
100
AcDbEntity
  8
SUNPOU
 62
     0
100
AcDbTrace
 10
4311.519294673188
 20
2690.313965287828
 30
0.0
 11
4321.519294673187
 21
2690.313965287828
 31
0.0
 12
4316.519294673187
 22
2720.313965287827
 32
0.0
 13
4316.519294673187
 23
2720.313965287827
 33
0.0
  0
MTEXT
  5
5599
330
4986
100
AcDbEntity
  8
SUNPOU
 62
     0
100
AcDbMText
 10
4277.519294673187
 20
2520.313965287828
 30
0.0
 40
50.0
 41
0.0
 71
     5
 72
     1
  1
\A1;400
 11
0.0000000000000001
 21
1.0
 31
0.0
 73
     1
 44
1.0
1001
ACAD
1000
MTEXTBEGIN
1070
    73
1070
     1
1070
    44
1040
1.0
1070
    74
1070
     0
1000
MTEXTEND
  0
POINT
  5
559A
330
4986
100
AcDbEntity
  8
Defpoints
 62
     0
100
AcDbPoint
 10
4469.734910992438
 20
2320.313965287827
 30
0.0
  0
POINT
  5
559B
330
4986
100
AcDbEntity
  8
Defpoints
 62
     0
100
AcDbPoint
 10
4469.734910992438
 20
2720.313965287827
 30
0.0
  0
POINT
  5
559C
330
4986
100
AcDbEntity
  8
Defpoints
 62
     0
100
AcDbPoint
 10
4316.519294673187
 20
2720.313965287827
 30
0.0
  0
ENDBLK
  5
4991
330
4986
100
AcDbEntity
  8
0
100
AcDbBlockEnd
  0
BLOCK
  5
4F66
330
4F5B
100
AcDbEntity
  8
0
100
AcDbBlockBegin
  2
*D49
 70
     1
 10
0.0
 20
0.0
 30
0.0
  3
*D49
  1

  0
LINE
  5
5617
330
4F5B
100
AcDbEntity
  8
SUNPOU
 62
     0
100
AcDbLine
 10
5988.43214722968
 20
4316.946392120509
 30
0.0
 11
5988.43214722968
 21
4514.726748920337
 31
0.0
  0
LINE
  5
5618
330
4F5B
100
AcDbEntity
  8
SUNPOU
 62
     0
100
AcDbLine
 10
6063.432147229679
 20
4316.946392120509
 30
0.0
 11
6063.432147229679
 21
4514.726748920337
 31
0.0
  0
LINE
  5
5619
330
4F5B
100
AcDbEntity
  8
SUNPOU
 62
     0
100
AcDbLine
 10
5958.43214722968
 20
4504.726748920337
 30
0.0
 11
5928.432147229679
 21
4504.726748920337
 31
0.0
  0
LINE
  5
561A
330
4F5B
100
AcDbEntity
  8
SUNPOU
 62
     0
100
AcDbLine
 10
6093.43214722968
 20
4504.726748920337
 30
0.0
 11
6123.43214722968
 21
4504.726748920337
 31
0.0
  0
SOLID
  5
561B
330
4F5B
100
AcDbEntity
  8
SUNPOU
 62
     0
100
AcDbTrace
 10
5958.43214722968
 20
4509.726748920336
 30
0.0
 11
5958.43214722968
 21
4499.726748920337
 31
0.0
 12
5988.43214722968
 22
4504.726748920337
 32
0.0
 13
5988.43214722968
 23
4504.726748920337
 33
0.0
  0
SOLID
  5
561C
330
4F5B
100
AcDbEntity
  8
SUNPOU
 62
     0
100
AcDbTrace
 10
6093.43214722968
 20
4509.726748920336
 30
0.0
 11
6093.43214722968
 21
4499.726748920337
 31
0.0
 12
6063.432147229679
 22
4504.726748920337
 32
0.0
 13
6063.432147229679
 23
4504.726748920337
 33
0.0
  0
MTEXT
  5
561D
330
4F5B
100
AcDbEntity
  8
SUNPOU
 62
     0
100
AcDbMText
 10
6025.93214722968
 20
4543.726748920337
 30
0.0
 40
50.0
 41
0.0
 71
     5
 72
     1
  1
\A1;75
 73
     1
 44
1.0
1001
ACAD
1000
MTEXTBEGIN
1070
    73
1070
     1
1070
    44
1040
1.0
1070
    74
1070
     0
1000
MTEXTEND
  0
POINT
  5
561E
330
4F5B
100
AcDbEntity
  8
Defpoints
 62
     0
100
AcDbPoint
 10
5988.43214722968
 20
4286.946392120508
 30
0.0
  0
POINT
  5
561F
330
4F5B
100
AcDbEntity
  8
Defpoints
 62
     0
100
AcDbPoint
 10
6063.432147229679
 20
4286.946392120508
 30
0.0
  0
POINT
  5
5620
330
4F5B
100
AcDbEntity
  8
Defpoints
 62
     0
100
AcDbPoint
 10
6063.432147229679
 20
4504.726748920337
 30
0.0
  0
ENDBLK
  5
4F67
330
4F5B
100
AcDbEntity
  8
0
100
AcDbBlockEnd
  0
BLOCK
  5
4F73
330
4F68
100
AcDbEntity
  8
0
100
AcDbBlockBegin
  2
*D50
 70
     1
 10
0.0
 20
0.0
 30
0.0
  3
*D50
  1

  0
LINE
  5
560D
330
4F68
100
AcDbEntity
  8
SUNPOU
 62
     0
100
AcDbLine
 10
6963.43214722968
 20
4316.946392120509
 30
0.0
 11
6963.43214722968
 21
4514.726748920337
 31
0.0
  0
LINE
  5
560E
330
4F68
100
AcDbEntity
  8
SUNPOU
 62
     0
100
AcDbLine
 10
7038.432147229681
 20
4316.946392120509
 30
0.0
 11
7038.432147229681
 21
4514.726748920337
 31
0.0
  0
LINE
  5
560F
330
4F68
100
AcDbEntity
  8
SUNPOU
 62
     0
100
AcDbLine
 10
6933.432147229679
 20
4504.726748920337
 30
0.0
 11
6903.432147229679
 21
4504.726748920337
 31
0.0
  0
LINE
  5
5610
330
4F68
100
AcDbEntity
  8
SUNPOU
 62
     0
100
AcDbLine
 10
7068.43214722968
 20
4504.726748920337
 30
0.0
 11
7098.432147229679
 21
4504.726748920337
 31
0.0
  0
SOLID
  5
5611
330
4F68
100
AcDbEntity
  8
SUNPOU
 62
     0
100
AcDbTrace
 10
6933.432147229679
 20
4509.726748920336
 30
0.0
 11
6933.432147229679
 21
4499.726748920337
 31
0.0
 12
6963.43214722968
 22
4504.726748920337
 32
0.0
 13
6963.43214722968
 23
4504.726748920337
 33
0.0
  0
SOLID
  5
5612
330
4F68
100
AcDbEntity
  8
SUNPOU
 62
     0
100
AcDbTrace
 10
7068.43214722968
 20
4509.726748920336
 30
0.0
 11
7068.43214722968
 21
4499.726748920337
 31
0.0
 12
7038.432147229681
 22
4504.726748920337
 32
0.0
 13
7038.432147229681
 23
4504.726748920337
 33
0.0
  0
MTEXT
  5
5613
330
4F68
100
AcDbEntity
  8
SUNPOU
 62
     0
100
AcDbMText
 10
7000.93214722968
 20
4543.726748920337
 30
0.0
 40
50.0
 41
0.0
 71
     5
 72
     1
  1
\A1;75
 73
     1
 44
1.0
1001
ACAD
1000
MTEXTBEGIN
1070
    73
1070
     1
1070
    44
1040
1.0
1070
    74
1070
     0
1000
MTEXTEND
  0
POINT
  5
5614
330
4F68
100
AcDbEntity
  8
Defpoints
 62
     0
100
AcDbPoint
 10
6963.43214722968
 20
4286.946392120508
 30
0.0
  0
POINT
  5
5615
330
4F68
100
AcDbEntity
  8
Defpoints
 62
     0
100
AcDbPoint
 10
7038.432147229681
 20
4286.946392120508
 30
0.0
  0
POINT
  5
5616
330
4F68
100
AcDbEntity
  8
Defpoints
 62
     0
100
AcDbPoint
 10
7038.432147229681
 20
4504.726748920337
 30
0.0
  0
ENDBLK
  5
4F74
330
4F68
100
AcDbEntity
  8
0
100
AcDbBlockEnd
  0
BLOCK
  5
4F7F
330
4F75
100
AcDbEntity
  8
0
100
AcDbBlockBegin
  2
*D51
 70
     1
 10
0.0
 20
0.0
 30
0.0
  3
*D51
  1

  0
LINE
  5
5604
330
4F75
100
AcDbEntity
  8
SUNPOU
 62
     0
100
AcDbLine
 10
5988.43214722968
 20
4316.946392120509
 30
0.0
 11
5988.43214722968
 21
4615.930957422224
 31
0.0
  0
LINE
  5
5605
330
4F75
100
AcDbEntity
  8
SUNPOU
 62
     0
100
AcDbLine
 10
7038.432147229681
 20
4316.946392120509
 30
0.0
 11
7038.432147229681
 21
4615.930957422224
 31
0.0
  0
LINE
  5
5606
330
4F75
100
AcDbEntity
  8
SUNPOU
 62
     0
100
AcDbLine
 10
6018.43214722968
 20
4605.930957422224
 30
0.0
 11
7008.432147229679
 21
4605.930957422224
 31
0.0
  0
SOLID
  5
5607
330
4F75
100
AcDbEntity
  8
SUNPOU
 62
     0
100
AcDbTrace
 10
6018.43214722968
 20
4610.930957422224
 30
0.0
 11
6018.43214722968
 21
4600.930957422224
 31
0.0
 12
5988.43214722968
 22
4605.930957422224
 32
0.0
 13
5988.43214722968
 23
4605.930957422224
 33
0.0
  0
SOLID
  5
5608
330
4F75
100
AcDbEntity
  8
SUNPOU
 62
     0
100
AcDbTrace
 10
7008.432147229679
 20
4610.930957422224
 30
0.0
 11
7008.432147229679
 21
4600.930957422224
 31
0.0
 12
7038.432147229681
 22
4605.930957422224
 32
0.0
 13
7038.432147229681
 23
4605.930957422224
 33
0.0
  0
MTEXT
  5
5609
330
4F75
100
AcDbEntity
  8
SUNPOU
 62
     0
100
AcDbMText
 10
6513.43214722968
 20
4644.930957422224
 30
0.0
 40
50.0
 41
0.0
 71
     5
 72
     1
  1
\A1;1050
 73
     1
 44
1.0
1001
ACAD
1000
MTEXTBEGIN
1070
    73
1070
     1
1070
    44
1040
1.0
1070
    74
1070
     0
1000
MTEXTEND
  0
POINT
  5
560A
330
4F75
100
AcDbEntity
  8
Defpoints
 62
     0
100
AcDbPoint
 10
5988.43214722968
 20
4286.946392120508
 30
0.0
  0
POINT
  5
560B
330
4F75
100
AcDbEntity
  8
Defpoints
 62
     0
100
AcDbPoint
 10
7038.432147229681
 20
4286.946392120508
 30
0.0
  0
POINT
  5
560C
330
4F75
100
AcDbEntity
  8
Defpoints
 62
     0
100
AcDbPoint
 10
7038.432147229681
 20
4605.930957422224
 30
0.0
  0
ENDBLK
  5
4F80
330
4F75
100
AcDbEntity
  8
0
100
AcDbBlockEnd
  0
BLOCK
  5
4FA9
330
4F9F
100
AcDbEntity
  8
0
100
AcDbBlockBegin
  2
*D52
 70
     1
 10
0.0
 20
0.0
 30
0.0
  3
*D52
  1

  0
LINE
  5
5621
330
4F9F
100
AcDbEntity
  8
SUNPOU
 62
     0
100
AcDbLine
 10
6063.432147229679
 20
4316.946392120487
 30
0.0
 11
6063.432147229679
 21
4514.726748920337
 31
0.0
  0
LINE
  5
5622
330
4F9F
100
AcDbEntity
  8
SUNPOU
 62
     0
100
AcDbLine
 10
6963.43214722968
 20
4316.946392120487
 30
0.0
 11
6963.43214722968
 21
4514.726748920337
 31
0.0
  0
LINE
  5
5623
330
4F9F
100
AcDbEntity
  8
SUNPOU
 62
     0
100
AcDbLine
 10
6093.43214722968
 20
4504.726748920337
 30
0.0
 11
6933.432147229679
 21
4504.726748920337
 31
0.0
  0
SOLID
  5
5624
330
4F9F
100
AcDbEntity
  8
SUNPOU
 62
     0
100
AcDbTrace
 10
6093.43214722968
 20
4509.726748920336
 30
0.0
 11
6093.43214722968
 21
4499.726748920337
 31
0.0
 12
6063.432147229679
 22
4504.726748920337
 32
0.0
 13
6063.432147229679
 23
4504.726748920337
 33
0.0
  0
SOLID
  5
5625
330
4F9F
100
AcDbEntity
  8
SUNPOU
 62
     0
100
AcDbTrace
 10
6933.432147229679
 20
4509.726748920336
 30
0.0
 11
6933.432147229679
 21
4499.726748920337
 31
0.0
 12
6963.43214722968
 22
4504.726748920337
 32
0.0
 13
6963.43214722968
 23
4504.726748920337
 33
0.0
  0
MTEXT
  5
5626
330
4F9F
100
AcDbEntity
  8
SUNPOU
 62
     0
100
AcDbMText
 10
6513.43214722968
 20
4543.726748920337
 30
0.0
 40
50.0
 41
0.0
 71
     5
 72
     1
  1
\A1;900
 73
     1
 44
1.0
1001
ACAD
1000
MTEXTBEGIN
1070
    73
1070
     1
1070
    44
1040
1.0
1070
    74
1070
     0
1000
MTEXTEND
  0
POINT
  5
5627
330
4F9F
100
AcDbEntity
  8
Defpoints
 62
     0
100
AcDbPoint
 10
6063.432147229679
 20
4286.946392120486
 30
0.0
  0
POINT
  5
5628
330
4F9F
100
AcDbEntity
  8
Defpoints
 62
     0
100
AcDbPoint
 10
6963.43214722968
 20
4286.946392120486
 30
0.0
  0
POINT
  5
5629
330
4F9F
100
AcDbEntity
  8
Defpoints
 62
     0
100
AcDbPoint
 10
6963.43214722968
 20
4504.726748920337
 30
0.0
  0
ENDBLK
  5
4FAA
330
4F9F
100
AcDbEntity
  8
0
100
AcDbBlockEnd
  0
BLOCK
  5
4FB6
330
4FAC
100
AcDbEntity
  8
0
100
AcDbBlockBegin
  2
*D53
 70
     1
 10
0.0
 20
0.0
 30
0.0
  3
*D53
  1

  0
LINE
  5
562A
330
4FAC
100
AcDbEntity
  8
SUNPOU
 62
     0
100
AcDbLine
 10
7068.43214722968
 20
4286.946392120486
 30
0.0
 11
7534.867971839929
 21
4286.946392120486
 31
0.0
  0
LINE
  5
562B
330
4FAC
100
AcDbEntity
  8
SUNPOU
 62
     0
100
AcDbLine
 10
7143.43214722968
 20
3986.946392120487
 30
0.0
 11
7534.867971839929
 21
3986.946392120487
 31
0.0
  0
LINE
  5
562C
330
4FAC
100
AcDbEntity
  8
SUNPOU
 62
     0
100
AcDbLine
 10
7524.867971839928
 20
4256.946392120487
 30
0.0
 11
7524.867971839928
 21
4016.946392120487
 31
0.0
  0
SOLID
  5
562D
330
4FAC
100
AcDbEntity
  8
SUNPOU
 62
     0
100
AcDbTrace
 10
7519.867971839929
 20
4256.946392120487
 30
0.0
 11
7529.867971839928
 21
4256.946392120487
 31
0.0
 12
7524.867971839928
 22
4286.946392120486
 32
0.0
 13
7524.867971839928
 23
4286.946392120486
 33
0.0
  0
SOLID
  5
562E
330
4FAC
100
AcDbEntity
  8
SUNPOU
 62
     0
100
AcDbTrace
 10
7519.867971839929
 20
4016.946392120487
 30
0.0
 11
7529.867971839928
 21
4016.946392120487
 31
0.0
 12
7524.867971839928
 22
3986.946392120487
 32
0.0
 13
7524.867971839928
 23
3986.946392120487
 33
0.0
  0
MTEXT
  5
562F
330
4FAC
100
AcDbEntity
  8
SUNPOU
 62
     0
100
AcDbMText
 10
7485.867971839929
 20
4136.946392120488
 30
0.0
 40
50.0
 41
0.0
 71
     5
 72
     1
  1
\A1;300
 11
0.0000000000000001
 21
1.0
 31
0.0
 73
     1
 44
1.0
1001
ACAD
1000
MTEXTBEGIN
1070
    73
1070
     1
1070
    44
1040
1.0
1070
    74
1070
     0
1000
MTEXTEND
  0
POINT
  5
5630
330
4FAC
100
AcDbEntity
  8
Defpoints
 62
     0
100
AcDbPoint
 10
7038.432147229681
 20
4286.946392120486
 30
0.0
  0
POINT
  5
5631
330
4FAC
100
AcDbEntity
  8
Defpoints
 62
     0
100
AcDbPoint
 10
7113.43214722968
 20
3986.946392120487
 30
0.0
  0
POINT
  5
5632
330
4FAC
100
AcDbEntity
  8
Defpoints
 62
     0
100
AcDbPoint
 10
7524.867971839928
 20
3986.946392120487
 30
0.0
  0
ENDBLK
  5
4FB7
330
4FAC
100
AcDbEntity
  8
0
100
AcDbBlockEnd
  0
BLOCK
  5
5056
330
504C
100
AcDbEntity
  8
0
100
AcDbBlockBegin
  2
*D59
 70
     1
 10
0.0
 20
0.0
 30
0.0
  3
*D59
  1

  0
LINE
  5
5662
330
504C
100
AcDbEntity
  8
SUNPOU
 62
     0
100
AcDbLine
 10
5913.43214722968
 20
3956.946392120487
 30
0.0
 11
5913.43214722968
 21
3624.802183325434
 31
0.0
  0
LINE
  5
5663
330
504C
100
AcDbEntity
  8
SUNPOU
 62
     0
100
AcDbLine
 10
6063.432147229679
 20
3956.946392120487
 30
0.0
 11
6063.432147229679
 21
3624.802183325434
 31
0.0
  0
LINE
  5
5664
330
504C
100
AcDbEntity
  8
SUNPOU
 62
     0
100
AcDbLine
 10
5943.43214722968
 20
3634.802183325434
 30
0.0
 11
6033.43214722968
 21
3634.802183325434
 31
0.0
  0
SOLID
  5
5665
330
504C
100
AcDbEntity
  8
SUNPOU
 62
     0
100
AcDbTrace
 10
5943.43214722968
 20
3639.802183325433
 30
0.0
 11
5943.43214722968
 21
3629.802183325433
 31
0.0
 12
5913.43214722968
 22
3634.802183325434
 32
0.0
 13
5913.43214722968
 23
3634.802183325434
 33
0.0
  0
SOLID
  5
5666
330
504C
100
AcDbEntity
  8
SUNPOU
 62
     0
100
AcDbTrace
 10
6033.43214722968
 20
3639.802183325433
 30
0.0
 11
6033.43214722968
 21
3629.802183325433
 31
0.0
 12
6063.432147229679
 22
3634.802183325434
 32
0.0
 13
6063.432147229679
 23
3634.802183325434
 33
0.0
  0
MTEXT
  5
5667
330
504C
100
AcDbEntity
  8
SUNPOU
 62
     0
100
AcDbMText
 10
5988.43214722968
 20
3673.802183325434
 30
0.0
 40
50.0
 41
0.0
 71
     5
 72
     1
  1
\A1;150
 73
     1
 44
1.0
1001
ACAD
1000
MTEXTBEGIN
1070
    73
1070
     1
1070
    44
1040
1.0
1070
    74
1070
     0
1000
MTEXTEND
  0
POINT
  5
5668
330
504C
100
AcDbEntity
  8
Defpoints
 62
     0
100
AcDbPoint
 10
5913.43214722968
 20
3986.946392120487
 30
0.0
  0
POINT
  5
5669
330
504C
100
AcDbEntity
  8
Defpoints
 62
     0
100
AcDbPoint
 10
6063.432147229679
 20
3986.946392120487
 30
0.0
  0
POINT
  5
566A
330
504C
100
AcDbEntity
  8
Defpoints
 62
     0
100
AcDbPoint
 10
6063.432147229679
 20
3634.802183325434
 30
0.0
  0
ENDBLK
  5
5057
330
504C
100
AcDbEntity
  8
0
100
AcDbBlockEnd
  0
BLOCK
  5
5063
330
5059
100
AcDbEntity
  8
0
100
AcDbBlockBegin
  2
*D60
 70
     1
 10
0.0
 20
0.0
 30
0.0
  3
*D60
  1

  0
LINE
  5
566B
330
5059
100
AcDbEntity
  8
SUNPOU
 62
     0
100
AcDbLine
 10
6063.432147229679
 20
3956.946392120487
 30
0.0
 11
6063.432147229679
 21
3624.802183325434
 31
0.0
  0
LINE
  5
566C
330
5059
100
AcDbEntity
  8
SUNPOU
 62
     0
100
AcDbLine
 10
6963.43214722968
 20
3956.946392120487
 30
0.0
 11
6963.43214722968
 21
3624.802183325434
 31
0.0
  0
LINE
  5
566D
330
5059
100
AcDbEntity
  8
SUNPOU
 62
     0
100
AcDbLine
 10
6093.43214722968
 20
3634.802183325434
 30
0.0
 11
6933.432147229679
 21
3634.802183325434
 31
0.0
  0
SOLID
  5
566E
330
5059
100
AcDbEntity
  8
SUNPOU
 62
     0
100
AcDbTrace
 10
6093.43214722968
 20
3639.802183325433
 30
0.0
 11
6093.43214722968
 21
3629.802183325433
 31
0.0
 12
6063.432147229679
 22
3634.802183325434
 32
0.0
 13
6063.432147229679
 23
3634.802183325434
 33
0.0
  0
SOLID
  5
566F
330
5059
100
AcDbEntity
  8
SUNPOU
 62
     0
100
AcDbTrace
 10
6933.432147229679
 20
3639.802183325433
 30
0.0
 11
6933.432147229679
 21
3629.802183325433
 31
0.0
 12
6963.43214722968
 22
3634.802183325434
 32
0.0
 13
6963.43214722968
 23
3634.802183325434
 33
0.0
  0
MTEXT
  5
5670
330
5059
100
AcDbEntity
  8
SUNPOU
 62
     0
100
AcDbMText
 10
6513.43214722968
 20
3673.802183325434
 30
0.0
 40
50.0
 41
0.0
 71
     5
 72
     1
  1
\A1;900
 73
     1
 44
1.0
1001
ACAD
1000
MTEXTBEGIN
1070
    73
1070
     1
1070
    44
1040
1.0
1070
    74
1070
     0
1000
MTEXTEND
  0
POINT
  5
5671
330
5059
100
AcDbEntity
  8
Defpoints
 62
     0
100
AcDbPoint
 10
6063.432147229679
 20
3986.946392120487
 30
0.0
  0
POINT
  5
5672
330
5059
100
AcDbEntity
  8
Defpoints
 62
     0
100
AcDbPoint
 10
6963.43214722968
 20
3986.946392120487
 30
0.0
  0
POINT
  5
5673
330
5059
100
AcDbEntity
  8
Defpoints
 62
     0
100
AcDbPoint
 10
6963.43214722968
 20
3634.802183325434
 30
0.0
  0
ENDBLK
  5
5064
330
5059
100
AcDbEntity
  8
0
100
AcDbBlockEnd
  0
BLOCK
  5
5070
330
5066
100
AcDbEntity
  8
0
100
AcDbBlockBegin
  2
*D61
 70
     1
 10
0.0
 20
0.0
 30
0.0
  3
*D61
  1

  0
LINE
  5
5674
330
5066
100
AcDbEntity
  8
SUNPOU
 62
     0
100
AcDbLine
 10
7113.43214722968
 20
3956.946392120487
 30
0.0
 11
7113.43214722968
 21
3624.802183325434
 31
0.0
  0
LINE
  5
5675
330
5066
100
AcDbEntity
  8
SUNPOU
 62
     0
100
AcDbLine
 10
6963.43214722968
 20
3956.946392120487
 30
0.0
 11
6963.43214722968
 21
3624.802183325434
 31
0.0
  0
LINE
  5
5676
330
5066
100
AcDbEntity
  8
SUNPOU
 62
     0
100
AcDbLine
 10
7083.432147229679
 20
3634.802183325434
 30
0.0
 11
6993.43214722968
 21
3634.802183325434
 31
0.0
  0
SOLID
  5
5677
330
5066
100
AcDbEntity
  8
SUNPOU
 62
     0
100
AcDbTrace
 10
7083.432147229679
 20
3639.802183325433
 30
0.0
 11
7083.432147229679
 21
3629.802183325433
 31
0.0
 12
7113.43214722968
 22
3634.802183325434
 32
0.0
 13
7113.43214722968
 23
3634.802183325434
 33
0.0
  0
SOLID
  5
5678
330
5066
100
AcDbEntity
  8
SUNPOU
 62
     0
100
AcDbTrace
 10
6993.43214722968
 20
3639.802183325433
 30
0.0
 11
6993.43214722968
 21
3629.802183325433
 31
0.0
 12
6963.43214722968
 22
3634.802183325434
 32
0.0
 13
6963.43214722968
 23
3634.802183325434
 33
0.0
  0
MTEXT
  5
5679
330
5066
100
AcDbEntity
  8
SUNPOU
 62
     0
100
AcDbMText
 10
7038.432147229681
 20
3673.802183325434
 30
0.0
 40
50.0
 41
0.0
 71
     5
 72
     1
  1
\A1;150
 73
     1
 44
1.0
1001
ACAD
1000
MTEXTBEGIN
1070
    73
1070
     1
1070
    44
1040
1.0
1070
    74
1070
     0
1000
MTEXTEND
  0
POINT
  5
567A
330
5066
100
AcDbEntity
  8
Defpoints
 62
     0
100
AcDbPoint
 10
7113.43214722968
 20
3986.946392120487
 30
0.0
  0
POINT
  5
567B
330
5066
100
AcDbEntity
  8
Defpoints
 62
     0
100
AcDbPoint
 10
6963.43214722968
 20
3986.946392120487
 30
0.0
  0
POINT
  5
567C
330
5066
100
AcDbEntity
  8
Defpoints
 62
     0
100
AcDbPoint
 10
6963.43214722968
 20
3634.802183325434
 30
0.0
  0
ENDBLK
  5
5071
330
5066
100
AcDbEntity
  8
0
100
AcDbBlockEnd
  0
ENDSEC
  0
SECTION
  2
ENTITIES
  0
TEXT
  5
5F
330
17
100
AcDbEntity
  8
SUNPOU
100
AcDbText
 10
7771.648326526996
 20
320.0
 30
0.0
 40
60.0
  1
20
100
AcDbText
  0
TEXT
  5
BA
330
17
100
AcDbEntity
  8
SUNPOU
100
AcDbText
 10
6928.124931866048
 20
644.4276687708479
 30
0.0
 40
60.0
  1
コネクトホール１号
 41
0.8
100
AcDbText
  0
TEXT
  5
BC
330
17
100
AcDbEntity
  8
SUNPOU
100
AcDbText
 10
7565.98121537641
 20
644.4276687708479
 30
0.0
 40
60.0
  1
頂版・踊り場直壁
 41
0.8
100
AcDbText
  0
TEXT
  5
2A26
330
17
100
AcDbEntity
  8
SUNPOU
100
AcDbText
 10
7211.648326527001
 20
0.0
 30
0.0
 40
50.0
  1
新和コンクリート工業株式会社
100
AcDbText
  0
TEXT
  5
2A27
330
17
100
AcDbEntity
  8
SUNPOU
100
AcDbText
 10
7639.981659860334
 20
125.0
 30
0.0
 40
50.0
  1
製図
 72
     4
 11
7691.648326527
 21
150.0
 31
0.0
100
AcDbText
  0
TEXT
  5
2A28
330
17
100
AcDbEntity
  8
SUNPOU
100
AcDbText
 10
7638.314993193667
 20
225.0
 30
0.0
 40
50.0
  1
設計
 72
     4
 11
7691.648326527
 21
250.0
 31
0.0
100
AcDbText
  0
TEXT
  5
2A29
330
17
100
AcDbEntity
  8
SUNPOU
100
AcDbText
 10
7193.314993193666
 20
125.0000000000002
 30
0.0
 40
50.0
  1
認
 72
     4
 11
7216.648326527
 21
150.0000000000002
 31
0.0
100
AcDbText
  0
TEXT
  5
2A2A
330
17
100
AcDbEntity
  8
SUNPOU
100
AcDbText
 10
7193.314993193666
 20
226.6666666666674
 30
0.0
 40
50.0
  1
承
 72
     4
 11
7216.648326527
 21
250.0000000000007
 31
0.0
100
AcDbText
  0
TEXT
  5
2A2B
330
17
100
AcDbEntity
  8
SUNPOU
100
AcDbText
 10
6666.648326527
 20
235.0000000000003
 30
0.0
 40
50.0
  1
図　面　番　号
 72
     4
 11
6871.648326527
 21
260.0000000000002
 31
0.0
100
AcDbText
  0
TEXT
  5
2A2C
330
17
100
AcDbEntity
  8
SUNPOU
100
AcDbText
 10
7651.648326526999
 20
340.0
 30
0.0
 40
50.0
  1
１／
100
AcDbText
  0
TEXT
  5
2A2D
330
17
100
AcDbEntity
  8
SUNPOU
100
AcDbText
 10
7358.314993193667
 20
325.0000000000002
 30
0.0
 40
50.0
  1
縮　　尺
 72
     4
 11
7471.648326527
 21
350.0000000000002
 31
0.0
100
AcDbText
  0
TEXT
  5
2A2E
330
17
100
AcDbEntity
  8
SUNPOU
100
AcDbText
 10
7358.314993193667
 20
425.0
 30
0.0
 40
50.0
  1
鉄 筋 量
 72
     4
 11
7471.648326527
 21
450.0
 31
0.0
100
AcDbText
  0
TEXT
  5
2A2F
330
17
100
AcDbEntity
  8
SUNPOU
100
AcDbText
 10
7358.314993193667
 20
525.0
 30
0.0
 40
50.0
  1
製 造 数
 72
     4
 11
7471.648326527
 21
550.0
 31
0.0
100
AcDbText
  0
TEXT
  5
2A30
330
17
100
AcDbEntity
  8
SUNPOU
100
AcDbText
 10
7951.648326526999
 20
420.0
 30
0.0
 40
50.0
  1
ｋｇ
 72
     2
 11
8051.648326526999
 21
420.0
 31
0.0
100
AcDbText
  0
TEXT
  5
2A31
330
17
100
AcDbEntity
  8
SUNPOU
100
AcDbText
 10
7201.648326526999
 20
420.0
 30
0.0
 40
50.0
  1
ｋｇ
 72
     2
 11
7301.648326527
 21
420.0
 31
0.0
100
AcDbText
  0
TEXT
  5
2A32
330
17
100
AcDbEntity
  8
SUNPOU
100
AcDbText
 10
6611.648326527
 20
325.0000000000002
 30
0.0
 40
50.0
  1
年 月 日
 72
     4
 11
6721.648326527
 21
350.0000000000002
 31
0.0
100
AcDbText
  0
TEXT
  5
2A33
330
17
100
AcDbEntity
  8
SUNPOU
100
AcDbText
 10
6608.314993193667
 20
425.0
 30
0.0
 40
50.0
  1
製品質量
 72
     4
 11
6721.648326527
 21
450.0
 31
0.0
100
AcDbText
  0
TEXT
  5
2A34
330
17
100
AcDbEntity
  8
SUNPOU
100
AcDbText
 10
6609.981659860332
 20
525.0
 30
0.0
 40
50.0
  1
業 者 名
 72
     4
 11
6721.648326527
 21
550.0
 31
0.0
100
AcDbText
  0
TEXT
  5
2A35
330
17
100
AcDbEntity
  8
SUNPOU
100
AcDbText
 10
6608.314993193667
 20
650.0
 30
0.0
 40
50.0
  1
名　　称
 72
     4
 11
6721.648326527
 21
675.0
 31
0.0
100
AcDbText
  0
LINE
  5
2A36
330
17
100
AcDbEntity
  8
SUNPOU
100
AcDbLine
 10
7171.648326527
 20
220.0000000000002
 30
0.0
 11
6571.648326527
 21
220.0000000000002
 31
0.0
  0
LINE
  5
2A37
330
17
100
AcDbEntity
  8
SUNPOU
100
AcDbLine
 10
7761.648326527001
 20
99.99999999999971
 30
0.0
 11
7761.648326527001
 21
299.9999999999999
 31
0.0
  0
LINE
  5
2A38
330
17
100
AcDbEntity
  8
SUNPOU
100
AcDbLine
 10
7621.648326527
 20
99.99999999999971
 30
0.0
 11
7621.648326527
 21
299.9999999999999
 31
0.0
  0
LINE
  5
2A39
330
17
100
AcDbEntity
  8
SUNPOU
100
AcDbLine
 10
7261.648326527001
 20
99.99999999999989
 30
0.0
 11
7261.648326527001
 21
300.0
 31
0.0
  0
LINE
  5
2A3A
330
17
100
AcDbEntity
  8
SUNPOU
100
AcDbLine
 10
7171.648326527
 20
99.99999999999989
 30
0.0
 11
7171.648326527
 21
300.0
 31
0.0
  0
LINE
  5
2A3B
330
17
100
AcDbEntity
  8
SUNPOU
100
AcDbLine
 10
6871.648326527
 20
300.0000000000002
 30
0.0
 11
6871.648326527
 21
750.0
 31
0.0
  0
LINE
  5
2A3C
330
17
100
AcDbEntity
  8
SUNPOU
100
AcDbLine
 10
7621.648326527
 20
300.0000000000002
 30
0.0
 11
7621.648326527
 21
600.0
 31
0.0
  0
LINE
  5
2A3D
330
17
100
AcDbEntity
  8
SUNPOU
100
AcDbLine
 10
7321.648326527
 20
300.0000000000002
 30
0.0
 11
7321.648326527
 21
600.0
 31
0.0
  0
LINE
  5
2A3E
330
17
100
AcDbEntity
  8
SUNPOU
100
AcDbLine
 10
8071.648326527
 20
600.0
 30
0.0
 11
6571.648326527
 21
600.0
 31
0.0
  0
LINE
  5
2A3F
330
17
100
AcDbEntity
  8
SUNPOU
100
AcDbLine
 10
8071.648326527
 20
500.0
 30
0.0
 11
6571.648326527
 21
500.0
 31
0.0
  0
LINE
  5
2A40
330
17
100
AcDbEntity
  8
SUNPOU
100
AcDbLine
 10
8071.648326527
 20
400.0
 30
0.0
 11
6571.648326527
 21
400.0
 31
0.0
  0
LINE
  5
2A41
330
17
100
AcDbEntity
  8
SUNPOU
100
AcDbLine
 10
8071.648326527
 20
299.9999999999999
 30
0.0
 11
6571.648326527
 21
300.0000000000007
 31
0.0
  0
LINE
  5
2A42
330
17
100
AcDbEntity
  8
HAIKIN
100
AcDbLine
 10
6571.648326527
 20
750.0
 30
0.0
 11
8071.648326527
 21
750.0
 31
0.0
  0
LINE
  5
2A43
330
17
100
AcDbEntity
  8
HAIKIN
100
AcDbLine
 10
6571.648326527
 20
100.0000000000001
 30
0.0
 11
6571.648326527
 21
750.0
 31
0.0
  0
LINE
  5
2A44
330
17
100
AcDbEntity
  8
SUNPOU
100
AcDbLine
 10
320.0000000000003
 20
5540.0
 30
0.0
 11
320.0000000000003
 21
5440.0
 31
0.0
  0
LINE
  5
2A45
330
17
100
AcDbEntity
  8
SUNPOU
100
AcDbLine
 10
820.0000000000002
 20
5540.0
 30
0.0
 11
320.0000000000003
 21
5540.0
 31
0.0
  0
LINE
  5
2A46
330
17
100
AcDbEntity
  8
SUNPOU
100
AcDbLine
 10
820.0000000000002
 20
5440.0
 30
0.0
 11
820.0000000000002
 21
5540.0
 31
0.0
  0
LINE
  5
2A47
330
17
100
AcDbEntity
  8
HAIKIN
100
AcDbLine
 10
320.0
 20
100.0
 30
0.0
 11
8071.648326527
 21
100.0
 31
0.0
  0
LINE
  5
2A48
330
17
100
AcDbEntity
  8
HAIKIN
100
AcDbLine
 10
320.0000000000003
 20
5440.0
 30
0.0
 11
8071.648326527
 21
5440.0
 31
0.0
  0
LINE
  5
2A49
330
17
100
AcDbEntity
  8
HAIKIN
100
AcDbLine
 10
8071.648326527
 20
5440.0
 30
0.0
 11
8071.648326527
 21
100.0
 31
0.0
  0
TEXT
  5
2A4A
330
17
100
AcDbEntity
  8
SUNPOU
100
AcDbText
 10
394.0000000000003
 20
5460.0
 30
0.0
 40
60.0
  1
Ｈ－２－共
 72
     4
 11
570.0000000000003
 21
5490.0
 31
0.0
100
AcDbText
  0
LINE
  5
2A4B
330
17
100
AcDbEntity
  8
HAIKIN
100
AcDbLine
 10
320.0
 20
100.0
 30
0.0
 11
320.0000000000003
 21
5440.0
 31
0.0
  0
POINT
  5
2A4C
330
17
100
AcDbEntity
  8
SUNPOU
100
AcDbPoint
 10
148.6162821516373
 20
5632.042442328446
 30
0.0
  0
POINT
  5
2A4D
330
17
100
AcDbEntity
  8
SUNPOU
100
AcDbPoint
 10
8181.593311444498
 20
-93.35404855051093
 30
0.0
  0
TEXT
  5
30EA
330
17
100
AcDbEntity
  8
SUNPOU
100
AcDbText
 10
1643.40460394761
 20
5149.056978089532
 30
0.0
 40
60.0
  1
頂　　版
 41
0.8
 72
     1
 11
1752.20460394761
 21
5149.056978089532
 31
0.0
100
AcDbText
  0
TEXT
  5
30EB
330
17
100
AcDbEntity
  8
SUNPOU
100
AcDbText
 10
1670.868287168892
 20
4989.702751336097
 30
0.0
 40
60.0
  1
A1-T
 41
0.8
 72
     1
 11
1750.868287168892
 21
4989.702751336097
 31
0.0
100
AcDbText
  0
LINE
  5
30EE
330
17
100
AcDbEntity
  8
SUNPOU
100
AcDbLine
 10
1572.903989916904
 20
4972.481338878274
 30
0.0
 11
1945.515181450308
 21
4972.481338878274
 31
0.0
  0
LWPOLYLINE
  5
3E34
330
17
100
AcDbEntity
  8
SEIHIN
100
AcDbPolyline
 90
        4
 70
     1
 43
0.0
 10
4499.241000657386
 20
2320.313965287827
 42
0.2344355629253628
 10
4499.241000657386
 20
2720.313965287827
 10
4469.734910992438
 20
2720.313965287827
 42
2.618033988749893
 10
4469.734910992438
 20
2320.313965287827
  0
CIRCLE
  5
3E39
330
17
100
AcDbEntity
  8
SEIHIN
100
AcDbCircle
 10
4096.12811324246
 20
2520.313965287827
 30
0.0
 40
525.0
  0
LINE
  5
3E87
330
17
100
AcDbEntity
  8
SEIHIN
100
AcDbLine
 10
3571.128116475084
 20
4286.946392120486
 30
0.0
 11
3571.128116475084
 21
3986.946392120487
 31
0.0
  0
ARC
  5
3E89
330
17
100
AcDbEntity
  8
SEIHIN
100
AcDbCircle
 10
3608.628116475084
 20
4307.258892120486
 30
0.0
 40
30.3125
100
AcDbArc
 50
222.0750220508563
 51
317.9249779491438
  0
LINE
  5
3E8A
330
17
100
AcDbEntity
  8
SEIHIN
100
AcDbLine
 10
3946.128116475084
 20
4286.946392120486
 30
0.0
 11
3946.128116475084
 21
4186.946392120487
 31
0.0
  0
LINE
  5
3E8B
330
17
100
AcDbEntity
  8
SEIHIN
100
AcDbLine
 10
4546.128116475084
 20
4286.946392120486
 30
0.0
 11
4546.128116475084
 21
3985.946392120487
 31
0.0
  0
ARC
  5
3E8C
330
17
100
AcDbEntity
  8
SEIHIN
100
AcDbCircle
 10
4583.628116475083
 20
4307.258892120486
 30
0.0
 40
30.3125
100
AcDbArc
 50
222.0750220508563
 51
317.9249779491438
  0
LINE
  5
3E8D
330
17
100
AcDbEntity
  8
SEIHIN
100
AcDbLine
 10
4621.128116475083
 20
4286.946392120486
 30
0.0
 11
4621.128116475083
 21
3986.946392120487
 31
0.0
  0
LINE
  5
3E8F
330
17
100
AcDbEntity
  8
SEIHIN
 62
     1
100
AcDbLine
 10
3630.128116475083
 20
3985.946392120487
 30
0.0
 11
4562.12811647505
 21
3985.946392120487
 31
0.0
  0
ARC
  5
3E94
330
17
100
AcDbEntity
  8
SEIHIN
100
AcDbCircle
 10
3609.083746830041
 20
4006.038497383645
 30
0.0
 40
29.09567300584426
100
AcDbArc
 50
221.009462529521
 51
316.3260977627353
  0
LINE
  5
3E9A
330
17
100
AcDbEntity
  8
SEIHIN
100
AcDbLine
 10
3571.128116475084
 20
3986.946392120487
 30
0.0
 11
3587.128116475084
 21
3986.946392120487
 31
0.0
  0
LINE
  5
3E9C
330
17
100
AcDbEntity
  8
SEIHIN
100
AcDbLine
 10
3646.128116475084
 20
4186.946392120487
 30
0.0
 11
3646.128116475084
 21
3985.946392120487
 31
0.0
  0
LINE
  5
3E9D
330
17
100
AcDbEntity
  8
SEIHIN
100
AcDbLine
 10
3646.128116475084
 20
4186.946392120487
 30
0.0
 11
3946.128116475084
 21
4186.946392120487
 31
0.0
  0
LINE
  5
3EA2
330
17
100
AcDbEntity
  8
SEIHIN
100
AcDbLine
 10
4621.128116475083
 20
3986.946392120487
 30
0.0
 11
4605.128116475083
 21
3986.946392120487
 31
0.0
  0
ARC
  5
3EA4
330
17
100
AcDbEntity
  8
SEIHIN
100
AcDbCircle
 10
4583.172486120126
 20
4006.038497383645
 30
0.0
 40
29.09567300584426
100
AcDbArc
 50
223.6739022372646
 51
318.990537470479
  0
LINE
  5
3EAE
330
17
100
AcDbEntity
  8
SEIHIN
100
AcDbLine
 10
3646.128116475084
 20
4286.946392120486
 30
0.0
 11
3946.128116475084
 21
4286.946392120486
 31
0.0
  0
LINE
  5
3EB0
330
17
100
AcDbEntity
  8
SEIHIN
100
AcDbLine
 10
3571.128116475084
 20
4286.946392120486
 30
0.0
 11
3586.128116475084
 21
4286.946392120486
 31
0.0
  0
LINE
  5
3EB1
330
17
100
AcDbEntity
  8
SEIHIN
100
AcDbLine
 10
3631.128116475084
 20
4286.946392120486
 30
0.0
 11
3646.128116475084
 21
4286.946392120486
 31
0.0
  0
LINE
  5
3EB2
330
17
100
AcDbEntity
  8
SEIHIN
100
AcDbLine
 10
4621.128116475083
 20
4286.946392120486
 30
0.0
 11
4606.128116475083
 21
4286.946392120486
 31
0.0
  0
LINE
  5
3EB3
330
17
100
AcDbEntity
  8
SEIHIN
100
AcDbLine
 10
4561.128116475083
 20
4286.946392120486
 30
0.0
 11
4546.128116475084
 21
4286.946392120486
 31
0.0
  0
CIRCLE
  5
424E
330
17
100
AcDbEntity
  8
SEIHIN
100
AcDbCircle
 10
1913.030192220218
 20
2520.313965287827
 30
0.0
 40
335.0
  0
CIRCLE
  5
4250
330
17
100
AcDbEntity
  8
SEIHIN
100
AcDbCircle
 10
1798.030192220218
 20
2520.313965287827
 30
0.0
 40
525.0
  0
LINE
  5
4259
330
17
100
AcDbEntity
  8
SEIHIN
100
AcDbLine
 10
2215.173049363075
 20
4271.946392120486
 30
0.0
 11
2223.030192220218
 21
4216.946392120487
 31
0.0
  0
LINE
  5
425A
330
17
100
AcDbEntity
  8
SEIHIN
100
AcDbLine
 10
1610.887335077361
 20
4271.946392120486
 30
0.0
 11
1603.030192220218
 21
4216.946392120487
 31
0.0
  0
LINE
  5
425D
330
17
100
AcDbEntity
  8
SEIHIN
100
AcDbLine
 10
1273.030192220218
 20
4286.946392120486
 30
0.0
 11
1273.030192220218
 21
4137.946392120487
 31
0.0
  0
LINE
  5
425E
330
17
100
AcDbEntity
  8
SEIHIN
100
AcDbLine
 10
2323.030192220218
 20
4286.946392120486
 30
0.0
 11
2323.030192220218
 21
4137.946392120487
 31
0.0
  0
LINE
  5
4261
330
17
100
AcDbEntity
  8
HASEN
 48
0.5
100
AcDbLine
 10
1348.030192220218
 20
4136.946392120487
 30
0.0
 11
2248.030192220218
 21
4136.946392120487
 31
0.0
  0
LINE
  5
4262
330
17
100
AcDbEntity
  8
SUNPOU
 48
0.5
100
AcDbLine
 10
1310.530192220218
 20
4127.946392120487
 30
0.0
 11
2285.530192220218
 21
4127.946392120487
 31
0.0
  0
LINE
  5
4263
330
17
100
AcDbEntity
  8
SEIHIN
100
AcDbLine
 10
1603.030192220218
 20
4216.946392120487
 30
0.0
 11
1580.030192220218
 21
4146.946392120486
 31
0.0
  0
LINE
  5
4264
330
17
100
AcDbEntity
  8
SEIHIN
100
AcDbLine
 10
1350.030192220218
 20
4146.946392120486
 30
0.0
 11
1580.030192220218
 21
4146.946392120486
 31
0.0
  0
ARC
  5
4265
330
17
100
AcDbEntity
  8
SEIHIN
100
AcDbCircle
 10
1310.530192220218
 20
4156.946392120487
 30
0.0
 40
29.0
100
AcDbArc
 50
220.9327245741547
 51
316.3971810272968
  0
LINE
  5
4266
330
17
100
AcDbEntity
  8
SEIHIN
100
AcDbLine
 10
1273.030192220218
 20
4137.946392120487
 30
0.0
 11
1288.621289920011
 21
4137.946392120488
 31
0.0
  0
LINE
  5
4267
330
17
100
AcDbEntity
  8
SEIHIN
100
AcDbLine
 10
1348.030192220218
 20
4136.946392120487
 30
0.0
 11
1350.030192220218
 21
4146.946392120486
 31
0.0
  0
LINE
  5
4268
330
17
100
AcDbEntity
  8
SEIHIN
100
AcDbLine
 10
1331.530192220218
 20
4136.946392120487
 30
0.0
 11
1348.030192220218
 21
4136.946392120487
 31
0.0
  0
LINE
  5
426E
330
17
100
AcDbEntity
  8
SEIHIN
100
AcDbLine
 10
2248.030192220218
 20
4136.946392120487
 30
0.0
 11
2264.530192220218
 21
4136.946392120487
 31
0.0
  0
LINE
  5
4270
330
17
100
AcDbEntity
  8
SEIHIN
100
AcDbLine
 10
2223.030192220218
 20
4216.946392120487
 30
0.0
 11
2246.030192220218
 21
4146.946392120486
 31
0.0
  0
LINE
  5
4271
330
17
100
AcDbEntity
  8
SEIHIN
100
AcDbLine
 10
2248.030192220218
 20
4136.946392120487
 30
0.0
 11
2246.030192220218
 21
4146.946392120486
 31
0.0
  0
ARC
  5
4272
330
17
100
AcDbEntity
  8
SEIHIN
100
AcDbCircle
 10
2285.530192220218
 20
4156.946392120487
 30
0.0
 40
29.0
100
AcDbArc
 50
223.6028189727032
 51
319.0672754258453
  0
LINE
  5
4273
330
17
100
AcDbEntity
  8
SEIHIN
100
AcDbLine
 10
2323.030192220218
 20
4137.946392120487
 30
0.0
 11
2307.439094520425
 21
4137.946392120488
 31
0.0
  0
LINE
  5
4278
330
17
100
AcDbEntity
  8
HASEN
 48
0.5
100
AcDbLine
 10
1610.887335077361
 20
4271.946392120486
 30
0.0
 11
2215.173049363075
 21
4271.946392120486
 31
0.0
  0
LINE
  5
4279
330
17
100
AcDbEntity
  8
SUNPOU
 48
0.5
100
AcDbLine
 10
1581.030192220218
 20
4286.946392120486
 30
0.0
 11
2245.030192220221
 21
4286.946392120486
 31
0.0
  0
LINE
  5
427E
330
17
100
AcDbEntity
  8
SEIHIN
100
AcDbLine
 10
1587.030192220218
 20
4271.946392120486
 30
0.0
 11
1610.887335077361
 21
4271.946392120486
 31
0.0
  0
LINE
  5
4281
330
17
100
AcDbEntity
  8
SEIHIN
100
AcDbLine
 10
1273.030192220218
 20
4286.946392120486
 30
0.0
 11
1581.030192220218
 21
4286.946392120486
 31
0.0
  0
POINT
  5
4283
330
17
100
AcDbEntity
  8
SEIHIN
  6
ByBlock
 62
     0
100
AcDbPoint
 10
1587.030192220218
 20
4271.946392120486
 30
0.0
  0
LINE
  5
4284
330
17
100
AcDbEntity
  8
SEIHIN
100
AcDbLine
 10
1581.030192220218
 20
4286.946392120486
 30
0.0
 11
1587.030192220218
 21
4271.946392120486
 31
0.0
  0
LINE
  5
4299
330
17
100
AcDbEntity
  8
SEIHIN
100
AcDbLine
 10
2245.030192220221
 20
4286.946392120486
 30
0.0
 11
2323.030192220218
 21
4286.946392120486
 31
0.0
  0
LINE
  5
429B
330
17
100
AcDbEntity
  8
SEIHIN
100
AcDbLine
 10
2239.03019222022
 20
4271.946392120486
 30
0.0
 11
2215.173049363077
 21
4271.946392120486
 31
0.0
  0
LINE
  5
429C
330
17
100
AcDbEntity
  8
SEIHIN
100
AcDbLine
 10
2245.03019222022
 20
4286.946392120486
 30
0.0
 11
2239.03019222022
 21
4271.946392120486
 31
0.0
  0
DIMENSION
  5
443A
330
17
100
AcDbEntity
  8
SUNPOU
100
AcDbDimension
  2
*D4
 10
1613.030192220218
 20
4504.726748920314
 30
0.0
 11
1443.030192220218
 21
4543.726748920315
 31
0.0
 70
    32
 71
     5
 42
-1.0
  3
STANDARD
100
AcDbAlignedDimension
 13
1273.030192220218
 23
4286.946392120486
 33
0.0
 14
1613.030192220218
 24
4286.946392120486
 34
0.0
100
AcDbRotatedDimension
1001
ACAD
1000
DSTYLE
1002
{
1070
   287
1070
     5
1070
   287
1070
     5
1070
    40
1040
20.0
1070
    41
1040
1.5
1070
    42
1040
1.5
1070
    43
1040
7.0
1070
    44
1040
0.5
1070
    73
1070
     0
1070
    74
1070
     0
1070
    77
1070
     1
1070
    78
1070
     8
1070
   140
1040
2.5
1070
   141
1040
0.0
1070
   145
1040
1.0
1070
   147
1040
0.7
1070
   174
1070
     1
1070
   179
1070
     4
1070
   271
1070
     0
1070
   272
1070
     0
1070
   279
1070
     2
1070
   284
1070
     8
1070
   285
1070
     8
1070
   286
1070
     8
1002
}
  0
DIMENSION
  5
4447
330
17
100
AcDbEntity
  8
SUNPOU
100
AcDbDimension
  2
*D5
 10
2213.030192220218
 20
4504.726748920314
 30
0.0
 11
1913.030192220218
 21
4543.726748920315
 31
0.0
 70
    32
 71
     5
 42
-1.0
  3
STANDARD
100
AcDbAlignedDimension
 13
1613.030192220218
 23
4286.946392120486
 33
0.0
 14
2213.030192220218
 24
4286.946392120486
 34
0.0
100
AcDbRotatedDimension
1001
ACAD
1000
DSTYLE
1002
{
1070
   287
1070
     5
1070
   287
1070
     5
1070
    40
1040
20.0
1070
    41
1040
1.5
1070
    42
1040
1.5
1070
    43
1040
7.0
1070
    44
1040
0.5
1070
    73
1070
     0
1070
    74
1070
     0
1070
    77
1070
     1
1070
    78
1070
     8
1070
   140
1040
2.5
1070
   141
1040
0.0
1070
   145
1040
1.0
1070
   147
1040
0.7
1070
   174
1070
     1
1070
   179
1070
     4
1070
   271
1070
     0
1070
   272
1070
     0
1070
   279
1070
     2
1070
   284
1070
     8
1070
   285
1070
     8
1070
   286
1070
     8
1002
}
  0
DIMENSION
  5
4454
330
17
100
AcDbEntity
  8
SUNPOU
100
AcDbDimension
  2
*D6
 10
2323.030192220218
 20
4504.726748920314
 30
0.0
 11
2268.030192220218
 21
4543.726748920315
 31
0.0
 70
    32
 71
     5
 42
-1.0
  3
STANDARD
100
AcDbAlignedDimension
 13
2213.030192220218
 23
4286.946392120486
 33
0.0
 14
2323.030192220218
 24
4286.946392120486
 34
0.0
100
AcDbRotatedDimension
1001
ACAD
1000
DSTYLE
1002
{
1070
   287
1070
     5
1070
   287
1070
     5
1070
    40
1040
20.0
1070
    41
1040
1.5
1070
    42
1040
1.5
1070
    43
1040
7.0
1070
    44
1040
0.5
1070
    73
1070
     0
1070
    74
1070
     0
1070
    77
1070
     1
1070
    78
1070
     8
1070
   140
1040
2.5
1070
   141
1040
0.0
1070
   145
1040
1.0
1070
   147
1040
0.7
1070
   174
1070
     1
1070
   179
1070
     4
1070
   271
1070
     0
1070
   272
1070
     0
1070
   279
1070
     2
1070
   284
1070
     8
1070
   285
1070
     8
1070
   286
1070
     8
1002
}
  0
DIMENSION
  5
4461
330
17
100
AcDbEntity
  8
SUNPOU
100
AcDbDimension
  2
*D7
 10
2323.030192220218
 20
4605.930957422202
 30
0.0
 11
1798.030192220218
 21
4644.930957422203
 31
0.0
 70
    32
 71
     5
 42
-1.0
  3
STANDARD
100
AcDbAlignedDimension
 13
1273.030192220218
 23
4286.946392120486
 33
0.0
 14
2323.030192220218
 24
4286.946392120486
 34
0.0
100
AcDbRotatedDimension
1001
ACAD
1000
DSTYLE
1002
{
1070
   287
1070
     5
1070
   287
1070
     5
1070
    40
1040
20.0
1070
    41
1040
1.5
1070
    42
1040
1.5
1070
    43
1040
7.0
1070
    44
1040
0.5
1070
    73
1070
     0
1070
    74
1070
     0
1070
    77
1070
     1
1070
    78
1070
     8
1070
   140
1040
2.5
1070
   141
1040
0.0
1070
   145
1040
1.0
1070
   147
1040
0.7
1070
   174
1070
     1
1070
   179
1070
     4
1070
   271
1070
     0
1070
   272
1070
     0
1070
   279
1070
     2
1070
   284
1070
     8
1070
   285
1070
     8
1070
   286
1070
     8
1002
}
  0
DIMENSION
  5
446E
330
17
100
AcDbEntity
  8
SUNPOU
100
AcDbDimension
  2
*D8
 10
2567.903238111372
 20
4136.946392120487
 30
0.0
 11
2528.903238111372
 21
4211.946392120488
 31
0.0
 70
    32
 71
     5
 42
-1.0
  3
STANDARD
100
AcDbAlignedDimension
 13
2323.030192220218
 23
4286.946392120486
 33
0.0
 14
2323.030192220218
 24
4136.946392120487
 34
0.0
 50
90.0
100
AcDbRotatedDimension
1001
ACAD
1000
DSTYLE
1002
{
1070
   287
1070
     5
1070
   287
1070
     5
1070
    40
1040
20.0
1070
    41
1040
1.5
1070
    42
1040
1.5
1070
    43
1040
7.0
1070
    44
1040
0.5
1070
    73
1070
     0
1070
    74
1070
     0
1070
    77
1070
     1
1070
    78
1070
     8
1070
   140
1040
2.5
1070
   141
1040
0.0
1070
   145
1040
1.0
1070
   147
1040
0.7
1070
   174
1070
     1
1070
   179
1070
     4
1070
   271
1070
     0
1070
   272
1070
     0
1070
   279
1070
     2
1070
   284
1070
     8
1070
   285
1070
     8
1070
   286
1070
     8
1002
}
  0
DIMENSION
  5
447B
330
17
100
AcDbEntity
  8
SUNPOU
100
AcDbDimension
  2
*D9
 10
982.7434216146938
 20
4146.946392120486
 30
0.0
 11
943.7434216146932
 21
4216.946392120487
 31
0.0
 70
    32
 71
     5
 42
-1.0
  3
STANDARD
100
AcDbAlignedDimension
 13
1273.030192220218
 23
4286.946392120486
 33
0.0
 14
1273.030192220218
 24
4146.946392120486
 34
0.0
 50
90.0
100
AcDbRotatedDimension
1001
ACAD
1000
DSTYLE
1002
{
1070
   287
1070
     5
1070
   287
1070
     5
1070
    40
1040
20.0
1070
    41
1040
1.5
1070
    42
1040
1.5
1070
    43
1040
7.0
1070
    44
1040
0.5
1070
    73
1070
     0
1070
    74
1070
     0
1070
    77
1070
     1
1070
    78
1070
     8
1070
   140
1040
2.5
1070
   141
1040
0.0
1070
   145
1040
1.0
1070
   147
1040
0.7
1070
   174
1070
     1
1070
   179
1070
     4
1070
   271
1070
     0
1070
   272
1070
     0
1070
   279
1070
     2
1070
   284
1070
     8
1070
   285
1070
     8
1070
   286
1070
     8
1002
}
  0
DIMENSION
  5
44A5
330
17
100
AcDbEntity
  8
SUNPOU
100
AcDbDimension
  2
*D11
 10
1578.030192220218
 20
3906.812652467852
 30
0.0
 11
1463.030192220218
 21
3945.812652467852
 31
0.0
 70
    32
 71
     5
 42
-1.0
  3
STANDARD
100
AcDbAlignedDimension
 13
1348.030192220218
 23
4137.946392120487
 33
0.0
 14
1578.030192220218
 24
4137.946392120487
 34
0.0
100
AcDbRotatedDimension
1001
ACAD
1000
DSTYLE
1002
{
1070
   287
1070
     5
1070
   287
1070
     5
1070
    40
1040
20.0
1070
    41
1040
1.5
1070
    42
1040
1.5
1070
    43
1040
7.0
1070
    44
1040
0.5
1070
    73
1070
     0
1070
    74
1070
     0
1070
    77
1070
     1
1070
    78
1070
     8
1070
   140
1040
2.5
1070
   141
1040
0.0
1070
   145
1040
1.0
1070
   147
1040
0.7
1070
   174
1070
     1
1070
   179
1070
     4
1070
   271
1070
     0
1070
   272
1070
     0
1070
   279
1070
     2
1070
   284
1070
     8
1070
   285
1070
     8
1070
   286
1070
     8
1002
}
  0
DIMENSION
  5
44B2
330
17
100
AcDbEntity
  8
SUNPOU
100
AcDbDimension
  2
*D12
 10
2248.030192220218
 20
3906.812652467852
 30
0.0
 11
1913.030192220218
 21
3945.812652467852
 31
0.0
 70
    32
 71
     5
 42
-1.0
  3
STANDARD
100
AcDbAlignedDimension
 13
1578.030192220218
 23
4137.946392120487
 33
0.0
 14
2248.030192220218
 24
4137.946392120487
 34
0.0
100
AcDbRotatedDimension
1001
ACAD
1000
DSTYLE
1002
{
1070
   287
1070
     5
1070
   287
1070
     5
1070
    40
1040
20.0
1070
    41
1040
1.5
1070
    42
1040
1.5
1070
    43
1040
7.0
1070
    44
1040
0.5
1070
    73
1070
     0
1070
    74
1070
     0
1070
    77
1070
     1
1070
    78
1070
     8
1070
   140
1040
2.5
1070
   141
1040
0.0
1070
   145
1040
1.0
1070
   147
1040
0.7
1070
   174
1070
     1
1070
   179
1070
     4
1070
   271
1070
     0
1070
   272
1070
     0
1070
   279
1070
     2
1070
   284
1070
     8
1070
   285
1070
     8
1070
   286
1070
     8
1002
}
  0
DIMENSION
  5
44BF
330
17
100
AcDbEntity
  8
SUNPOU
100
AcDbDimension
  2
*D13
 10
2323.030192220218
 20
3807.248177260444
 30
0.0
 11
2285.530192220218
 21
3846.248177260444
 31
0.0
 70
    32
 71
     5
 42
-1.0
  3
STANDARD
100
AcDbAlignedDimension
 13
2248.030192220218
 23
4137.946392120487
 33
0.0
 14
2323.030192220218
 24
4136.946392120487
 34
0.0
100
AcDbRotatedDimension
1001
ACAD
1000
DSTYLE
1002
{
1070
    40
1040
20.0
1070
    41
1040
1.5
1070
    42
1040
1.5
1070
    43
1040
7.0
1070
    44
1040
0.5
1070
    73
1070
     0
1070
    74
1070
     0
1070
    77
1070
     1
1070
    78
1070
     8
1070
   140
1040
2.5
1070
   141
1040
0.0
1070
   145
1040
1.0
1070
   147
1040
0.7
1070
   174
1070
     1
1070
   179
1070
     4
1070
   271
1070
     0
1070
   272
1070
     0
1070
   284
1070
     8
1070
   285
1070
     8
1070
   286
1070
     8
1002
}
  0
DIMENSION
  5
44CD
330
17
100
AcDbEntity
  8
SUNPOU
100
AcDbDimension
  2
*D14
 10
2248.030192220218
 20
3807.248177260444
 30
0.0
 11
1798.030192220218
 21
3846.248177260444
 31
0.0
 70
    32
 71
     5
 42
-1.0
  3
STANDARD
100
AcDbAlignedDimension
 13
1348.030192220218
 23
4136.946392120487
 33
0.0
 14
2248.030192220218
 24
4136.946392120487
 34
0.0
100
AcDbRotatedDimension
1001
ACAD
1000
DSTYLE
1002
{
1070
   287
1070
     5
1070
   287
1070
     5
1070
    40
1040
20.0
1070
    41
1040
1.5
1070
    42
1040
1.5
1070
    43
1040
7.0
1070
    44
1040
0.5
1070
    73
1070
     0
1070
    74
1070
     0
1070
    77
1070
     1
1070
    78
1070
     8
1070
   140
1040
2.5
1070
   141
1040
0.0
1070
   145
1040
1.0
1070
   147
1040
0.7
1070
   174
1070
     1
1070
   179
1070
     4
1070
   271
1070
     0
1070
   272
1070
     0
1070
   279
1070
     2
1070
   284
1070
     8
1070
   285
1070
     8
1070
   286
1070
     8
1002
}
  0
DIMENSION
  5
44F8
330
17
100
AcDbEntity
  8
SUNPOU
100
AcDbDimension
  2
*D15
 10
1273.030192220218
 20
3807.248177260444
 30
0.0
 11
1310.530192220218
 21
3846.248177260444
 31
0.0
 70
    32
 71
     5
 42
-1.0
  3
STANDARD
100
AcDbAlignedDimension
 13
1348.030192220218
 23
4137.946392120487
 33
0.0
 14
1273.030192220218
 24
4136.946392120487
 34
0.0
 50
180.0
100
AcDbRotatedDimension
1001
ACAD
1000
DSTYLE
1002
{
1070
    40
1040
20.0
1070
    41
1040
1.5
1070
    42
1040
1.5
1070
    43
1040
7.0
1070
    44
1040
0.5
1070
    73
1070
     0
1070
    74
1070
     0
1070
    77
1070
     1
1070
    78
1070
     8
1070
   140
1040
2.5
1070
   141
1040
0.0
1070
   145
1040
1.0
1070
   147
1040
0.7
1070
   174
1070
     1
1070
   179
1070
     4
1070
   271
1070
     0
1070
   272
1070
     0
1070
   284
1070
     8
1070
   285
1070
     8
1070
   286
1070
     8
1002
}
  0
LINE
  5
4759
330
17
100
AcDbEntity
  8
SUNPOU
100
AcDbLine
 10
3827.930338128521
 20
4972.481338878274
 30
0.0
 11
4359.034565034591
 21
4972.481338878274
 31
0.0
  0
TEXT
  5
475A
330
17
100
AcDbEntity
  8
SUNPOU
100
AcDbText
 10
3901.946832054662
 20
4989.702751336097
 30
0.0
 40
60.0
  1
A1-S300F下
 41
0.8
 72
     1
 11
4100.346832054661
 21
4989.702751336097
 31
0.0
100
AcDbText
  0
TEXT
  5
475B
330
17
100
AcDbEntity
  8
SUNPOU
100
AcDbText
 10
3957.777962763078
 20
5149.056978089532
 30
0.0
 40
60.0
  1
踊り場直壁
 41
0.8
 72
     1
 11
4095.377962763077
 21
5149.056978089532
 31
0.0
100
AcDbText
  0
LINE
  5
475D
330
17
100
AcDbEntity
  8
SEIHIN
 62
     1
100
AcDbLine
 10
3946.128116475084
 20
4286.946392120486
 30
0.0
 11
4546.128116475084
 21
4286.946392120486
 31
0.0
  0
DIMENSION
  5
4896
330
17
100
AcDbEntity
  8
SUNPOU
100
AcDbDimension
  2
*D24
 10
3646.128116475084
 20
4504.726748920314
 30
0.0
 11
3608.628116475084
 21
4543.726748920315
 31
0.0
 70
    32
 71
     5
 42
-1.0
  3
STANDARD
100
AcDbAlignedDimension
 13
3571.128116475084
 23
4286.946392120486
 33
0.0
 14
3646.128116475084
 24
4286.946392120486
 34
0.0
100
AcDbRotatedDimension
1001
ACAD
1000
DSTYLE
1002
{
1070
   287
1070
     5
1070
   287
1070
     5
1070
    40
1040
20.0
1070
    41
1040
1.5
1070
    42
1040
1.5
1070
    43
1040
7.0
1070
    44
1040
0.5
1070
    73
1070
     0
1070
    74
1070
     0
1070
    77
1070
     1
1070
    78
1070
     8
1070
   140
1040
2.5
1070
   141
1040
0.0
1070
   145
1040
1.0
1070
   147
1040
0.7
1070
   174
1070
     1
1070
   179
1070
     4
1070
   271
1070
     0
1070
   272
1070
     0
1070
   279
1070
     2
1070
   284
1070
     8
1070
   285
1070
     8
1070
   286
1070
     8
1002
}
  0
DIMENSION
  5
48A4
330
17
100
AcDbEntity
  8
SUNPOU
100
AcDbDimension
  2
*D25
 10
3946.128116475084
 20
4504.726748920314
 30
0.0
 11
3796.128116475084
 21
4543.726748920315
 31
0.0
 70
    32
 71
     5
 42
-1.0
  3
STANDARD
100
AcDbAlignedDimension
 13
3646.128116475084
 23
4286.946392120486
 33
0.0
 14
3946.128116475084
 24
4286.946392120486
 34
0.0
100
AcDbRotatedDimension
1001
ACAD
1000
DSTYLE
1002
{
1070
   287
1070
     5
1070
   287
1070
     5
1070
    40
1040
20.0
1070
    41
1040
1.5
1070
    42
1040
1.5
1070
    43
1040
7.0
1070
    44
1040
0.5
1070
    73
1070
     0
1070
    74
1070
     0
1070
    77
1070
     1
1070
    78
1070
     8
1070
   140
1040
2.5
1070
   141
1040
0.0
1070
   145
1040
1.0
1070
   147
1040
0.7
1070
   174
1070
     1
1070
   179
1070
     4
1070
   271
1070
     0
1070
   272
1070
     0
1070
   279
1070
     2
1070
   284
1070
     8
1070
   285
1070
     8
1070
   286
1070
     8
1002
}
  0
DIMENSION
  5
48B1
330
17
100
AcDbEntity
  8
SUNPOU
100
AcDbDimension
  2
*D26
 10
4546.128116475084
 20
4504.726748920314
 30
0.0
 11
4246.128116475083
 21
4543.726748920315
 31
0.0
 70
    32
 71
     5
 42
-1.0
  3
STANDARD
100
AcDbAlignedDimension
 13
3946.128116475084
 23
4286.946392120486
 33
0.0
 14
4546.128116475084
 24
4286.946392120486
 34
0.0
100
AcDbRotatedDimension
1001
ACAD
1000
DSTYLE
1002
{
1070
   287
1070
     5
1070
   287
1070
     5
1070
    40
1040
20.0
1070
    41
1040
1.5
1070
    42
1040
1.5
1070
    43
1040
7.0
1070
    44
1040
0.5
1070
    73
1070
     0
1070
    74
1070
     0
1070
    77
1070
     1
1070
    78
1070
     8
1070
   140
1040
2.5
1070
   141
1040
0.0
1070
   145
1040
1.0
1070
   147
1040
0.7
1070
   174
1070
     1
1070
   179
1070
     4
1070
   271
1070
     0
1070
   272
1070
     0
1070
   279
1070
     2
1070
   284
1070
     8
1070
   285
1070
     8
1070
   286
1070
     8
1002
}
  0
DIMENSION
  5
48BE
330
17
100
AcDbEntity
  8
SUNPOU
100
AcDbDimension
  2
*D27
 10
4621.128116475083
 20
4504.726748920314
 30
0.0
 11
4583.628116475083
 21
4543.726748920315
 31
0.0
 70
    32
 71
     5
 42
-1.0
  3
STANDARD
100
AcDbAlignedDimension
 13
4546.128116475084
 23
4286.946392120486
 33
0.0
 14
4621.128116475083
 24
4286.946392120486
 34
0.0
100
AcDbRotatedDimension
1001
ACAD
1000
DSTYLE
1002
{
1070
   287
1070
     5
1070
   287
1070
     5
1070
    40
1040
20.0
1070
    41
1040
1.5
1070
    42
1040
1.5
1070
    43
1040
7.0
1070
    44
1040
0.5
1070
    73
1070
     0
1070
    74
1070
     0
1070
    77
1070
     1
1070
    78
1070
     8
1070
   140
1040
2.5
1070
   141
1040
0.0
1070
   145
1040
1.0
1070
   147
1040
0.7
1070
   174
1070
     1
1070
   179
1070
     4
1070
   271
1070
     0
1070
   272
1070
     0
1070
   279
1070
     2
1070
   284
1070
     8
1070
   285
1070
     8
1070
   286
1070
     8
1002
}
  0
DIMENSION
  5
48CC
330
17
100
AcDbEntity
  8
SUNPOU
100
AcDbDimension
  2
*D28
 10
4621.128116475083
 20
4605.930957422202
 30
0.0
 11
4096.128116475084
 21
4644.930957422203
 31
0.0
 70
    32
 71
     5
 42
-1.0
  3
STANDARD
100
AcDbAlignedDimension
 13
3571.128116475084
 23
4286.946392120486
 33
0.0
 14
4621.128116475083
 24
4286.946392120486
 34
0.0
100
AcDbRotatedDimension
1001
ACAD
1000
DSTYLE
1002
{
1070
   287
1070
     5
1070
   287
1070
     5
1070
    40
1040
20.0
1070
    41
1040
1.5
1070
    42
1040
1.5
1070
    43
1040
7.0
1070
    44
1040
0.5
1070
    73
1070
     0
1070
    74
1070
     0
1070
    77
1070
     1
1070
    78
1070
     8
1070
   140
1040
2.5
1070
   141
1040
0.0
1070
   145
1040
1.0
1070
   147
1040
0.7
1070
   174
1070
     1
1070
   179
1070
     4
1070
   271
1070
     0
1070
   272
1070
     0
1070
   279
1070
     2
1070
   284
1070
     8
1070
   285
1070
     8
1070
   286
1070
     8
1002
}
  0
DIMENSION
  5
4901
330
17
100
AcDbEntity
  8
SUNPOU
100
AcDbDimension
  2
*D32
 10
3319.490689245944
 20
4286.946392120486
 30
0.0
 11
3280.490689245944
 21
4136.946392120488
 31
0.0
 70
    32
 71
     5
 42
-1.0
  3
STANDARD
100
AcDbAlignedDimension
 13
3571.128116475084
 23
3986.946392120487
 33
0.0
 14
3571.128116475084
 24
4286.946392120486
 34
0.0
 50
90.0
100
AcDbRotatedDimension
1001
ACAD
1000
DSTYLE
1002
{
1070
   287
1070
     5
1070
   287
1070
     5
1070
    40
1040
20.0
1070
    41
1040
1.5
1070
    42
1040
1.5
1070
    43
1040
7.0
1070
    44
1040
0.5
1070
    73
1070
     0
1070
    74
1070
     0
1070
    77
1070
     1
1070
    78
1070
     8
1070
   140
1040
2.5
1070
   141
1040
0.0
1070
   145
1040
1.0
1070
   147
1040
0.7
1070
   174
1070
     1
1070
   179
1070
     4
1070
   271
1070
     0
1070
   272
1070
     0
1070
   279
1070
     2
1070
   284
1070
     8
1070
   285
1070
     8
1070
   286
1070
     8
1002
}
  0
DIMENSION
  5
4922
330
17
100
AcDbEntity
  8
SUNPOU
100
AcDbDimension
  2
*D33
 10
4882.312619056567
 20
3986.946392120487
 30
0.0
 11
4843.312619056566
 21
4136.946392120488
 31
0.0
 70
    32
 71
     5
 42
-1.0
  3
STANDARD
100
AcDbAlignedDimension
 13
4621.128116475083
 23
4286.946392120486
 33
0.0
 14
4621.128116475083
 24
3986.946392120487
 34
0.0
 50
90.0
100
AcDbRotatedDimension
1001
ACAD
1000
DSTYLE
1002
{
1070
   287
1070
     5
1070
   287
1070
     5
1070
    40
1040
20.0
1070
    41
1040
1.5
1070
    42
1040
1.5
1070
    43
1040
7.0
1070
    44
1040
0.5
1070
    73
1070
     0
1070
    74
1070
     0
1070
    77
1070
     1
1070
    78
1070
     8
1070
   140
1040
2.5
1070
   141
1040
0.0
1070
   145
1040
1.0
1070
   147
1040
0.7
1070
   174
1070
     1
1070
   179
1070
     4
1070
   271
1070
     0
1070
   272
1070
     0
1070
   279
1070
     2
1070
   284
1070
     8
1070
   285
1070
     8
1070
   286
1070
     8
1002
}
  0
DIMENSION
  5
492F
330
17
100
AcDbEntity
  8
SUNPOU
100
AcDbDimension
  2
*D34
 10
3646.128116475084
 20
3692.072738002933
 30
0.0
 11
3608.628116475084
 21
3731.072738002933
 31
0.0
 70
    32
 71
     5
 42
-1.0
  3
STANDARD
100
AcDbAlignedDimension
 13
3571.128116475084
 23
3986.946392120487
 33
0.0
 14
3646.128116475084
 24
3986.946392120487
 34
0.0
100
AcDbRotatedDimension
1001
ACAD
1000
DSTYLE
1002
{
1070
   287
1070
     5
1070
   287
1070
     5
1070
    40
1040
20.0
1070
    41
1040
1.5
1070
    42
1040
1.5
1070
    43
1040
7.0
1070
    44
1040
0.5
1070
    73
1070
     0
1070
    74
1070
     0
1070
    77
1070
     1
1070
    78
1070
     8
1070
   140
1040
2.5
1070
   141
1040
0.0
1070
   145
1040
1.0
1070
   147
1040
0.7
1070
   174
1070
     1
1070
   179
1070
     4
1070
   271
1070
     0
1070
   272
1070
     0
1070
   279
1070
     2
1070
   284
1070
     8
1070
   285
1070
     8
1070
   286
1070
     8
1002
}
  0
DIMENSION
  5
493D
330
17
100
AcDbEntity
  8
SUNPOU
100
AcDbDimension
  2
*D35
 10
4546.128116475084
 20
3692.072738002933
 30
0.0
 11
4096.128116475084
 21
3731.072738002933
 31
0.0
 70
    32
 71
     5
 42
-1.0
  3
STANDARD
100
AcDbAlignedDimension
 13
3646.128116475084
 23
3985.946392120487
 33
0.0
 14
4546.128116475084
 24
3985.946392120487
 34
0.0
100
AcDbRotatedDimension
1001
ACAD
1000
DSTYLE
1002
{
1070
   287
1070
     5
1070
   287
1070
     5
1070
    40
1040
20.0
1070
    41
1040
1.5
1070
    42
1040
1.5
1070
    43
1040
7.0
1070
    44
1040
0.5
1070
    73
1070
     0
1070
    74
1070
     0
1070
    77
1070
     1
1070
    78
1070
     8
1070
   140
1040
2.5
1070
   141
1040
0.0
1070
   145
1040
1.0
1070
   147
1040
0.7
1070
   174
1070
     1
1070
   179
1070
     4
1070
   271
1070
     0
1070
   272
1070
     0
1070
   279
1070
     2
1070
   284
1070
     8
1070
   285
1070
     8
1070
   286
1070
     8
1002
}
  0
DIMENSION
  5
494A
330
17
100
AcDbEntity
  8
SUNPOU
100
AcDbDimension
  2
*D36
 10
4621.128116475083
 20
3692.072738002933
 30
0.0
 11
4583.628116475083
 21
3731.072738002933
 31
0.0
 70
    32
 71
     5
 42
-1.0
  3
STANDARD
100
AcDbAlignedDimension
 13
4546.128116475084
 23
3985.946392120487
 33
0.0
 14
4621.128116475083
 24
3986.946392120487
 34
0.0
100
AcDbRotatedDimension
1001
ACAD
1000
DSTYLE
1002
{
1070
   287
1070
     5
1070
   287
1070
     5
1070
    40
1040
20.0
1070
    41
1040
1.5
1070
    42
1040
1.5
1070
    43
1040
7.0
1070
    44
1040
0.5
1070
    73
1070
     0
1070
    74
1070
     0
1070
    77
1070
     1
1070
    78
1070
     8
1070
   140
1040
2.5
1070
   141
1040
0.0
1070
   145
1040
1.0
1070
   147
1040
0.7
1070
   174
1070
     1
1070
   179
1070
     4
1070
   271
1070
     0
1070
   272
1070
     0
1070
   279
1070
     2
1070
   284
1070
     8
1070
   285
1070
     8
1070
   286
1070
     8
1002
}
  0
DIMENSION
  5
4985
330
17
100
AcDbEntity
  8
SUNPOU
 62
     1
100
AcDbDimension
  2
*D37
 10
4316.519294673187
 20
2720.313965287827
 30
0.0
 11
4277.519294673187
 21
2520.313965287828
 31
0.0
 70
    32
 71
     5
 42
-1.0
  3
STANDARD
100
AcDbAlignedDimension
 13
4469.734910992438
 23
2320.313965287827
 33
0.0
 14
4469.734910992438
 24
2720.313965287827
 34
0.0
 50
90.0
100
AcDbRotatedDimension
1001
ACAD
1000
DSTYLE
1002
{
1070
   287
1070
     5
1070
   287
1070
     5
1070
    40
1040
20.0
1070
    41
1040
1.5
1070
    42
1040
1.5
1070
    43
1040
7.0
1070
    44
1040
0.5
1070
    73
1070
     0
1070
    74
1070
     0
1070
    77
1070
     1
1070
    78
1070
     8
1070
   140
1040
2.5
1070
   141
1040
0.0
1070
   145
1040
1.0
1070
   147
1040
0.7
1070
   174
1070
     1
1070
   179
1070
     4
1070
   271
1070
     0
1070
   272
1070
     0
1070
   279
1070
     2
1070
   284
1070
     8
1070
   285
1070
     8
1070
   286
1070
     8
1002
}
  0
TEXT
  5
4D14
330
17
100
AcDbEntity
  8
SUNPOU
100
AcDbText
 10
6302.412122116593
 20
4989.702751336097
 30
0.0
 40
60.0
  1
A1-S300C
 41
0.8
 72
     1
 11
6470.412122116593
 21
4989.702751336097
 31
0.0
100
AcDbText
  0
LINE
  5
4D15
330
17
100
AcDbEntity
  8
SUNPOU
100
AcDbLine
 10
6197.995628190453
 20
4972.481338878274
 30
0.0
 11
6729.099855096523
 21
4972.481338878274
 31
0.0
  0
TEXT
  5
4D16
330
17
100
AcDbEntity
  8
SUNPOU
100
AcDbText
 10
6327.843252825008
 20
5149.056978089532
 30
0.0
 40
60.0
  1
連結用直壁
 41
0.8
 72
     1
 11
6465.44325282501
 21
5149.056978089532
 31
0.0
100
AcDbText
  0
LINE
  5
4F20
330
17
100
AcDbEntity
  8
SUNPOU
100
AcDbLine
 10
6063.432147229679
 20
4286.946392120486
 30
0.0
 11
6963.43214722968
 21
4286.946392120486
 31
0.0
  0
LINE
  5
4F21
330
17
100
AcDbEntity
  8
SEIHIN
100
AcDbLine
 10
5988.43214722968
 20
4286.946392120486
 30
0.0
 11
6063.432147229679
 21
4286.946392120486
 31
0.0
  0
LINE
  5
4F22
330
17
100
AcDbEntity
  8
SEIHIN
100
AcDbLine
 10
7038.432147229681
 20
4286.946392120486
 30
0.0
 11
6963.43214722968
 21
4286.946392120486
 31
0.0
  0
LINE
  5
4F23
330
17
100
AcDbEntity
  8
SEIHIN
100
AcDbLine
 10
6063.432147229679
 20
4286.946392120486
 30
0.0
 11
6063.432147229679
 21
3986.946392120487
 31
0.0
  0
LINE
  5
4F24
330
17
100
AcDbEntity
  8
SEIHIN
100
AcDbLine
 10
6063.432147229679
 20
3986.946392120487
 30
0.0
 11
5913.43214722968
 21
3986.946392120487
 31
0.0
  0
LINE
  5
4F25
330
17
100
AcDbEntity
  8
SEIHIN
100
AcDbLine
 10
5913.43214722968
 20
3986.946392120487
 30
0.0
 11
5913.43214722968
 21
4111.946392120486
 31
0.0
  0
LINE
  5
4F26
330
17
100
AcDbEntity
  8
SEIHIN
100
AcDbLine
 10
5913.43214722968
 20
4111.946392120486
 30
0.0
 11
5988.43214722968
 21
4186.946392120487
 31
0.0
  0
LINE
  5
4F27
330
17
100
AcDbEntity
  8
SEIHIN
100
AcDbLine
 10
5988.43214722968
 20
4286.946392120486
 30
0.0
 11
5988.432147229679
 21
4186.946392120486
 31
0.0
  0
LINE
  5
4F45
330
17
100
AcDbEntity
  8
SEIHIN
100
AcDbLine
 10
7113.43214722968
 20
4111.946392120486
 30
0.0
 11
7038.432147229681
 21
4186.946392120487
 31
0.0
  0
LINE
  5
4F46
330
17
100
AcDbEntity
  8
SEIHIN
100
AcDbLine
 10
6963.43214722968
 20
3986.946392120487
 30
0.0
 11
7113.43214722968
 21
3986.946392120487
 31
0.0
  0
LINE
  5
4F47
330
17
100
AcDbEntity
  8
SEIHIN
100
AcDbLine
 10
7113.43214722968
 20
3986.946392120487
 30
0.0
 11
7113.43214722968
 21
4111.946392120486
 31
0.0
  0
LINE
  5
4F55
330
17
100
AcDbEntity
  8
SEIHIN
100
AcDbLine
 10
6963.43214722968
 20
4286.946392120486
 30
0.0
 11
6963.43214722968
 21
3986.946392120487
 31
0.0
  0
LINE
  5
4F56
330
17
100
AcDbEntity
  8
SEIHIN
100
AcDbLine
 10
7038.432147229681
 20
4286.946392120486
 30
0.0
 11
7038.432147229681
 21
4186.946392120486
 31
0.0
  0
LINE
  5
4F57
330
17
100
AcDbEntity
  8
SUNPOU
100
AcDbLine
 10
6063.432147229679
 20
3986.946392120487
 30
0.0
 11
6963.43214722968
 21
3986.946392120487
 31
0.0
  0
DIMENSION
  5
4F58
330
17
100
AcDbEntity
  8
SUNPOU
100
AcDbDimension
  2
*D51
 10
7038.432147229681
 20
4605.930957422224
 30
0.0
 11
6513.43214722968
 21
4644.930957422224
 31
0.0
 70
    32
 71
     5
 42
-1.0
  3
STANDARD
100
AcDbAlignedDimension
 13
5988.43214722968
 23
4286.946392120508
 33
0.0
 14
7038.432147229681
 24
4286.946392120508
 34
0.0
100
AcDbRotatedDimension
1001
ACAD
1000
DSTYLE
1002
{
1070
   287
1070
     5
1070
   287
1070
     5
1070
    40
1040
20.0
1070
    41
1040
1.5
1070
    42
1040
1.5
1070
    43
1040
7.0
1070
    44
1040
0.5
1070
    73
1070
     0
1070
    74
1070
     0
1070
    77
1070
     1
1070
    78
1070
     8
1070
   140
1040
2.5
1070
   141
1040
0.0
1070
   145
1040
1.0
1070
   147
1040
0.7
1070
   174
1070
     1
1070
   179
1070
     4
1070
   271
1070
     0
1070
   272
1070
     0
1070
   279
1070
     2
1070
   284
1070
     8
1070
   285
1070
     8
1070
   286
1070
     8
1002
}
  0
DIMENSION
  5
4F59
330
17
100
AcDbEntity
  8
SUNPOU
100
AcDbDimension
  2
*D50
 10
7038.432147229681
 20
4504.726748920337
 30
0.0
 11
7000.93214722968
 21
4543.726748920337
 31
0.0
 70
    32
 71
     5
 42
-1.0
  3
STANDARD
100
AcDbAlignedDimension
 13
6963.43214722968
 23
4286.946392120508
 33
0.0
 14
7038.432147229681
 24
4286.946392120508
 34
0.0
100
AcDbRotatedDimension
1001
ACAD
1000
DSTYLE
1002
{
1070
   287
1070
     5
1070
   287
1070
     5
1070
    40
1040
20.0
1070
    41
1040
1.5
1070
    42
1040
1.5
1070
    43
1040
7.0
1070
    44
1040
0.5
1070
    73
1070
     0
1070
    74
1070
     0
1070
    77
1070
     1
1070
    78
1070
     8
1070
   140
1040
2.5
1070
   141
1040
0.0
1070
   145
1040
1.0
1070
   147
1040
0.7
1070
   174
1070
     1
1070
   179
1070
     4
1070
   271
1070
     0
1070
   272
1070
     0
1070
   279
1070
     2
1070
   284
1070
     8
1070
   285
1070
     8
1070
   286
1070
     8
1002
}
  0
DIMENSION
  5
4F5A
330
17
100
AcDbEntity
  8
SUNPOU
100
AcDbDimension
  2
*D49
 10
6063.432147229679
 20
4504.726748920337
 30
0.0
 11
6025.93214722968
 21
4543.726748920337
 31
0.0
 70
    32
 71
     5
 42
-1.0
  3
STANDARD
100
AcDbAlignedDimension
 13
5988.43214722968
 23
4286.946392120508
 33
0.0
 14
6063.432147229679
 24
4286.946392120508
 34
0.0
100
AcDbRotatedDimension
1001
ACAD
1000
DSTYLE
1002
{
1070
   287
1070
     5
1070
   287
1070
     5
1070
    40
1040
20.0
1070
    41
1040
1.5
1070
    42
1040
1.5
1070
    43
1040
7.0
1070
    44
1040
0.5
1070
    73
1070
     0
1070
    74
1070
     0
1070
    77
1070
     1
1070
    78
1070
     8
1070
   140
1040
2.5
1070
   141
1040
0.0
1070
   145
1040
1.0
1070
   147
1040
0.7
1070
   174
1070
     1
1070
   179
1070
     4
1070
   271
1070
     0
1070
   272
1070
     0
1070
   279
1070
     2
1070
   284
1070
     8
1070
   285
1070
     8
1070
   286
1070
     8
1002
}
  0
DIMENSION
  5
4F9E
330
17
100
AcDbEntity
  8
SUNPOU
100
AcDbDimension
  2
*D52
 10
6963.43214722968
 20
4504.726748920337
 30
0.0
 11
6513.43214722968
 21
4543.726748920337
 31
0.0
 70
    32
 71
     5
 42
-1.0
  3
STANDARD
100
AcDbAlignedDimension
 13
6063.432147229679
 23
4286.946392120486
 33
0.0
 14
6963.43214722968
 24
4286.946392120486
 34
0.0
100
AcDbRotatedDimension
1001
ACAD
1000
DSTYLE
1002
{
1070
   287
1070
     5
1070
   287
1070
     5
1070
    40
1040
20.0
1070
    41
1040
1.5
1070
    42
1040
1.5
1070
    43
1040
7.0
1070
    44
1040
0.5
1070
    73
1070
     0
1070
    74
1070
     0
1070
    77
1070
     1
1070
    78
1070
     8
1070
   140
1040
2.5
1070
   141
1040
0.0
1070
   145
1040
1.0
1070
   147
1040
0.7
1070
   174
1070
     1
1070
   179
1070
     4
1070
   271
1070
     0
1070
   272
1070
     0
1070
   279
1070
     2
1070
   284
1070
     8
1070
   285
1070
     8
1070
   286
1070
     8
1002
}
  0
DIMENSION
  5
4FAB
330
17
100
AcDbEntity
  8
SUNPOU
100
AcDbDimension
  2
*D53
 10
7524.867971839928
 20
3986.946392120487
 30
0.0
 11
7485.867971839929
 21
4136.946392120488
 31
0.0
 70
    32
 71
     5
 42
-1.0
  3
STANDARD
100
AcDbAlignedDimension
 13
7038.432147229681
 23
4286.946392120486
 33
0.0
 14
7113.43214722968
 24
3986.946392120487
 34
0.0
 50
90.0
100
AcDbRotatedDimension
1001
ACAD
1000
DSTYLE
1002
{
1070
   287
1070
     5
1070
   287
1070
     5
1070
    40
1040
20.0
1070
    41
1040
1.5
1070
    42
1040
1.5
1070
    43
1040
7.0
1070
    44
1040
0.5
1070
    73
1070
     0
1070
    74
1070
     0
1070
    77
1070
     1
1070
    78
1070
     8
1070
   140
1040
2.5
1070
   141
1040
0.0
1070
   145
1040
1.0
1070
   147
1040
0.7
1070
   174
1070
     1
1070
   179
1070
     4
1070
   271
1070
     0
1070
   272
1070
     0
1070
   279
1070
     2
1070
   284
1070
     8
1070
   285
1070
     8
1070
   286
1070
     8
1002
}
  0
DIMENSION
  5
504B
330
17
100
AcDbEntity
  8
SUNPOU
100
AcDbDimension
  2
*D59
 10
6063.432147229679
 20
3634.802183325434
 30
0.0
 11
5988.43214722968
 21
3673.802183325434
 31
0.0
 70
    32
 71
     5
 42
-1.0
  3
STANDARD
100
AcDbAlignedDimension
 13
5913.43214722968
 23
3986.946392120487
 33
0.0
 14
6063.432147229679
 24
3986.946392120487
 34
0.0
100
AcDbRotatedDimension
1001
ACAD
1000
DSTYLE
1002
{
1070
   287
1070
     5
1070
   287
1070
     5
1070
    40
1040
20.0
1070
    41
1040
1.5
1070
    42
1040
1.5
1070
    43
1040
7.0
1070
    44
1040
0.5
1070
    73
1070
     0
1070
    74
1070
     0
1070
    77
1070
     1
1070
    78
1070
     8
1070
   140
1040
2.5
1070
   141
1040
0.0
1070
   145
1040
1.0
1070
   147
1040
0.7
1070
   174
1070
     1
1070
   179
1070
     4
1070
   271
1070
     0
1070
   272
1070
     0
1070
   279
1070
     2
1070
   284
1070
     8
1070
   285
1070
     8
1070
   286
1070
     8
1002
}
  0
DIMENSION
  5
5058
330
17
100
AcDbEntity
  8
SUNPOU
100
AcDbDimension
  2
*D60
 10
6963.43214722968
 20
3634.802183325434
 30
0.0
 11
6513.43214722968
 21
3673.802183325434
 31
0.0
 70
    32
 71
     5
 42
-1.0
  3
STANDARD
100
AcDbAlignedDimension
 13
6063.432147229679
 23
3986.946392120487
 33
0.0
 14
6963.43214722968
 24
3986.946392120487
 34
0.0
100
AcDbRotatedDimension
1001
ACAD
1000
DSTYLE
1002
{
1070
   287
1070
     5
1070
   287
1070
     5
1070
    40
1040
20.0
1070
    41
1040
1.5
1070
    42
1040
1.5
1070
    43
1040
7.0
1070
    44
1040
0.5
1070
    73
1070
     0
1070
    74
1070
     0
1070
    77
1070
     1
1070
    78
1070
     8
1070
   140
1040
2.5
1070
   141
1040
0.0
1070
   145
1040
1.0
1070
   147
1040
0.7
1070
   174
1070
     1
1070
   179
1070
     4
1070
   271
1070
     0
1070
   272
1070
     0
1070
   279
1070
     2
1070
   284
1070
     8
1070
   285
1070
     8
1070
   286
1070
     8
1002
}
  0
DIMENSION
  5
5065
330
17
100
AcDbEntity
  8
SUNPOU
100
AcDbDimension
  2
*D61
 10
6963.43214722968
 20
3634.802183325434
 30
0.0
 11
7038.432147229681
 21
3673.802183325434
 31
0.0
 70
    32
 71
     5
 42
-1.0
  3
STANDARD
100
AcDbAlignedDimension
 13
7113.43214722968
 23
3986.946392120487
 33
0.0
 14
6963.43214722968
 24
3986.946392120487
 34
0.0
 50
180.0
100
AcDbRotatedDimension
1001
ACAD
1000
DSTYLE
1002
{
1070
   287
1070
     5
1070
   287
1070
     5
1070
    40
1040
20.0
1070
    41
1040
1.5
1070
    42
1040
1.5
1070
    43
1040
7.0
1070
    44
1040
0.5
1070
    73
1070
     0
1070
    74
1070
     0
1070
    77
1070
     1
1070
    78
1070
     8
1070
   140
1040
2.5
1070
   141
1040
0.0
1070
   145
1040
1.0
1070
   147
1040
0.7
1070
   174
1070
     1
1070
   179
1070
     4
1070
   271
1070
     0
1070
   272
1070
     0
1070
   279
1070
     2
1070
   284
1070
     8
1070
   285
1070
     8
1070
   286
1070
     8
1002
}
  0
CIRCLE
  5
5090
330
17
100
AcDbEntity
  8
SEIHIN
100
AcDbCircle
 10
6513.432143997055
 20
2520.313965287849
 30
0.0
 40
450.0
  0
CIRCLE
  5
5091
330
17
100
AcDbEntity
  8
SEIHIN
100
AcDbCircle
 10
6513.432143997055
 20
2520.313965287849
 30
0.0
 40
600.0
  0
ENDSEC
  0
SECTION
  2
OBJECTS
  0
DICTIONARY
  5
C
330
0
100
AcDbDictionary
281
     1
  3
ACAD_COLOR
350
568F
  3
ACAD_GROUP
350
D
  3
ACAD_LAYOUT
350
6F
  3
ACAD_MATERIAL
350
568E
  3
ACAD_MLINESTYLE
350
1A
  3
ACAD_PLOTSETTINGS
350
70
  3
ACAD_PLOTSTYLENAME
350
6D
  3
ACAD_TABLESTYLE
350
5690
  3
AcadDim
350
4756
  3
ACDBHEADERROUNDTRIPXREC
350
56A2
  3
AcDbVariableDictionary
350
A0
  0
DICTIONARY
  5
9C
330
17
100
AcDbDictionary
280
     1
281
     1
  3
ACAD_LAYOUTSELFREF
360
5470
  0
DICTIONARY
  5
9A
330
14
100
AcDbDictionary
280
     1
281
     1
  3
ACAD_LAYOUTSELFREF
360
546F
  0
DICTIONARY
  5
568F
102
{ACAD_REACTORS
330
C
102
}
330
C
100
AcDbDictionary
281
     1
  0
DICTIONARY
  5
D
102
{ACAD_REACTORS
330
C
102
}
330
C
100
AcDbDictionary
281
     1
  0
DICTIONARY
  5
6F
102
{ACAD_REACTORS
330
C
102
}
330
C
100
AcDbDictionary
281
     1
  3
Model
350
71
  3
ﾚｲｱｳﾄ1
350
72
  0
DICTIONARY
  5
568E
102
{ACAD_REACTORS
330
C
102
}
330
C
100
AcDbDictionary
281
     1
  0
DICTIONARY
  5
1A
102
{ACAD_REACTORS
330
C
102
}
330
C
100
AcDbDictionary
281
     1
  3
STANDARD
350
1B
  0
DICTIONARY
  5
70
102
{ACAD_REACTORS
330
C
102
}
330
C
100
AcDbDictionary
281
     1
  0
ACDBDICTIONARYWDFLT
  5
6D
102
{ACAD_REACTORS
330
C
102
}
330
C
100
AcDbDictionary
281
     1
  3
Normal
350
6E
100
AcDbDictionaryWithDefault
340
6E
  0
DICTIONARY
  5
5690
102
{ACAD_REACTORS
330
C
102
}
330
C
100
AcDbDictionary
281
     1
  3
Standard
350
5691
  0
XRECORD
  5
4756
102
{ACAD_REACTORS
330
C
102
}
330
C
100
AcDbXrecord
280
     1
 90
   990106
  3

 60
     0
 61
     0
 62
     1
 63
     3
 64
     0
 65
     0
 66
     0
 67
     3
 68
     1
 69
     0
 70
     0
 71
     0
 72
     0
 40
0.0
170
     0
  0
DICTIONARY
  5
56A2
102
{ACAD_REACTORS
330
C
102
}
330
C
100
AcDbDictionary
281
     1
  0
DICTIONARY
  5
A0
102
{ACAD_REACTORS
330
C
102
}
330
C
100
AcDbDictionary
281
     1
  3
CTABLESTYLE
350
569B
  3
DIMASSOC
350
A1
  3
PROJECTNAME
350
569C
  0
XRECORD
  5
5470
102
{ACAD_REACTORS
330
9C
102
}
330
9C
100
AcDbXrecord
280
     1
340
17
  0
XRECORD
  5
546F
102
{ACAD_REACTORS
330
9A
102
}
330
9A
100
AcDbXrecord
280
     1
340
14
  0
LAYOUT
  5
71
102
{ACAD_XDICTIONARY
360
56A3
102
}
102
{ACAD_REACTORS
330
6F
102
}
330
6F
100
AcDbPlotSettings
  1

  2
RICOH IPSiO NX850 RPCS
  4
A4
  6

 40
5.873749732971191
 41
5.873747825622558
 42
5.873748779296875
 43
5.873748779296875
 44
209.9733276367187
 45
296.9259948730469
 46
0.0
 47
0.0
 48
0.0
 49
0.0
140
0.0
141
0.0
142
1.0
143
1.0
 70
 11952
 72
     0
 73
     1
 74
     0
  7
acad.ctb
 75
     0
147
1.0
148
-29793.33470533984
149
-1225.621704113712
100
AcDbLayout
  1
Model
 70
     1
 71
     0
 10
0.0
 20
0.0
 11
12.0
 21
9.0
 12
0.0
 22
0.0
 32
0.0
 14
0.0
 24
0.0
 34
0.0
 15
0.0
 25
0.0
 35
0.0
146
0.0
 13
0.0
 23
0.0
 33
0.0
 16
1.0
 26
0.0
 36
0.0
 17
0.0
 27
1.0
 37
0.0
 76
     0
330
17
  0
LAYOUT
  5
72
102
{ACAD_XDICTIONARY
360
56A5
102
}
102
{ACAD_REACTORS
330
6F
102
}
330
6F
100
AcDbPlotSettings
  1

  2
RICOH IPSiO NX850 RPCS
  4

  6

 40
0.0
 41
0.0
 42
0.0
 43
0.0
 44
0.0
 45
0.0
 46
0.0
 47
0.0
 48
0.0
 49
0.0
140
0.0
141
0.0
142
1.0
143
1.0
 70
   688
 72
     0
 73
     0
 74
     5
  7
acad.ctb
 75
    16
147
1.0
148
0.0
149
0.0
100
AcDbLayout
  1
ﾚｲｱｳﾄ1
 70
     0
 71
     1
 10
0.0
 20
0.0
 11
12.0
 21
9.0
 12
0.0
 22
0.0
 32
0.0
 14
1.000000000000000E+20
 24
1.000000000000000E+20
 34
1.000000000000000E+20
 15
-1.000000000000000E+20
 25
-1.000000000000000E+20
 35
-1.000000000000000E+20
146
0.0
 13
0.0
 23
0.0
 33
0.0
 16
1.0
 26
0.0
 36
0.0
 17
0.0
 27
1.0
 37
0.0
 76
     0
330
14
  0
MLINESTYLE
  5
1B
102
{ACAD_REACTORS
330
1A
102
}
330
1A
100
AcDbMlineStyle
  2
STANDARD
 70
     0
  3

 62
   256
 51
90.0
 52
90.0
 71
     2
 49
0.5
 62
   256
  6
BYLAYER
 49
-0.5
 62
   256
  6
BYLAYER
  0
ACDBPLACEHOLDER
  5
6E
102
{ACAD_REACTORS
330
6D
102
}
330
6D
  0
TABLESTYLE
  5
5691
102
{ACAD_REACTORS
330
5690
102
}
330
5690
100
AcDbTableStyle
  3
Standard
 70
     0
 71
     0
 40
0.06
 41
0.06
280
     0
281
     0
  7
STANDARD
140
0.18
170
     2
 62
     0
 63
     7
283
     0
274
    -2
284
     1
 64
     0
275
    -2
285
     1
 65
     0
276
    -2
286
     1
 66
     0
277
    -2
287
     1
 67
     0
278
    -2
288
     1
 68
     0
279
    -2
289
     1
 69
     0
  7
STANDARD
140
0.25
170
     5
 62
     0
 63
     7
283
     0
274
    -2
284
     1
 64
     0
275
    -2
285
     1
 65
     0
276
    -2
286
     1
 66
     0
277
    -2
287
     1
 67
     0
278
    -2
288
     1
 68
     0
279
    -2
289
     1
 69
     0
  7
STANDARD
140
0.18
170
     5
 62
     0
 63
     7
283
     0
274
    -2
284
     1
 64
     0
275
    -2
285
     1
 65
     0
276
    -2
286
     1
 66
     0
277
    -2
287
     1
 67
     0
278
    -2
288
     1
 68
     0
279
    -2
289
     1
 69
     0
  0
DICTIONARYVAR
  5
569B
102
{ACAD_REACTORS
330
A0
102
}
330
A0
100
DictionaryVariables
280
     0
  1
STANDARD
  0
DICTIONARYVAR
  5
A1
102
{ACAD_REACTORS
330
A0
102
}
330
A0
100
DictionaryVariables
280
     0
  1
1
  0
DICTIONARYVAR
  5
569C
102
{ACAD_REACTORS
330
A0
102
}
330
A0
100
DictionaryVariables
280
     0
  1

  0
DICTIONARY
  5
56A3
330
71
100
AcDbDictionary
280
     1
281
     1
  3
ACAD_XREC_ROUNDTRIP
360
56A4
  0
DICTIONARY
  5
56A5
330
72
100
AcDbDictionary
280
     1
281
     1
  3
ACAD_XREC_ROUNDTRIP
360
56A6
  0
XRECORD
  5
56A4
102
{ACAD_REACTORS
330
56A3
102
}
330
56A3
100
AcDbXrecord
280
     1
102
SHADEPLOT
 70
     0
102
SHADEPLOTRESLEVEL
 70
     2
102
SHADEPLOTCUSTOMDPI
 70
   300
  0
XRECORD
  5
56A6
102
{ACAD_REACTORS
330
56A5
102
}
330
56A5
100
AcDbXrecord
280
     1
102
SHADEPLOT
 70
     0
102
SHADEPLOTRESLEVEL
 70
     2
102
SHADEPLOTCUSTOMDPI
 70
   300
  0
ENDSEC
  0
EOF
