  0
SECTION
  2
HEADER
  9
$ACADVER
  1
AC1015
  9
$ACADMAINTVER
 70
    20
  9
$DWGCODEPAGE
  3
ANSI_932
  9
$INSBASE
 10
0.0
 20
0.0
 30
0.0
  9
$EXTMIN
 10
716.1287757555255
 20
297.2211282883939
 30
0.0
  9
$EXTMAX
 10
41059.1193407588
 20
28939.30295771935
 30
3.0
  9
$LIMMIN
 10
0.0
 20
0.0
  9
$LIMMAX
 10
84100.0
 20
59400.0
  9
$ORTHOMODE
 70
     1
  9
$REGENMODE
 70
     1
  9
$FILLMODE
 70
     1
  9
$QTEXTMODE
 70
     0
  9
$MIRRTEXT
 70
     1
  9
$LTSCALE
 40
1000.0
  9
$ATTMODE
 70
     1
  9
$TEXTSIZE
 40
150.0
  9
$TRACEWID
 40
0.05
  9
$TEXTSTYLE
  7
ＭＳ ゴシック
  9
$CLAYER
  8
D-STR-TXT
  9
$CELTYPE
  6
BYLAYER
  9
$CECOLOR
 62
   256
  9
$CELTSCALE
 40
1.0
  9
$DISPSILH
 70
     0
  9
$DIMSCALE
 40
50.0
  9
$DIMASZ
 40
2.0
  9
$DIMEXO
 40
2.0
  9
$DIMDLI
 40
0.38
  9
$DIMRND
 40
0.0
  9
$DIMDLE
 40
0.0
  9
$DIMEXE
 40
0.5
  9
$DIMTP
 40
0.0
  9
$DIMTM
 40
0.0
  9
$DIMTXT
 40
3.5
  9
$DIMCEN
 40
0.09
  9
$DIMTSZ
 40
0.0
  9
$DIMTOL
 70
     0
  9
$DIMLIM
 70
     0
  9
$DIMTIH
 70
     0
  9
$DIMTOH
 70
     0
  9
$DIMSE1
 70
     0
  9
$DIMSE2
 70
     0
  9
$DIMTAD
 70
     1
  9
$DIMZIN
 70
     0
  9
$DIMBLK
  1
Open30
  9
$DIMASO
 70
     1
  9
$DIMSHO
 70
     1
  9
$DIMPOST
  1

  9
$DIMAPOST
  1

  9
$DIMALT
 70
     0
  9
$DIMALTD
 70
     2
  9
$DIMALTF
 40
25.4
  9
$DIMLFAC
 40
1.0
  9
$DIMTOFL
 70
     0
  9
$DIMTVP
 40
0.0
  9
$DIMTIX
 70
     1
  9
$DIMSOXD
 70
     0
  9
$DIMSAH
 70
     0
  9
$DIMBLK1
  1

  9
$DIMBLK2
  1

  9
$DIMSTYLE
  2
S-50
  9
$DIMCLRD
 70
     0
  9
$DIMCLRE
 70
     0
  9
$DIMCLRT
 70
     0
  9
$DIMTFAC
 40
1.0
  9
$DIMGAP
 40
0.8
  9
$DIMJUST
 70
     0
  9
$DIMSD1
 70
     0
  9
$DIMSD2
 70
     0
  9
$DIMTOLJ
 70
     1
  9
$DIMTZIN
 70
     0
  9
$DIMALTZ
 70
     0
  9
$DIMALTTZ
 70
     0
  9
$DIMUPT
 70
     0
  9
$DIMDEC
 70
     0
  9
$DIMTDEC
 70
     0
  9
$DIMALTU
 70
     2
  9
$DIMALTTD
 70
     2
  9
$DIMTXSTY
  7
ＭＳ ゴシック
  9
$DIMAUNIT
 70
     0
  9
$DIMADEC
 70
     4
  9
$DIMALTRND
 40
0.0
  9
$DIMAZIN
 70
     0
  9
$DIMDSEP
 70
    46
  9
$DIMATFIT
 70
     3
  9
$DIMFRAC
 70
     0
  9
$DIMLDRBLK
  1

  9
$DIMLUNIT
 70
     2
  9
$DIMLWD
 70
    -2
  9
$DIMLWE
 70
    -2
  9
$DIMTMOVE
 70
     2
  9
$LUNITS
 70
     2
  9
$LUPREC
 70
     4
  9
$SKETCHINC
 40
0.1
  9
$FILLETRAD
 40
0.0
  9
$AUNITS
 70
     0
  9
$AUPREC
 70
     6
  9
$MENU
  1
acad
  9
$ELEVATION
 40
0.0
  9
$PELEVATION
 40
0.0
  9
$THICKNESS
 40
0.0
  9
$LIMCHECK
 70
     0
  9
$CHAMFERA
 40
0.0
  9
$CHAMFERB
 40
0.0
  9
$CHAMFERC
 40
0.0
  9
$CHAMFERD
 40
0.0
  9
$SKPOLY
 70
     0
  9
$TDCREATE
 40
2450010.607337963
  9
$TDUCREATE
 40
2450010.232337963
  9
$TDUPDATE
 40
2456189.563506216
  9
$TDUUPDATE
 40
2456189.188506216
  9
$TDINDWG
 40
0.4716641204
  9
$TDUSRTIMER
 40
0.4716641204
  9
$USRTIMER
 70
     1
  9
$ANGBASE
 50
0.0
  9
$ANGDIR
 70
     0
  9
$PDMODE
 70
     0
  9
$PDSIZE
 40
100.0
  9
$PLINEWID
 40
0.0
  9
$SPLFRAME
 70
     0
  9
$SPLINETYPE
 70
     6
  9
$SPLINESEGS
 70
     8
  9
$HANDSEED
  5
743C
  9
$SURFTAB1
 70
     6
  9
$SURFTAB2
 70
     6
  9
$SURFTYPE
 70
     6
  9
$SURFU
 70
     6
  9
$SURFV
 70
     6
  9
$UCSBASE
  2

  9
$UCSNAME
  2

  9
$UCSORG
 10
0.0
 20
0.0
 30
0.0
  9
$UCSXDIR
 10
1.0
 20
0.0
 30
0.0
  9
$UCSYDIR
 10
0.0
 20
1.0
 30
0.0
  9
$UCSORTHOREF
  2

  9
$UCSORTHOVIEW
 70
     0
  9
$UCSORGTOP
 10
0.0
 20
0.0
 30
0.0
  9
$UCSORGBOTTOM
 10
0.0
 20
0.0
 30
0.0
  9
$UCSORGLEFT
 10
0.0
 20
0.0
 30
0.0
  9
$UCSORGRIGHT
 10
0.0
 20
0.0
 30
0.0
  9
$UCSORGFRONT
 10
0.0
 20
0.0
 30
0.0
  9
$UCSORGBACK
 10
0.0
 20
0.0
 30
0.0
  9
$PUCSBASE
  2

  9
$PUCSNAME
  2

  9
$PUCSORG
 10
0.0
 20
0.0
 30
0.0
  9
$PUCSXDIR
 10
1.0
 20
0.0
 30
0.0
  9
$PUCSYDIR
 10
0.0
 20
1.0
 30
0.0
  9
$PUCSORTHOREF
  2

  9
$PUCSORTHOVIEW
 70
     0
  9
$PUCSORGTOP
 10
0.0
 20
0.0
 30
0.0
  9
$PUCSORGBOTTOM
 10
0.0
 20
0.0
 30
0.0
  9
$PUCSORGLEFT
 10
0.0
 20
0.0
 30
0.0
  9
$PUCSORGRIGHT
 10
0.0
 20
0.0
 30
0.0
  9
$PUCSORGFRONT
 10
0.0
 20
0.0
 30
0.0
  9
$PUCSORGBACK
 10
0.0
 20
0.0
 30
0.0
  9
$USERI1
 70
     0
  9
$USERI2
 70
     0
  9
$USERI3
 70
     0
  9
$USERI4
 70
     0
  9
$USERI5
 70
     0
  9
$USERR1
 40
0.0
  9
$USERR2
 40
0.0
  9
$USERR3
 40
0.0
  9
$USERR4
 40
0.0
  9
$USERR5
 40
0.0
  9
$WORLDVIEW
 70
     1
  9
$SHADEDGE
 70
     3
  9
$SHADEDIF
 70
    70
  9
$TILEMODE
 70
     1
  9
$MAXACTVP
 70
    48
  9
$PINSBASE
 10
0.0
 20
0.0
 30
0.0
  9
$PLIMCHECK
 70
     0
  9
$PEXTMIN
 10
1.000000000000000E+20
 20
1.000000000000000E+20
 30
1.000000000000000E+20
  9
$PEXTMAX
 10
-1.000000000000000E+20
 20
-1.000000000000000E+20
 30
-1.000000000000000E+20
  9
$PLIMMIN
 10
0.0
 20
0.0
  9
$PLIMMAX
 10
12.0
 20
9.0
  9
$UNITMODE
 70
     0
  9
$VISRETAIN
 70
     0
  9
$PLINEGEN
 70
     0
  9
$PSLTSCALE
 70
     0
  9
$TREEDEPTH
 70
  3020
  9
$CMLSTYLE
  2
STANDARD
  9
$CMLJUST
 70
     0
  9
$CMLSCALE
 40
1.0
  9
$PROXYGRAPHICS
 70
     1
  9
$MEASUREMENT
 70
     0
  9
$CELWEIGHT
370
    -1
  9
$ENDCAPS
280
     0
  9
$JOINSTYLE
280
     0
  9
$LWDISPLAY
290
     0
  9
$INSUNITS
 70
     0
  9
$HYPERLINKBASE
  1

  9
$STYLESHEET
  1
acad.ctb
  9
$XEDIT
290
     1
  9
$CEPSNTYPE
380
     0
  9
$PSTYLEMODE
290
     1
  9
$FINGERPRINTGUID
  2
{D393076B-73A3-11D6-A1CB-0050FC45377D}
  9
$VERSIONGUID
  2
{AA77CC29-9A93-4D44-A671-688763B71A18}
  9
$EXTNAMES
290
     1
  9
$PSVPSCALE
 40
0.0
  9
$OLESTARTUP
290
     0
  0
ENDSEC
  0
SECTION
  2
CLASSES
  0
CLASS
  1
ACDBDICTIONARYWDFLT
  2
AcDbDictionaryWithDefault
  3
ObjectDBX Classes
 90
        0
280
     0
281
     0
  0
CLASS
  1
ACDBPLACEHOLDER
  2
AcDbPlaceHolder
  3
ObjectDBX Classes
 90
        0
280
     0
281
     0
  0
CLASS
  1
LAYOUT
  2
AcDbLayout
  3
ObjectDBX Classes
 90
        0
280
     0
281
     0
  0
CLASS
  1
DICTIONARYVAR
  2
AcDbDictionaryVar
  3
ObjectDBX Classes
 90
        0
280
     0
281
     0
  0
CLASS
  1
SORTENTSTABLE
  2
AcDbSortentsTable
  3
ObjectDBX Classes
 90
        0
280
     0
281
     0
  0
CLASS
  1
TABLESTYLE
  2
AcDbTableStyle
  3
ObjectDBX Classes
 90
     2047
280
     0
281
     0
  0
ENDSEC
  0
SECTION
  2
TABLES
  0
TABLE
  2
VPORT
  5
8
330
0
100
AcDbSymbolTable
 70
     2
  0
VPORT
  5
7435
330
8
100
AcDbSymbolTableRecord
100
AcDbViewportTableRecord
  2
*Active
 70
     0
 10
0.0
 20
0.0
 11
1.0
 21
1.0
 12
14816.19784986701
 22
15510.67310602591
 13
0.0
 23
0.0
 14
1.0
 24
1.0
 15
1000.0
 25
1000.0
 16
0.0
 26
0.0
 36
1.0
 17
0.0
 27
0.0
 37
0.0
 40
15445.29917321689
 41
1.507024265644955
 42
50.0
 43
0.0
 44
0.0
 50
0.0
 51
0.0
 71
     0
 72
   100
 73
     1
 74
     1
 75
     0
 76
     0
 77
     0
 78
     0
281
     0
 65
     1
110
0.0
120
0.0
130
0.0
111
1.0
121
0.0
131
0.0
112
0.0
122
1.0
132
0.0
 79
     0
146
0.0
  0
ENDTAB
  0
TABLE
  2
LTYPE
  5
5
330
0
100
AcDbSymbolTable
 70
     9
  0
LTYPE
  5
11
330
5
100
AcDbSymbolTableRecord
100
AcDbLinetypeTableRecord
  2
BYBLOCK
 70
     0
  3

 72
    65
 73
     0
 40
0.0
  0
LTYPE
  5
12
330
5
100
AcDbSymbolTableRecord
100
AcDbLinetypeTableRecord
  2
BYLAYER
 70
     0
  3

 72
    65
 73
     0
 40
0.0
  0
LTYPE
  5
13
330
5
100
AcDbSymbolTableRecord
100
AcDbLinetypeTableRecord
  2
CONTINUOUS
 70
     0
  3
実線
 72
    65
 73
     0
 40
0.0
  0
LTYPE
  5
1E
330
5
100
AcDbSymbolTableRecord
100
AcDbLinetypeTableRecord
  2
HIDDEN
 70
     0
  3
_ _ _ _ _ _ _ _ _ _ _ _ _ _ _ _ _ _ _ _ _ _ _
 72
    65
 73
     2
 40
0.375
 49
0.25
 74
     0
 49
-0.125
 74
     0
  0
LTYPE
  5
1F
330
5
100
AcDbSymbolTableRecord
100
AcDbLinetypeTableRecord
  2
CENTER
 70
     0
  3
____ _ ____ _ ____ _ ____ _ ____ _ ____ _ ____
 72
    65
 73
     4
 40
2.0
 49
1.25
 74
     0
 49
-0.25
 74
     0
 49
0.25
 74
     0
 49
-0.25
 74
     0
  0
LTYPE
  5
20
330
5
100
AcDbSymbolTableRecord
100
AcDbLinetypeTableRecord
  2
PHANTOM
 70
     0
  3
_____ _ _ _____ _ _ _____ _ _ _____ _ _ ____
 72
    65
 73
     6
 40
2.5
 49
1.25
 74
     0
 49
-0.25
 74
     0
 49
0.25
 74
     0
 49
-0.25
 74
     0
 49
0.25
 74
     0
 49
-0.25
 74
     0
  0
LTYPE
  5
B5C
330
5
100
AcDbSymbolTableRecord
100
AcDbLinetypeTableRecord
  2
HASEN1
 70
     0
  3
破線
 72
    65
 73
     2
 40
2.0
 49
1.0
 74
     0
 49
-1.0
 74
     0
  0
LTYPE
  5
B5D
330
5
100
AcDbSymbolTableRecord
100
AcDbLinetypeTableRecord
  2
TENSEN1
 70
     0
  3
点線
 72
    65
 73
     2
 40
1.0
 49
0.5
 74
     0
 49
-0.5
 74
     0
  0
LTYPE
  5
B5E
330
5
100
AcDbSymbolTableRecord
100
AcDbLinetypeTableRecord
  2
TEN1SEN1
 70
     0
  3
一点鎖線
 72
    65
 73
     4
 40
18.0
 49
15.0
 74
     0
 49
-1.0
 74
     0
 49
1.0
 74
     0
 49
-1.0
 74
     0
  0
LTYPE
  5
3A3D
330
5
100
AcDbSymbolTableRecord
100
AcDbLinetypeTableRecord
  2
ACAD_ISO07W100
 70
     0
  3
ISO dot . . . . . . . . . . . . . . . . . . . .
 72
    65
 73
     2
 40
3.0
 49
0.0
 74
     0
 49
-3.0
 74
     0
  0
LTYPE
  5
3A3E
330
5
100
AcDbSymbolTableRecord
100
AcDbLinetypeTableRecord
  2
DOT2
 70
     0
  3
Dot (.5x) .....................................
 72
    65
 73
     2
 40
0.125
 49
0.0
 74
     0
 49
-0.125
 74
     0
  0
ENDTAB
  0
TABLE
  2
LAYER
  5
2
102
{ACAD_XDICTIONARY
360
3B1C
102
}
330
0
100
AcDbSymbolTable
 70
    21
  0
LAYER
  5
E
330
2
100
AcDbSymbolTableRecord
100
AcDbLayerTableRecord
  2
0
 70
     0
 62
     7
  6
CONTINUOUS
370
    -3
390
3A32
  0
LAYER
  5
23
330
2
100
AcDbSymbolTableRecord
100
AcDbLayerTableRecord
  2
D-TTL
 70
     0
 62
     2
  6
CONTINUOUS
370
    50
390
3A32
1001
AcAecLayerStandard
1000

1000
外枠
  0
LAYER
  5
25
330
2
100
AcDbSymbolTableRecord
100
AcDbLayerTableRecord
  2
D-STR
 70
     0
 62
     1
  6
CONTINUOUS
370
    25
390
3A32
1001
AcAecLayerStandard
1000

1000
構造物外形線
  0
LAYER
  5
A9
330
2
100
AcDbSymbolTableRecord
100
AcDbLayerTableRecord
  2
DEFPOINTS
 70
     0
 62
     7
  6
CONTINUOUS
290
     0
370
    -3
390
3A32
  0
LAYER
  5
67C7
330
2
100
AcDbSymbolTableRecord
100
AcDbLayerTableRecord
  2
D-TTL-TXT
 70
     0
 62
     7
  6
CONTINUOUS
370
    13
390
3A32
1001
AcAecLayerStandard
1000

1000
枠タイトル
  0
LAYER
  5
67C9
330
2
100
AcDbSymbolTableRecord
100
AcDbLayerTableRecord
  2
D-BGD
 70
     0
 62
     7
  6
CONTINUOUS
370
    13
390
3A32
1001
AcAecLayerStandard
1000

1000
既設構造物等(基礎材)
  0
LAYER
  5
67CA
330
2
100
AcDbSymbolTableRecord
100
AcDbLayerTableRecord
  2
D-BGD-DIM
 70
     0
 62
     7
  6
CONTINUOUS
370
    13
390
3A32
1001
AcAecLayerStandard
1000

1000
既-寸法線
  0
LAYER
  5
67CB
330
2
100
AcDbSymbolTableRecord
100
AcDbLayerTableRecord
  2
D-BGD-TXT
 70
     0
 62
     7
  6
CONTINUOUS
370
    13
390
3A32
1001
AcAecLayerStandard
1000

1000
既-文字
  0
LAYER
  5
67CC
330
2
100
AcDbSymbolTableRecord
100
AcDbLayerTableRecord
  2
D-BGD-HTXT
 70
     0
 62
     7
  6
CONTINUOUS
370
    13
390
3A32
1001
AcAecLayerStandard
1000

1000
既-旗上げ
  0
LAYER
  5
69E8
330
2
100
AcDbSymbolTableRecord
100
AcDbLayerTableRecord
  2
D-BMK
 70
     0
 62
     2
  6
CENTER
370
    13
390
3A32
1001
AcAecLayerStandard
1000

1000
構造物中心線
  0
LAYER
  5
69E9
330
2
100
AcDbSymbolTableRecord
100
AcDbLayerTableRecord
  2
D-BMK-HTXT
 70
     0
 62
     7
  6
CONTINUOUS
370
    13
390
3A32
1001
AcAecLayerStandard
1000

1000
旗上げ
  0
LAYER
  5
69EA
330
2
100
AcDbSymbolTableRecord
100
AcDbLayerTableRecord
  2
D-STR-DIM
 70
     0
 62
     7
  6
CONTINUOUS
370
    13
390
3A32
1001
AcAecLayerStandard
1000

1000
構-寸法線
  0
LAYER
  5
69EB
330
2
100
AcDbSymbolTableRecord
100
AcDbLayerTableRecord
  2
D-STR-TXT
 70
     0
 62
     7
  6
CONTINUOUS
370
    13
390
3A32
1001
AcAecLayerStandard
1000

1000
構-文字
  0
LAYER
  5
69EC
330
2
100
AcDbSymbolTableRecord
100
AcDbLayerTableRecord
  2
D-STR-HTXT
 70
     0
 62
     7
  6
CONTINUOUS
370
    13
390
3A32
1001
AcAecLayerStandard
1000

1000
構-旗上げ
  0
LAYER
  5
69ED
330
2
100
AcDbSymbolTableRecord
100
AcDbLayerTableRecord
  2
D-MTR
 70
     0
 62
     7
  6
CONTINUOUS
370
    13
390
3A32
1001
AcAecLayerStandard
1000

1000
材料表
  0
LAYER
  5
69EE
330
2
100
AcDbSymbolTableRecord
100
AcDbLayerTableRecord
  2
D-MTR-TXT
 70
     0
 62
     7
  6
CONTINUOUS
370
    13
390
3A32
1001
AcAecLayerStandard
1000

1000
材-文字
  0
LAYER
  5
6D1D
330
2
100
AcDbSymbolTableRecord
100
AcDbLayerTableRecord
  2
D-STR-STR1
 70
     0
 62
     4
  6
CONTINUOUS
370
    13
390
3A32
1001
AcAecLayerStandard
1000

1000

  0
LAYER
  5
6D1E
330
2
100
AcDbSymbolTableRecord
100
AcDbLayerTableRecord
  2
D-STR-STR2
 70
     0
 62
     6
  6
CONTINUOUS
370
    13
390
3A32
1001
AcAecLayerStandard
1000

1000

  0
LAYER
  5
6FB8
330
2
100
AcDbSymbolTableRecord
100
AcDbLayerTableRecord
  2
SUNPOU
 70
     0
 62
     1
  6
CONTINUOUS
370
    -3
390
3A32
  0
LAYER
  5
6FB9
330
2
100
AcDbSymbolTableRecord
100
AcDbLayerTableRecord
  2
SEIHIN
 70
     0
 62
     3
  6
CONTINUOUS
370
    -3
390
3A32
  0
LAYER
  5
6FEE
330
2
100
AcDbSymbolTableRecord
100
AcDbLayerTableRecord
  2
HASEN
 70
     0
 62
     4
  6
HIDDEN
370
    -3
390
3A32
  0
ENDTAB
  0
TABLE
  2
STYLE
  5
3
330
0
100
AcDbSymbolTable
 70
     4
  0
STYLE
  5
F
330
3
100
AcDbSymbolTableRecord
100
AcDbTextStyleTableRecord
  2
STANDARD
 70
     0
 40
0.0
 41
0.8
 50
0.0
 71
     0
 42
800.0
  3
TXT.shx
  4
BIGFONT.shx
  0
STYLE
  5
3A3C
330
3
100
AcDbSymbolTableRecord
100
AcDbTextStyleTableRecord
  2

 70
     1
 40
0.0
 41
1.0
 50
0.0
 71
     0
 42
300.0
  3
ltypeshp.shx
  4

  0
STYLE
  5
3B35
330
3
100
AcDbSymbolTableRecord
100
AcDbTextStyleTableRecord
  2
STANDARD-FC
 70
     0
 40
0.0
 41
1.0
 50
0.0
 71
     0
 42
0.0
  3
txt
  4
bigfont
  0
STYLE
  5
3B36
330
3
100
AcDbSymbolTableRecord
100
AcDbTextStyleTableRecord
  2
ＭＳ ゴシック
 70
     0
 40
0.0
 41
1.0
 50
0.0
 71
     0
 42
150.0
  3
MS Gothic.ttf
  4

1001
ACAD
1000
MS Gothic
1071
    32817
  0
ENDTAB
  0
TABLE
  2
VIEW
  5
6
330
0
100
AcDbSymbolTable
 70
     0
  0
ENDTAB
  0
TABLE
  2
UCS
  5
7
330
0
100
AcDbSymbolTable
 70
     0
  0
ENDTAB
  0
TABLE
  2
APPID
  5
9
330
0
100
AcDbSymbolTable
 70
    11
  0
APPID
  5
10
330
9
100
AcDbSymbolTableRecord
100
AcDbRegAppTableRecord
  2
ACAD
 70
     0
  0
APPID
  5
5FF5
330
9
100
AcDbSymbolTableRecord
100
AcDbRegAppTableRecord
  2
ACAD_DSTYLE_DIMTEXT_FILL
 70
     0
  0
APPID
  5
5FF6
330
9
100
AcDbSymbolTableRecord
100
AcDbRegAppTableRecord
  2
ACAD_DSTYLE_DIMEXT_LENGTH
 70
     0
  0
APPID
  5
5FF7
330
9
100
AcDbSymbolTableRecord
100
AcDbRegAppTableRecord
  2
ACAD_DSTYLE_DIMEXT_ENABLED
 70
     0
  0
APPID
  5
5FF8
330
9
100
AcDbSymbolTableRecord
100
AcDbRegAppTableRecord
  2
ACAD_DSTYLE_DIM_LINETYPE
 70
     0
  0
APPID
  5
5FF9
330
9
100
AcDbSymbolTableRecord
100
AcDbRegAppTableRecord
  2
ACAD_DSTYLE_DIM_EXT1_LINETYPE
 70
     0
  0
APPID
  5
5FFA
330
9
100
AcDbSymbolTableRecord
100
AcDbRegAppTableRecord
  2
ACAD_DSTYLE_DIM_EXT2_LINETYPE
 70
     0
  0
APPID
  5
6146
330
9
100
AcDbSymbolTableRecord
100
AcDbRegAppTableRecord
  2
ACAD_DSTYLE_DIMJOGGED_JOGANGLE_SYMBOL
 70
     0
  0
APPID
  5
6727
330
9
100
AcDbSymbolTableRecord
100
AcDbRegAppTableRecord
  2
ACAD_DSTYLE_DIMARC_LENGTH_SYMBOL
 70
     0
  0
APPID
  5
67C8
330
9
100
AcDbSymbolTableRecord
100
AcDbRegAppTableRecord
  2
AcAecLayerStandard
 70
     0
  0
APPID
  5
7028
330
9
100
AcDbSymbolTableRecord
100
AcDbRegAppTableRecord
  2
ACAD_EXEMPT_FROM_CAD_STANDARDS
 70
     0
  0
ENDTAB
  0
TABLE
  2
DIMSTYLE
  5
A
330
0
100
AcDbSymbolTable
 70
     4
100
AcDbDimStyleTable
 71
     3
340
6CA7
340
672C
340
75
  0
DIMSTYLE
105
75
330
A
100
AcDbSymbolTableRecord
100
AcDbDimStyleTableRecord
  2
STANDARD
 70
     0
340
F
  0
DIMSTYLE
105
672C
330
A
100
AcDbSymbolTableRecord
100
AcDbDimStyleTableRecord
  2
S-100
 70
     0
 40
100.0
 41
2.0
 42
2.0
 44
0.5
 73
     0
 74
     0
 77
     1
140
3.5
147
0.8
174
     1
179
     4
271
     0
272
     0
279
     2
340
3B36
342
62FD
1001
ACAD_DSTYLE_DIMEXT_LENGTH
1070
   378
1040
0.18
1001
ACAD_DSTYLE_DIMEXT_ENABLED
1070
   383
1070
     0
1001
ACAD_DSTYLE_DIMARC_LENGTH_SYMBOL
1070
   379
1070
     0
1001
ACAD_DSTYLE_DIMJOGGED_JOGANGLE_SYMBOL
1070
   384
1040
0.7853981633974483
  0
DIMSTYLE
105
6CA7
102
{ACAD_REACTORS
330
7333
330
7341
330
734E
330
735B
330
7368
330
7376
330
738E
330
739B
330
73B3
330
73CB
330
73E6
330
73F4
330
7402
330
7410
102
}
330
A
100
AcDbSymbolTableRecord
100
AcDbDimStyleTableRecord
  2
S-50
 70
     0
 40
50.0
 41
2.0
 42
2.0
 44
0.5
 73
     0
 74
     0
 77
     1
140
3.5
147
0.8
174
     1
179
     4
271
     0
272
     0
279
     2
340
3B36
342
62FD
1001
ACAD_DSTYLE_DIMEXT_LENGTH
1070
   378
1040
0.18
1001
ACAD_DSTYLE_DIMEXT_ENABLED
1070
   383
1070
     0
1001
ACAD_DSTYLE_DIMARC_LENGTH_SYMBOL
1070
   379
1070
     0
1001
ACAD_DSTYLE_DIMJOGGED_JOGANGLE_SYMBOL
1070
   384
1040
0.7853981633974483
  0
DIMSTYLE
105
72FE
330
A
100
AcDbSymbolTableRecord
100
AcDbDimStyleTableRecord
  2
S-40
 70
     0
 40
40.0
 41
2.0
 42
2.0
 44
0.5
 73
     0
 74
     0
 77
     1
140
3.5
147
0.8
174
     1
179
     4
271
     0
272
     0
279
     2
340
3B36
342
62FD
1001
ACAD_DSTYLE_DIMEXT_LENGTH
1070
   378
1040
0.18
1001
ACAD_DSTYLE_DIMEXT_ENABLED
1070
   383
1070
     0
1001
ACAD_DSTYLE_DIMARC_LENGTH_SYMBOL
1070
   379
1070
     0
1001
ACAD_DSTYLE_DIMJOGGED_JOGANGLE_SYMBOL
1070
   384
1040
0.7853981633974483
  0
ENDTAB
  0
TABLE
  2
BLOCK_RECORD
  5
1
330
0
100
AcDbSymbolTable
 70
    40
  0
BLOCK_RECORD
  5
17
102
{ACAD_XDICTIONARY
360
3A7C
102
}
330
1
100
AcDbSymbolTableRecord
100
AcDbBlockTableRecord
  2
*MODEL_SPACE
340
3A35
  0
BLOCK_RECORD
  5
14
102
{ACAD_XDICTIONARY
360
3A7A
102
}
330
1
100
AcDbSymbolTableRecord
100
AcDbBlockTableRecord
  2
*PAPER_SPACE
340
3A36
  0
BLOCK_RECORD
  5
6297
330
1
100
AcDbSymbolTableRecord
100
AcDbBlockTableRecord
  2
_Open
340
0
  0
BLOCK_RECORD
  5
62FD
330
1
100
AcDbSymbolTableRecord
100
AcDbBlockTableRecord
  2
_Open30
340
0
102
{BLKREFS
331
71FF
331
7200
331
720F
331
7210
331
7234
331
7235
331
725A
331
725B
331
7346
331
7347
331
7353
331
7354
331
7360
331
7361
331
736E
331
736F
331
7389
331
738A
331
7393
331
7394
331
73AE
331
73AF
331
73C6
331
73C7
331
73D0
331
73D1
331
73DE
331
73DF
331
73EC
331
73ED
331
73FA
331
73FB
331
7408
331
7409
331
7415
331
7416
331
7421
331
7422
102
}
  0
BLOCK_RECORD
  5
7323
330
1
100
AcDbSymbolTableRecord
100
AcDbBlockTableRecord
  2
蓋・受け枠
340
0
310
2800000020000000200000000100080000000000000400000000000000000000000000000000000000000000000080000080000000808000800000008000800080800000C0C0C000C0DCC000F0CAA6000020400000206000002080000020A0000020C0000020E00000400000004020000040400000406000004080000040A0
310
000040C0000040E00000600000006020000060400000606000006080000060A0000060C0000060E00000800000008020000080400000806000008080000080A0000080C0000080E00000A0000000A0200000A0400000A0600000A0800000A0A00000A0C00000A0E00000C0000000C0200000C0400000C0600000C0800000C0
310
A00000C0C00000C0E00000E0000000E0200000E0400000E0600000E0800000E0A00000E0C00000E0E00040000000400020004000400040006000400080004000A0004000C0004000E00040200000402020004020400040206000402080004020A0004020C0004020E000404000004040200040404000404060004040800040
310
40A0004040C0004040E00040600000406020004060400040606000406080004060A0004060C0004060E00040800000408020004080400040806000408080004080A0004080C0004080E00040A0000040A0200040A0400040A0600040A0800040A0A00040A0C00040A0E00040C0000040C0200040C0400040C0600040C08000
310
40C0A00040C0C00040C0E00040E0000040E0200040E0400040E0600040E0800040E0A00040E0C00040E0E00080000000800020008000400080006000800080008000A0008000C0008000E00080200000802020008020400080206000802080008020A0008020C0008020E00080400000804020008040400080406000804080
310
008040A0008040C0008040E00080600000806020008060400080606000806080008060A0008060C0008060E00080800000808020008080400080806000808080008080A0008080C0008080E00080A0000080A0200080A0400080A0600080A0800080A0A00080A0C00080A0E00080C0000080C0200080C0400080C0600080C0
310
800080C0A00080C0C00080C0E00080E0000080E0200080E0400080E0600080E0800080E0A00080E0C00080E0E000C0000000C0002000C0004000C0006000C0008000C000A000C000C000C000E000C0200000C0202000C0204000C0206000C0208000C020A000C020C000C020E000C0400000C0402000C0404000C0406000C0
310
408000C040A000C040C000C040E000C0600000C0602000C0604000C0606000C0608000C060A000C060C000C060E000C0800000C0802000C0804000C0806000C0808000C080A000C080C000C080E000C0A00000C0A02000C0A04000C0A06000C0A08000C0A0A000C0A0C000C0A0E000C0C00000C0C02000C0C04000C0C06000
310
C0C08000C0C0A000F0FBFF00A4A0A000808080000000FF0000FF000000FFFF00FF000000FF00FF00FFFF0000FFFFFF0000000000000000000000000000000000000000000000000000000000000000000000000000000000000000000000000000000000000000000000000000000000000000000000000000000000000000
310
00000000000000000000000000000000000000000000000000000000000000000000000000000000000000000000000000000000000000000000000000000000000000000000000000000000000000000000000000000000000000000000000000000000000000000000000000000000000000000000000000000000000000
310
00000000000000000000000000000000000000000000000000000000000000000000000000000000000000000000000000000000000000000000000000000000000000000000000000000000000000000000000000000000000000000000000000000000000000000000000000000000000000000000000000000000000000
310
0000000000000000000000000000000000000000000000000000000000000000000000000000000000000000000000000000000000000000000000000000000000000000000000000000000000000000000000000000000000000000000000000000000000000000000000000000000000000000F9F9F9F9F9F9F9F9F9F9F9
310
F9F9F9F9F9F9F9F9F9F9F9F9F9F9F9F9F9F9F9000000F9F900F90000000000F9F9F9F9F9F9F9F9F9F90000000000F900F9F9000000000000F9F900F9F9F9F900F9000000000000F900F9F9F9F900F9F9000000000000000000F9F9F9F9F9F9F9F9F9F9F9F9F9F9F9F9F9F9F9F9F9F900000000000000000000000000000000
310
00000000000000000000000000000000000000000000000000000000000000000000000000000000000000000000000000000000000000000000000000000000000000000000000000000000000000000000000000000000000000000000000000000000000000000000000000000000000000000000000000000000000000
310
00000000000000000000000000000000000000000000000000000000000000000000000000000000000000000000000000000000000000000000000000000000000000000000000000000000000000000000000000000000000000000000000000000000000000000000000000000000000000000000000000000000000000
310
00000000000000000000000000000000000000000000000000000000000000000000000000000000000000000000000000000000000000000000000000000000000000000000000000000000000000000000000000000000000000000000000000000000000000000000000000000000000000000000000000000000000000
310
0000000000000000000000000000000000000000000000000000000000000000000000000000000000000000000000000000000000000000
102
{BLKREFS
331
7332
102
}
  0
BLOCK_RECORD
  5
7334
330
1
100
AcDbSymbolTableRecord
100
AcDbBlockTableRecord
  2
*D25
340
0
  0
BLOCK_RECORD
  5
7342
330
1
100
AcDbSymbolTableRecord
100
AcDbBlockTableRecord
  2
*D26
340
0
  0
BLOCK_RECORD
  5
734F
330
1
100
AcDbSymbolTableRecord
100
AcDbBlockTableRecord
  2
*D27
340
0
  0
BLOCK_RECORD
  5
735C
330
1
100
AcDbSymbolTableRecord
100
AcDbBlockTableRecord
  2
*D28
340
0
  0
BLOCK_RECORD
  5
7369
330
1
100
AcDbSymbolTableRecord
100
AcDbBlockTableRecord
  2
*D29
340
0
  0
BLOCK_RECORD
  5
7377
330
1
100
AcDbSymbolTableRecord
100
AcDbBlockTableRecord
  2
*D30
340
0
  0
BLOCK_RECORD
  5
738F
330
1
100
AcDbSymbolTableRecord
100
AcDbBlockTableRecord
  2
*D31
340
0
  0
BLOCK_RECORD
  5
739C
330
1
100
AcDbSymbolTableRecord
100
AcDbBlockTableRecord
  2
*D32
340
0
  0
BLOCK_RECORD
  5
73B4
330
1
100
AcDbSymbolTableRecord
100
AcDbBlockTableRecord
  2
*D33
340
0
  0
BLOCK_RECORD
  5
73CC
330
1
100
AcDbSymbolTableRecord
100
AcDbBlockTableRecord
  2
*D34
340
0
  0
BLOCK_RECORD
  5
73E7
330
1
100
AcDbSymbolTableRecord
100
AcDbBlockTableRecord
  2
*D36
340
0
  0
BLOCK_RECORD
  5
73F5
330
1
100
AcDbSymbolTableRecord
100
AcDbBlockTableRecord
  2
*D37
340
0
  0
BLOCK_RECORD
  5
7403
330
1
100
AcDbSymbolTableRecord
100
AcDbBlockTableRecord
  2
*D38
340
0
  0
BLOCK_RECORD
  5
7411
330
1
100
AcDbSymbolTableRecord
100
AcDbBlockTableRecord
  2
*D39
340
0
  0
ENDTAB
  0
ENDSEC
  0
SECTION
  2
BLOCKS
  0
BLOCK
  5
2D
330
17
100
AcDbEntity
  8
0
100
AcDbBlockBegin
  2
*MODEL_SPACE
 70
     0
 10
0.0
 20
0.0
 30
0.0
  3
*MODEL_SPACE
  1

  0
ENDBLK
  5
2E
330
17
100
AcDbEntity
  8
0
100
AcDbBlockEnd
  0
BLOCK
  5
2B
330
14
100
AcDbEntity
 67
     1
  8
0
100
AcDbBlockBegin
  2
*PAPER_SPACE
 70
     0
 10
0.0
 20
0.0
 30
0.0
  3
*PAPER_SPACE
  1

  0
ENDBLK
  5
2C
330
14
100
AcDbEntity
 67
     1
  8
0
100
AcDbBlockEnd
  0
BLOCK
  5
629B
330
6297
100
AcDbEntity
  8
0
100
AcDbBlockBegin
  2
_Open
 70
     0
 10
0.0
 20
0.0
 30
0.0
  3
_Open
  1

  0
LINE
  5
6298
330
6297
100
AcDbEntity
  8
0
  6
ByBlock
 62
     0
370
    -2
100
AcDbLine
 10
-1.0
 20
0.1666666666666666
 30
0.0
 11
0.0
 21
0.0
 31
0.0
  0
LINE
  5
6299
330
6297
100
AcDbEntity
  8
0
  6
ByBlock
 62
     0
370
    -2
100
AcDbLine
 10
-1.0
 20
-0.1666666666666666
 30
0.0
 11
0.0
 21
0.0
 31
0.0
  0
LINE
  5
629A
330
6297
100
AcDbEntity
  8
0
  6
ByBlock
 62
     0
370
    -2
100
AcDbLine
 10
0.0
 20
0.0
 30
0.0
 11
-1.0
 21
0.0
 31
0.0
  0
ENDBLK
  5
629C
330
6297
100
AcDbEntity
  8
0
100
AcDbBlockEnd
  0
BLOCK
  5
6301
330
62FD
100
AcDbEntity
  8
0
100
AcDbBlockBegin
  2
_Open30
 70
     0
 10
0.0
 20
0.0
 30
0.0
  3
_Open30
  1

  0
LINE
  5
62FE
330
62FD
100
AcDbEntity
  8
0
  6
ByBlock
 62
     0
370
    -2
100
AcDbLine
 10
-1.0
 20
0.26794919
 30
0.0
 11
0.0
 21
0.0
 31
0.0
  0
LINE
  5
62FF
330
62FD
100
AcDbEntity
  8
0
  6
ByBlock
 62
     0
370
    -2
100
AcDbLine
 10
0.0
 20
0.0
 30
0.0
 11
-1.0
 21
-0.26794919
 31
0.0
  0
LINE
  5
6300
330
62FD
100
AcDbEntity
  8
0
  6
ByBlock
 62
     0
370
    -2
100
AcDbLine
 10
0.0
 20
0.0
 30
0.0
 11
-1.0
 21
0.0
 31
0.0
  0
ENDBLK
  5
6302
330
62FD
100
AcDbEntity
  8
0
100
AcDbBlockEnd
  0
BLOCK
  5
7324
330
7323
100
AcDbEntity
  8
0
100
AcDbBlockBegin
  2
蓋・受け枠
 70
     0
 10
0.0
 20
0.0
 30
0.0
  3
蓋・受け枠
  1

  0
LINE
  5
7326
330
7323
100
AcDbEntity
  8
D-STR
100
AcDbLine
 39
3.0
 10
-710.0
 20
110.0
 30
0.0
 11
-110.0
 21
110.0
 31
0.0
  0
LINE
  5
7327
330
7323
100
AcDbEntity
  8
D-STR
100
AcDbLine
 39
2.0
 10
-710.0
 20
89.98910071098363
 30
0.0
 11
-510.013624111285
 21
49.99182553323044
 31
0.0
  0
LINE
  5
7328
330
7323
100
AcDbEntity
  8
D-STR
100
AcDbLine
 39
2.0
 10
-110.0
 20
89.98910071098363
 30
0.0
 11
-309.986375888715
 21
49.99182553323044
 31
0.0
  0
LINE
  5
7329
330
7323
100
AcDbEntity
  8
D-STR
100
AcDbLine
 39
2.0
 10
-510.013624111285
 20
49.99182553323044
 30
0.0
 11
-309.986375888715
 21
49.99182553323044
 31
0.0
  0
LINE
  5
732A
330
7323
100
AcDbEntity
  8
D-STR
100
AcDbLine
 39
1.0
 10
-309.986375888715
 20
110.0
 30
0.0
 11
-309.986375888715
 21
49.99182553323044
 31
0.0
  0
LINE
  5
732B
330
7323
100
AcDbEntity
  8
D-STR
100
AcDbLine
 39
1.0
 10
-510.013624111285
 20
110.0
 30
0.0
 11
-510.013624111285
 21
49.99182553323044
 31
0.0
  0
LINE
  5
732C
330
7323
100
AcDbEntity
  8
D-STR
100
AcDbLine
 10
-820.0
 20
0.0
 30
0.0
 11
0.0
 21
0.0
 31
0.0
  0
LINE
  5
732D
330
7323
100
AcDbEntity
  8
D-STR
100
AcDbLine
 10
-110.0
 20
0.0
 30
0.0
 11
-110.0
 21
110.0
 31
0.0
  0
LINE
  5
732E
330
7323
100
AcDbEntity
  8
D-STR
100
AcDbLine
 10
-710.0
 20
0.0
 30
0.0
 11
-710.0
 21
110.0
 31
0.0
  0
LINE
  5
732F
330
7323
100
AcDbEntity
  8
D-STR
100
AcDbLine
 10
-110.0
 20
110.0
 30
0.0
 11
0.0
 21
0.0
 31
0.0
  0
LINE
  5
7330
330
7323
100
AcDbEntity
  8
D-STR
100
AcDbLine
 10
-710.0
 20
110.0
 30
0.0
 11
-820.0
 21
0.0
 31
0.0
  0
ENDBLK
  5
7325
330
7323
100
AcDbEntity
  8
0
100
AcDbBlockEnd
  0
BLOCK
  5
733F
330
7334
100
AcDbEntity
  8
0
100
AcDbBlockBegin
  2
*D25
 70
     1
 10
0.0
 20
0.0
 30
0.0
  3
*D25
  1

  0
LINE
  5
741D
330
7334
100
AcDbEntity
  8
D-STR-TXT
 62
     0
370
    -2
100
AcDbLine
 10
14062.66807093462
 20
13340.7910284838
 30
0.0
 11
15573.60825286252
 21
13340.7910284838
 31
0.0
  0
LINE
  5
741E
330
7334
100
AcDbEntity
  8
D-STR-TXT
 62
     0
370
    -2
100
AcDbLine
 10
14022.66807093462
 20
13470.7910284838
 30
0.0
 11
15573.60825286252
 21
13470.7910284838
 31
0.0
  0
LINE
  5
741F
330
7334
100
AcDbEntity
  8
D-STR-TXT
 62
     0
370
    -2
100
AcDbLine
 10
15548.60825286252
 20
13240.7910284838
 30
0.0
 11
15548.60825286252
 21
13140.7910284838
 31
0.0
  0
LINE
  5
7420
330
7334
100
AcDbEntity
  8
D-STR-TXT
 62
     0
370
    -2
100
AcDbLine
 10
15548.60825286252
 20
13570.7910284838
 30
0.0
 11
15548.60825286252
 21
13670.7910284838
 31
0.0
  0
INSERT
  5
7421
330
7334
100
AcDbEntity
  8
D-STR-TXT
 62
     0
370
    -2
100
AcDbBlockReference
  2
_Open30
 10
15548.60825286252
 20
13340.7910284838
 30
0.0
 41
100.0
 42
100.0
 43
100.0
 50
90.0
  0
INSERT
  5
7422
330
7334
100
AcDbEntity
  8
D-STR-TXT
 62
     0
370
    -2
100
AcDbBlockReference
  2
_Open30
 10
15548.60825286252
 20
13470.7910284838
 30
0.0
 41
100.0
 42
100.0
 43
100.0
 50
270.0
  0
MTEXT
  5
7423
330
7334
100
AcDbEntity
  8
D-STR-TXT
 62
     0
100
AcDbMText
 10
15421.10825286251
 20
13405.7910284838
 30
0.0
 40
175.0
 41
0.0
 71
     5
 72
     1
  1
\A1;130
  7
ＭＳ ゴシック
 11
0.0000000000000001
 21
1.0
 31
0.0
 73
     1
 44
1.0
1001
ACAD
1000
MTEXTBEGIN
1070
    73
1070
     1
1070
    44
1040
1.0
1070
    74
1070
     0
1000
MTEXTEND
  0
POINT
  5
7424
330
7334
100
AcDbEntity
  8
DEFPOINTS
 62
     0
100
AcDbPoint
 10
13962.66807093462
 20
13340.7910284838
 30
0.0
  0
POINT
  5
7425
330
7334
100
AcDbEntity
  8
DEFPOINTS
 62
     0
100
AcDbPoint
 10
13922.66807093462
 20
13470.7910284838
 30
0.0
  0
POINT
  5
7426
330
7334
100
AcDbEntity
  8
DEFPOINTS
 62
     0
100
AcDbPoint
 10
15548.60825286252
 20
13470.7910284838
 30
0.0
  0
ENDBLK
  5
7340
330
7334
100
AcDbEntity
  8
0
100
AcDbBlockEnd
  0
BLOCK
  5
734C
330
7342
100
AcDbEntity
  8
0
100
AcDbBlockBegin
  2
*D26
 70
     1
 10
0.0
 20
0.0
 30
0.0
  3
*D26
  1

  0
LINE
  5
7343
330
7342
100
AcDbEntity
  8
D-STR-TXT
 62
     0
370
    -2
100
AcDbLine
 10
14022.66807093462
 20
13470.7910284838
 30
0.0
 11
15160.5434756821
 21
13470.7910284838
 31
0.0
  0
LINE
  5
7344
330
7342
100
AcDbEntity
  8
D-STR-TXT
 62
     0
370
    -2
100
AcDbLine
 10
14022.66807093462
 20
15570.7910284838
 30
0.0
 11
15160.5434756821
 21
15570.7910284838
 31
0.0
  0
LINE
  5
7345
330
7342
100
AcDbEntity
  8
D-STR-TXT
 62
     0
370
    -2
100
AcDbLine
 10
15135.5434756821
 20
13570.7910284838
 30
0.0
 11
15135.5434756821
 21
15470.7910284838
 31
0.0
  0
INSERT
  5
7346
330
7342
100
AcDbEntity
  8
D-STR-TXT
 62
     0
370
    -2
100
AcDbBlockReference
  2
_Open30
 10
15135.5434756821
 20
13470.7910284838
 30
0.0
 41
100.0
 42
100.0
 43
100.0
 50
270.0
  0
INSERT
  5
7347
330
7342
100
AcDbEntity
  8
D-STR-TXT
 62
     0
370
    -2
100
AcDbBlockReference
  2
_Open30
 10
15135.5434756821
 20
15570.7910284838
 30
0.0
 41
100.0
 42
100.0
 43
100.0
 50
90.0
  0
MTEXT
  5
7348
330
7342
100
AcDbEntity
  8
D-STR-TXT
 62
     0
100
AcDbMText
 10
15008.04347568209
 20
14520.7910284838
 30
0.0
 40
175.0
 41
0.0
 71
     5
 72
     1
  1
\A1;2100
  7
ＭＳ ゴシック
 11
0.0000000000000001
 21
1.0
 31
0.0
 73
     1
 44
1.0
1001
ACAD
1000
MTEXTBEGIN
1070
    73
1070
     1
1070
    44
1040
1.0
1070
    74
1070
     0
1000
MTEXTEND
  0
POINT
  5
7349
330
7342
100
AcDbEntity
  8
DEFPOINTS
 62
     0
100
AcDbPoint
 10
13922.66807093462
 20
13470.7910284838
 30
0.0
  0
POINT
  5
734A
330
7342
100
AcDbEntity
  8
DEFPOINTS
 62
     0
100
AcDbPoint
 10
13922.66807093462
 20
15570.7910284838
 30
0.0
  0
POINT
  5
734B
330
7342
100
AcDbEntity
  8
DEFPOINTS
 62
     0
100
AcDbPoint
 10
15135.5434756821
 20
15570.7910284838
 30
0.0
  0
ENDBLK
  5
734D
330
7342
100
AcDbEntity
  8
0
100
AcDbBlockEnd
  0
BLOCK
  5
7359
330
734F
100
AcDbEntity
  8
0
100
AcDbBlockBegin
  2
*D27
 70
     1
 10
0.0
 20
0.0
 30
0.0
  3
*D27
  1

  0
LINE
  5
7350
330
734F
100
AcDbEntity
  8
D-STR-TXT
 62
     0
370
    -2
100
AcDbLine
 10
14022.66807093462
 20
15570.7910284838
 30
0.0
 11
15160.5434756821
 21
15570.7910284838
 31
0.0
  0
LINE
  5
7351
330
734F
100
AcDbEntity
  8
D-STR-TXT
 62
     0
370
    -2
100
AcDbLine
 10
14022.66807093462
 20
16770.7910284838
 30
0.0
 11
15160.5434756821
 21
16770.7910284838
 31
0.0
  0
LINE
  5
7352
330
734F
100
AcDbEntity
  8
D-STR-TXT
 62
     0
370
    -2
100
AcDbLine
 10
15135.5434756821
 20
15670.7910284838
 30
0.0
 11
15135.5434756821
 21
16670.7910284838
 31
0.0
  0
INSERT
  5
7353
330
734F
100
AcDbEntity
  8
D-STR-TXT
 62
     0
370
    -2
100
AcDbBlockReference
  2
_Open30
 10
15135.5434756821
 20
15570.7910284838
 30
0.0
 41
100.0
 42
100.0
 43
100.0
 50
270.0
  0
INSERT
  5
7354
330
734F
100
AcDbEntity
  8
D-STR-TXT
 62
     0
370
    -2
100
AcDbBlockReference
  2
_Open30
 10
15135.5434756821
 20
16770.7910284838
 30
0.0
 41
100.0
 42
100.0
 43
100.0
 50
90.0
  0
MTEXT
  5
7355
330
734F
100
AcDbEntity
  8
D-STR-TXT
 62
     0
100
AcDbMText
 10
15008.04347568209
 20
16170.7910284838
 30
0.0
 40
175.0
 41
0.0
 71
     5
 72
     1
  1
\A1;1200
  7
ＭＳ ゴシック
 11
0.0000000000000001
 21
1.0
 31
0.0
 73
     1
 44
1.0
1001
ACAD
1000
MTEXTBEGIN
1070
    73
1070
     1
1070
    44
1040
1.0
1070
    74
1070
     0
1000
MTEXTEND
  0
POINT
  5
7356
330
734F
100
AcDbEntity
  8
DEFPOINTS
 62
     0
100
AcDbPoint
 10
13922.66807093462
 20
15570.7910284838
 30
0.0
  0
POINT
  5
7357
330
734F
100
AcDbEntity
  8
DEFPOINTS
 62
     0
100
AcDbPoint
 10
13922.66807093462
 20
16770.7910284838
 30
0.0
  0
POINT
  5
7358
330
734F
100
AcDbEntity
  8
DEFPOINTS
 62
     0
100
AcDbPoint
 10
15135.5434756821
 20
16770.7910284838
 30
0.0
  0
ENDBLK
  5
735A
330
734F
100
AcDbEntity
  8
0
100
AcDbBlockEnd
  0
BLOCK
  5
7366
330
735C
100
AcDbEntity
  8
0
100
AcDbBlockBegin
  2
*D28
 70
     1
 10
0.0
 20
0.0
 30
0.0
  3
*D28
  1

  0
LINE
  5
735D
330
735C
100
AcDbEntity
  8
D-STR-TXT
 62
     0
370
    -2
100
AcDbLine
 10
14022.66807093462
 20
16770.7910284838
 30
0.0
 11
15160.5434756821
 21
16770.7910284838
 31
0.0
  0
LINE
  5
735E
330
735C
100
AcDbEntity
  8
D-STR-TXT
 62
     0
370
    -2
100
AcDbLine
 10
14022.66807093462
 20
17370.79102848379
 30
0.0
 11
15160.5434756821
 21
17370.79102848379
 31
0.0
  0
LINE
  5
735F
330
735C
100
AcDbEntity
  8
D-STR-TXT
 62
     0
370
    -2
100
AcDbLine
 10
15135.5434756821
 20
16870.7910284838
 30
0.0
 11
15135.5434756821
 21
17270.79102848379
 31
0.0
  0
INSERT
  5
7360
330
735C
100
AcDbEntity
  8
D-STR-TXT
 62
     0
370
    -2
100
AcDbBlockReference
  2
_Open30
 10
15135.5434756821
 20
16770.7910284838
 30
0.0
 41
100.0
 42
100.0
 43
100.0
 50
270.0
  0
INSERT
  5
7361
330
735C
100
AcDbEntity
  8
D-STR-TXT
 62
     0
370
    -2
100
AcDbBlockReference
  2
_Open30
 10
15135.5434756821
 20
17370.79102848379
 30
0.0
 41
100.0
 42
100.0
 43
100.0
 50
90.0
  0
MTEXT
  5
7362
330
735C
100
AcDbEntity
  8
D-STR-TXT
 62
     0
100
AcDbMText
 10
15008.04347568209
 20
17070.7910284838
 30
0.0
 40
175.0
 41
0.0
 71
     5
 72
     1
  1
\A1;600
  7
ＭＳ ゴシック
 11
0.0000000000000001
 21
1.0
 31
0.0
 73
     1
 44
1.0
1001
ACAD
1000
MTEXTBEGIN
1070
    73
1070
     1
1070
    44
1040
1.0
1070
    74
1070
     0
1000
MTEXTEND
  0
POINT
  5
7363
330
735C
100
AcDbEntity
  8
DEFPOINTS
 62
     0
100
AcDbPoint
 10
13922.66807093462
 20
16770.7910284838
 30
0.0
  0
POINT
  5
7364
330
735C
100
AcDbEntity
  8
DEFPOINTS
 62
     0
100
AcDbPoint
 10
13922.66807093462
 20
17370.79102848379
 30
0.0
  0
POINT
  5
7365
330
735C
100
AcDbEntity
  8
DEFPOINTS
 62
     0
100
AcDbPoint
 10
15135.5434756821
 20
17370.79102848379
 30
0.0
  0
ENDBLK
  5
7367
330
735C
100
AcDbEntity
  8
0
100
AcDbBlockEnd
  0
BLOCK
  5
7374
330
7369
100
AcDbEntity
  8
0
100
AcDbBlockBegin
  2
*D29
 70
     1
 10
0.0
 20
0.0
 30
0.0
  3
*D29
  1

  0
LINE
  5
736A
330
7369
100
AcDbEntity
  8
D-STR-TXT
 62
     0
370
    -2
100
AcDbLine
 10
14022.66807093462
 20
17370.79102848379
 30
0.0
 11
15160.5434756821
 21
17370.79102848379
 31
0.0
  0
LINE
  5
736B
330
7369
100
AcDbEntity
  8
D-STR-TXT
 62
     0
370
    -2
100
AcDbLine
 10
14022.66807093461
 20
17520.79102848379
 30
0.0
 11
15160.5434756821
 21
17520.79102848379
 31
0.0
  0
LINE
  5
736C
330
7369
100
AcDbEntity
  8
D-STR-TXT
 62
     0
370
    -2
100
AcDbLine
 10
15135.5434756821
 20
17270.79102848379
 30
0.0
 11
15135.5434756821
 21
17170.79102848379
 31
0.0
  0
LINE
  5
736D
330
7369
100
AcDbEntity
  8
D-STR-TXT
 62
     0
370
    -2
100
AcDbLine
 10
15135.5434756821
 20
17620.79102848379
 30
0.0
 11
15135.5434756821
 21
17720.79102848379
 31
0.0
  0
INSERT
  5
736E
330
7369
100
AcDbEntity
  8
D-STR-TXT
 62
     0
370
    -2
100
AcDbBlockReference
  2
_Open30
 10
15135.5434756821
 20
17370.79102848379
 30
0.0
 41
100.0
 42
100.0
 43
100.0
 50
90.0
  0
INSERT
  5
736F
330
7369
100
AcDbEntity
  8
D-STR-TXT
 62
     0
370
    -2
100
AcDbBlockReference
  2
_Open30
 10
15135.5434756821
 20
17520.79102848379
 30
0.0
 41
100.0
 42
100.0
 43
100.0
 50
270.0
  0
MTEXT
  5
7370
330
7369
100
AcDbEntity
  8
D-STR-TXT
 62
     0
100
AcDbMText
 10
15008.04347568209
 20
17445.79102848379
 30
0.0
 40
175.0
 41
0.0
 71
     5
 72
     1
  1
\A1;150
  7
ＭＳ ゴシック
 11
0.0000000000000001
 21
1.0
 31
0.0
 73
     1
 44
1.0
1001
ACAD
1000
MTEXTBEGIN
1070
    73
1070
     1
1070
    44
1040
1.0
1070
    74
1070
     0
1000
MTEXTEND
  0
POINT
  5
7371
330
7369
100
AcDbEntity
  8
DEFPOINTS
 62
     0
100
AcDbPoint
 10
13922.66807093462
 20
17370.79102848379
 30
0.0
  0
POINT
  5
7372
330
7369
100
AcDbEntity
  8
DEFPOINTS
 62
     0
100
AcDbPoint
 10
13922.66807093461
 20
17520.79102848379
 30
0.0
  0
POINT
  5
7373
330
7369
100
AcDbEntity
  8
DEFPOINTS
 62
     0
100
AcDbPoint
 10
15135.5434756821
 20
17520.79102848379
 30
0.0
  0
ENDBLK
  5
7375
330
7369
100
AcDbEntity
  8
0
100
AcDbBlockEnd
  0
BLOCK
  5
7382
330
7377
100
AcDbEntity
  8
0
100
AcDbBlockBegin
  2
*D30
 70
     1
 10
0.0
 20
0.0
 30
0.0
  3
*D30
  1

  0
LINE
  5
7384
330
7377
100
AcDbEntity
  8
D-STR-TXT
 62
     0
370
    -2
100
AcDbLine
 10
14022.66807093461
 20
17520.79102848379
 30
0.0
 11
15160.5434756821
 21
17520.79102848379
 31
0.0
  0
LINE
  5
7385
330
7377
100
AcDbEntity
  8
D-STR-TXT
 62
     0
370
    -2
100
AcDbLine
 10
13912.66807093461
 20
17630.79102848379
 30
0.0
 11
15160.5434756821
 21
17630.79102848379
 31
0.0
  0
LINE
  5
7386
330
7377
100
AcDbEntity
  8
D-STR-TXT
 62
     0
370
    -2
100
AcDbLine
 10
15135.5434756821
 20
17420.79102848379
 30
0.0
 11
15135.5434756821
 21
17320.79102848379
 31
0.0
  0
LINE
  5
7387
330
7377
100
AcDbEntity
  8
D-STR-TXT
 62
     0
370
    -2
100
AcDbLine
 10
15135.5434756821
 20
17730.79102848379
 30
0.0
 11
15135.5434756821
 21
17830.79102848379
 31
0.0
  0
MTEXT
  5
7388
330
7377
100
AcDbEntity
  8
D-STR-TXT
 62
     0
100
AcDbMText
 10
15265.76880357371
 20
17575.7910284838
 30
0.0
 40
175.0
 41
0.0
 71
     5
 72
     1
  1
\A1;110
  7
ＭＳ ゴシック
 11
0.0000000000000001
 21
1.0
 31
0.0
 73
     1
 44
1.0
1001
ACAD
1000
MTEXTBEGIN
1070
    73
1070
     1
1070
    44
1040
1.0
1070
    74
1070
     0
1000
MTEXTEND
  0
INSERT
  5
7389
330
7377
100
AcDbEntity
  8
D-STR-TXT
 62
     0
370
    -2
100
AcDbBlockReference
  2
_Open30
 10
15135.5434756821
 20
17520.79102848379
 30
0.0
 41
100.0
 42
100.0
 43
100.0
 50
90.0
  0
INSERT
  5
738A
330
7377
100
AcDbEntity
  8
D-STR-TXT
 62
     0
370
    -2
100
AcDbBlockReference
  2
_Open30
 10
15135.5434756821
 20
17630.79102848379
 30
0.0
 41
100.0
 42
100.0
 43
100.0
 50
270.0
  0
POINT
  5
738B
330
7377
100
AcDbEntity
  8
DEFPOINTS
 62
     0
100
AcDbPoint
 10
13922.66807093461
 20
17520.79102848379
 30
0.0
  0
POINT
  5
738C
330
7377
100
AcDbEntity
  8
DEFPOINTS
 62
     0
100
AcDbPoint
 10
13812.66807093461
 20
17630.79102848379
 30
0.0
  0
POINT
  5
738D
330
7377
100
AcDbEntity
  8
DEFPOINTS
 62
     0
100
AcDbPoint
 10
15135.5434756821
 20
17630.79102848379
 30
0.0
  0
ENDBLK
  5
7383
330
7377
100
AcDbEntity
  8
0
100
AcDbBlockEnd
  0
BLOCK
  5
7399
330
738F
100
AcDbEntity
  8
0
100
AcDbBlockBegin
  2
*D31
 70
     1
 10
0.0
 20
0.0
 30
0.0
  3
*D31
  1

  0
LINE
  5
7390
330
738F
100
AcDbEntity
  8
D-STR-TXT
 62
     0
370
    -2
100
AcDbLine
 10
12947.66807093462
 20
15020.7910284838
 30
0.0
 11
12947.66807093462
 21
14803.02544310057
 31
0.0
  0
LINE
  5
7391
330
738F
100
AcDbEntity
  8
D-STR-TXT
 62
     0
370
    -2
100
AcDbLine
 10
13847.66807093462
 20
15020.7910284838
 30
0.0
 11
13847.66807093462
 21
14803.02544310057
 31
0.0
  0
LINE
  5
7392
330
738F
100
AcDbEntity
  8
D-STR-TXT
 62
     0
370
    -2
100
AcDbLine
 10
13047.66807093462
 20
14828.02544310057
 30
0.0
 11
13747.66807093462
 21
14828.02544310057
 31
0.0
  0
INSERT
  5
7393
330
738F
100
AcDbEntity
  8
D-STR-TXT
 62
     0
370
    -2
100
AcDbBlockReference
  2
_Open30
 10
12947.66807093462
 20
14828.02544310057
 30
0.0
 41
100.0
 42
100.0
 43
100.0
 50
180.0
  0
INSERT
  5
7394
330
738F
100
AcDbEntity
  8
D-STR-TXT
 62
     0
370
    -2
100
AcDbBlockReference
  2
_Open30
 10
13847.66807093462
 20
14828.02544310057
 30
0.0
 41
100.0
 42
100.0
 43
100.0
  0
MTEXT
  5
7395
330
738F
100
AcDbEntity
  8
D-STR-TXT
 62
     0
100
AcDbMText
 10
13397.66807093462
 20
14955.52544310057
 30
0.0
 40
175.0
 41
0.0
 71
     5
 72
     1
  1
\A1;900
  7
ＭＳ ゴシック
 73
     1
 44
1.0
1001
ACAD
1000
MTEXTBEGIN
1070
    73
1070
     1
1070
    44
1040
1.0
1070
    74
1070
     0
1000
MTEXTEND
  0
POINT
  5
7396
330
738F
100
AcDbEntity
  8
DEFPOINTS
 62
     0
100
AcDbPoint
 10
12947.66807093462
 20
15120.7910284838
 30
0.0
  0
POINT
  5
7397
330
738F
100
AcDbEntity
  8
DEFPOINTS
 62
     0
100
AcDbPoint
 10
13847.66807093462
 20
15120.7910284838
 30
0.0
  0
POINT
  5
7398
330
738F
100
AcDbEntity
  8
DEFPOINTS
 62
     0
100
AcDbPoint
 10
13847.66807093462
 20
14828.02544310057
 30
0.0
  0
ENDBLK
  5
739A
330
738F
100
AcDbEntity
  8
0
100
AcDbBlockEnd
  0
BLOCK
  5
73A7
330
739C
100
AcDbEntity
  8
0
100
AcDbBlockBegin
  2
*D32
 70
     1
 10
0.0
 20
0.0
 30
0.0
  3
*D32
  1

  0
LINE
  5
73A9
330
739C
100
AcDbEntity
  8
D-STR-TXT
 62
     0
370
    -2
100
AcDbLine
 10
13847.66807093462
 20
15020.7910284838
 30
0.0
 11
13847.66807093462
 21
14803.02544310057
 31
0.0
  0
LINE
  5
73AA
330
739C
100
AcDbEntity
  8
D-STR-TXT
 62
     0
370
    -2
100
AcDbLine
 10
13922.66807093462
 20
15020.7910284838
 30
0.0
 11
13922.66807093462
 21
14803.02544310057
 31
0.0
  0
LINE
  5
73AB
330
739C
100
AcDbEntity
  8
D-STR-TXT
 62
     0
370
    -2
100
AcDbLine
 10
13747.66807093462
 20
14828.02544310057
 30
0.0
 11
13647.66807093462
 21
14828.02544310057
 31
0.0
  0
LINE
  5
73AC
330
739C
100
AcDbEntity
  8
D-STR-TXT
 62
     0
370
    -2
100
AcDbLine
 10
14022.66807093462
 20
14828.02544310057
 30
0.0
 11
14122.66807093462
 21
14828.02544310057
 31
0.0
  0
MTEXT
  5
73AD
330
739C
100
AcDbEntity
  8
D-STR-TXT
 62
     0
100
AcDbMText
 10
14063.89872695058
 20
14955.52544310057
 30
0.0
 40
175.0
 41
0.0
 71
     5
 72
     1
  1
\A1;75
  7
ＭＳ ゴシック
 73
     1
 44
1.0
1001
ACAD
1000
MTEXTBEGIN
1070
    73
1070
     1
1070
    44
1040
1.0
1070
    74
1070
     0
1000
MTEXTEND
  0
INSERT
  5
73AE
330
739C
100
AcDbEntity
  8
D-STR-TXT
 62
     0
370
    -2
100
AcDbBlockReference
  2
_Open30
 10
13847.66807093462
 20
14828.02544310057
 30
0.0
 41
100.0
 42
100.0
 43
100.0
  0
INSERT
  5
73AF
330
739C
100
AcDbEntity
  8
D-STR-TXT
 62
     0
370
    -2
100
AcDbBlockReference
  2
_Open30
 10
13922.66807093462
 20
14828.02544310057
 30
0.0
 41
100.0
 42
100.0
 43
100.0
 50
180.0
  0
POINT
  5
73B0
330
739C
100
AcDbEntity
  8
DEFPOINTS
 62
     0
100
AcDbPoint
 10
13847.66807093462
 20
15120.7910284838
 30
0.0
  0
POINT
  5
73B1
330
739C
100
AcDbEntity
  8
DEFPOINTS
 62
     0
100
AcDbPoint
 10
13922.66807093462
 20
15120.7910284838
 30
0.0
  0
POINT
  5
73B2
330
739C
100
AcDbEntity
  8
DEFPOINTS
 62
     0
100
AcDbPoint
 10
13922.66807093462
 20
14828.02544310057
 30
0.0
  0
ENDBLK
  5
73A8
330
739C
100
AcDbEntity
  8
0
100
AcDbBlockEnd
  0
BLOCK
  5
73BF
330
73B4
100
AcDbEntity
  8
0
100
AcDbBlockBegin
  2
*D33
 70
     1
 10
0.0
 20
0.0
 30
0.0
  3
*D33
  1

  0
LINE
  5
73C1
330
73B4
100
AcDbEntity
  8
D-STR-TXT
 62
     0
370
    -2
100
AcDbLine
 10
12947.66807093462
 20
15020.7910284838
 30
0.0
 11
12947.66807093462
 21
14803.02544310057
 31
0.0
  0
LINE
  5
73C2
330
73B4
100
AcDbEntity
  8
D-STR-TXT
 62
     0
370
    -2
100
AcDbLine
 10
12872.66807093462
 20
15020.7910284838
 30
0.0
 11
12872.66807093462
 21
14803.02544310057
 31
0.0
  0
LINE
  5
73C3
330
73B4
100
AcDbEntity
  8
D-STR-TXT
 62
     0
370
    -2
100
AcDbLine
 10
13047.66807093462
 20
14828.02544310057
 30
0.0
 11
13147.66807093462
 21
14828.02544310057
 31
0.0
  0
LINE
  5
73C4
330
73B4
100
AcDbEntity
  8
D-STR-TXT
 62
     0
370
    -2
100
AcDbLine
 10
12772.66807093462
 20
14828.02544310057
 30
0.0
 11
12672.66807093462
 21
14828.02544310057
 31
0.0
  0
MTEXT
  5
73C5
330
73B4
100
AcDbEntity
  8
D-STR-TXT
 62
     0
100
AcDbMText
 10
12731.43741491865
 20
14955.52544310057
 30
0.0
 40
175.0
 41
0.0
 71
     5
 72
     1
  1
\A1;75
  7
ＭＳ ゴシック
 73
     1
 44
1.0
1001
ACAD
1000
MTEXTBEGIN
1070
    73
1070
     1
1070
    44
1040
1.0
1070
    74
1070
     0
1000
MTEXTEND
  0
INSERT
  5
73C6
330
73B4
100
AcDbEntity
  8
D-STR-TXT
 62
     0
370
    -2
100
AcDbBlockReference
  2
_Open30
 10
12947.66807093462
 20
14828.02544310057
 30
0.0
 41
100.0
 42
100.0
 43
100.0
 50
180.0
  0
INSERT
  5
73C7
330
73B4
100
AcDbEntity
  8
D-STR-TXT
 62
     0
370
    -2
100
AcDbBlockReference
  2
_Open30
 10
12872.66807093462
 20
14828.02544310057
 30
0.0
 41
100.0
 42
100.0
 43
100.0
  0
POINT
  5
73C8
330
73B4
100
AcDbEntity
  8
DEFPOINTS
 62
     0
100
AcDbPoint
 10
12947.66807093462
 20
15120.7910284838
 30
0.0
  0
POINT
  5
73C9
330
73B4
100
AcDbEntity
  8
DEFPOINTS
 62
     0
100
AcDbPoint
 10
12872.66807093462
 20
15120.7910284838
 30
0.0
  0
POINT
  5
73CA
330
73B4
100
AcDbEntity
  8
DEFPOINTS
 62
     0
100
AcDbPoint
 10
12872.66807093462
 20
14828.02544310057
 30
0.0
  0
ENDBLK
  5
73C0
330
73B4
100
AcDbEntity
  8
0
100
AcDbBlockEnd
  0
BLOCK
  5
73D6
330
73CC
100
AcDbEntity
  8
0
100
AcDbBlockBegin
  2
*D34
 70
     1
 10
0.0
 20
0.0
 30
0.0
  3
*D34
  1

  0
LINE
  5
73CD
330
73CC
100
AcDbEntity
  8
D-STR-TXT
 62
     0
370
    -2
100
AcDbLine
 10
13212.66807093461
 20
17730.79102848379
 30
0.0
 11
13212.66807093461
 21
18240.13440743246
 31
0.0
  0
LINE
  5
73CE
330
73CC
100
AcDbEntity
  8
D-STR-TXT
 62
     0
370
    -2
100
AcDbLine
 10
13812.66807093461
 20
17730.79102848379
 30
0.0
 11
13812.66807093461
 21
18240.13440743246
 31
0.0
  0
LINE
  5
73CF
330
73CC
100
AcDbEntity
  8
D-STR-TXT
 62
     0
370
    -2
100
AcDbLine
 10
13312.66807093461
 20
18215.13440743246
 30
0.0
 11
13712.66807093461
 21
18215.13440743246
 31
0.0
  0
INSERT
  5
73D0
330
73CC
100
AcDbEntity
  8
D-STR-TXT
 62
     0
370
    -2
100
AcDbBlockReference
  2
_Open30
 10
13212.66807093461
 20
18215.13440743246
 30
0.0
 41
100.0
 42
100.0
 43
100.0
 50
180.0
  0
INSERT
  5
73D1
330
73CC
100
AcDbEntity
  8
D-STR-TXT
 62
     0
370
    -2
100
AcDbBlockReference
  2
_Open30
 10
13812.66807093461
 20
18215.13440743246
 30
0.0
 41
100.0
 42
100.0
 43
100.0
  0
MTEXT
  5
73D2
330
73CC
100
AcDbEntity
  8
D-STR-TXT
 62
     0
100
AcDbMText
 10
13512.66807093461
 20
18342.63440743247
 30
0.0
 40
175.0
 41
0.0
 71
     5
 72
     1
  1
\A1;600
  7
ＭＳ ゴシック
 73
     1
 44
1.0
1001
ACAD
1000
MTEXTBEGIN
1070
    73
1070
     1
1070
    44
1040
1.0
1070
    74
1070
     0
1000
MTEXTEND
  0
POINT
  5
73D3
330
73CC
100
AcDbEntity
  8
DEFPOINTS
 62
     0
100
AcDbPoint
 10
13212.66807093461
 20
17630.79102848379
 30
0.0
  0
POINT
  5
73D4
330
73CC
100
AcDbEntity
  8
DEFPOINTS
 62
     0
100
AcDbPoint
 10
13812.66807093461
 20
17630.79102848379
 30
0.0
  0
POINT
  5
73D5
330
73CC
100
AcDbEntity
  8
DEFPOINTS
 62
     0
100
AcDbPoint
 10
13812.66807093461
 20
18215.13440743246
 30
0.0
  0
ENDBLK
  5
73D7
330
73CC
100
AcDbEntity
  8
0
100
AcDbBlockEnd
  0
BLOCK
  5
73F2
330
73E7
100
AcDbEntity
  8
0
100
AcDbBlockBegin
  2
*D36
 70
     1
 10
0.0
 20
0.0
 30
0.0
  3
*D36
  1

  0
LINE
  5
73E8
330
73E7
100
AcDbEntity
  8
D-STR-TXT
 62
     0
370
    -2
100
AcDbLine
 10
13812.66807093461
 20
17730.79102848379
 30
0.0
 11
13812.66807093461
 21
18240.13440743246
 31
0.0
  0
LINE
  5
73E9
330
73E7
100
AcDbEntity
  8
D-STR-TXT
 62
     0
370
    -2
100
AcDbLine
 10
13922.66807093461
 20
17730.79102848379
 30
0.0
 11
13922.66807093461
 21
18240.13440743246
 31
0.0
  0
LINE
  5
73EA
330
73E7
100
AcDbEntity
  8
D-STR-TXT
 62
     0
370
    -2
100
AcDbLine
 10
13712.66807093461
 20
18215.13440743246
 30
0.0
 11
13612.66807093461
 21
18215.13440743246
 31
0.0
  0
LINE
  5
73EB
330
73E7
100
AcDbEntity
  8
D-STR-TXT
 62
     0
370
    -2
100
AcDbLine
 10
14022.66807093461
 20
18215.13440743246
 30
0.0
 11
14122.66807093461
 21
18215.13440743246
 31
0.0
  0
INSERT
  5
73EC
330
73E7
100
AcDbEntity
  8
D-STR-TXT
 62
     0
370
    -2
100
AcDbBlockReference
  2
_Open30
 10
13812.66807093461
 20
18215.13440743246
 30
0.0
 41
100.0
 42
100.0
 43
100.0
  0
INSERT
  5
73ED
330
73E7
100
AcDbEntity
  8
D-STR-TXT
 62
     0
370
    -2
100
AcDbBlockReference
  2
_Open30
 10
13922.66807093461
 20
18215.13440743246
 30
0.0
 41
100.0
 42
100.0
 43
100.0
 50
180.0
  0
MTEXT
  5
73EE
330
73E7
100
AcDbEntity
  8
D-STR-TXT
 62
     0
100
AcDbMText
 10
13867.66807093462
 20
18342.63440743247
 30
0.0
 40
175.0
 41
0.0
 71
     5
 72
     1
  1
\A1;110
  7
ＭＳ ゴシック
 73
     1
 44
1.0
1001
ACAD
1000
MTEXTBEGIN
1070
    73
1070
     1
1070
    44
1040
1.0
1070
    74
1070
     0
1000
MTEXTEND
  0
POINT
  5
73EF
330
73E7
100
AcDbEntity
  8
DEFPOINTS
 62
     0
100
AcDbPoint
 10
13812.66807093461
 20
17630.79102848379
 30
0.0
  0
POINT
  5
73F0
330
73E7
100
AcDbEntity
  8
DEFPOINTS
 62
     0
100
AcDbPoint
 10
13922.66807093461
 20
17630.79102848379
 30
0.0
  0
POINT
  5
73F1
330
73E7
100
AcDbEntity
  8
DEFPOINTS
 62
     0
100
AcDbPoint
 10
13922.66807093461
 20
18215.13440743246
 30
0.0
  0
ENDBLK
  5
73F3
330
73E7
100
AcDbEntity
  8
0
100
AcDbBlockEnd
  0
BLOCK
  5
7400
330
73F5
100
AcDbEntity
  8
0
100
AcDbBlockBegin
  2
*D37
 70
     1
 10
0.0
 20
0.0
 30
0.0
  3
*D37
  1

  0
LINE
  5
73F6
330
73F5
100
AcDbEntity
  8
D-STR-TXT
 62
     0
370
    -2
100
AcDbLine
 10
13212.66807093461
 20
17730.79102848379
 30
0.0
 11
13212.66807093461
 21
18240.13440743246
 31
0.0
  0
LINE
  5
73F7
330
73F5
100
AcDbEntity
  8
D-STR-TXT
 62
     0
370
    -2
100
AcDbLine
 10
13102.66807093461
 20
17730.79102848379
 30
0.0
 11
13102.66807093461
 21
18240.13440743246
 31
0.0
  0
LINE
  5
73F8
330
73F5
100
AcDbEntity
  8
D-STR-TXT
 62
     0
370
    -2
100
AcDbLine
 10
13312.66807093461
 20
18215.13440743246
 30
0.0
 11
13412.66807093461
 21
18215.13440743246
 31
0.0
  0
LINE
  5
73F9
330
73F5
100
AcDbEntity
  8
D-STR-TXT
 62
     0
370
    -2
100
AcDbLine
 10
13002.66807093461
 20
18215.13440743246
 30
0.0
 11
12902.66807093461
 21
18215.13440743246
 31
0.0
  0
INSERT
  5
73FA
330
73F5
100
AcDbEntity
  8
D-STR-TXT
 62
     0
370
    -2
100
AcDbBlockReference
  2
_Open30
 10
13212.66807093461
 20
18215.13440743246
 30
0.0
 41
100.0
 42
100.0
 43
100.0
 50
180.0
  0
INSERT
  5
73FB
330
73F5
100
AcDbEntity
  8
D-STR-TXT
 62
     0
370
    -2
100
AcDbBlockReference
  2
_Open30
 10
13102.66807093461
 20
18215.13440743246
 30
0.0
 41
100.0
 42
100.0
 43
100.0
  0
MTEXT
  5
73FC
330
73F5
100
AcDbEntity
  8
D-STR-TXT
 62
     0
100
AcDbMText
 10
13157.66807093461
 20
18342.63440743247
 30
0.0
 40
175.0
 41
0.0
 71
     5
 72
     1
  1
\A1;110
  7
ＭＳ ゴシック
 73
     1
 44
1.0
1001
ACAD
1000
MTEXTBEGIN
1070
    73
1070
     1
1070
    44
1040
1.0
1070
    74
1070
     0
1000
MTEXTEND
  0
POINT
  5
73FD
330
73F5
100
AcDbEntity
  8
DEFPOINTS
 62
     0
100
AcDbPoint
 10
13212.66807093461
 20
17630.79102848379
 30
0.0
  0
POINT
  5
73FE
330
73F5
100
AcDbEntity
  8
DEFPOINTS
 62
     0
100
AcDbPoint
 10
13102.66807093461
 20
17630.79102848379
 30
0.0
  0
POINT
  5
73FF
330
73F5
100
AcDbEntity
  8
DEFPOINTS
 62
     0
100
AcDbPoint
 10
13102.66807093461
 20
18215.13440743246
 30
0.0
  0
ENDBLK
  5
7401
330
73F5
100
AcDbEntity
  8
0
100
AcDbBlockEnd
  0
BLOCK
  5
740E
330
7403
100
AcDbEntity
  8
0
100
AcDbBlockBegin
  2
*D38
 70
     1
 10
0.0
 20
0.0
 30
0.0
  3
*D38
  1

  0
LINE
  5
7404
330
7403
100
AcDbEntity
  8
D-STR-TXT
 62
     0
370
    -2
100
AcDbLine
 10
13512.66807093462
 20
16550.62240287973
 30
0.0
 11
13512.66807093462
 21
16239.76007628046
 31
0.0
  0
LINE
  5
7405
330
7403
100
AcDbEntity
  8
D-STR-TXT
 62
     0
370
    -2
100
AcDbLine
 10
13397.66807093462
 20
16670.79102848379
 30
0.0
 11
13397.66807093462
 21
16239.76007628046
 31
0.0
  0
LINE
  5
7406
330
7403
100
AcDbEntity
  8
D-STR-TXT
 62
     0
370
    -2
100
AcDbLine
 10
13612.66807093462
 20
16264.76007628046
 30
0.0
 11
13712.66807093462
 21
16264.76007628046
 31
0.0
  0
LINE
  5
7407
330
7403
100
AcDbEntity
  8
D-STR-TXT
 62
     0
370
    -2
100
AcDbLine
 10
13297.66807093462
 20
16264.76007628046
 30
0.0
 11
13197.66807093462
 21
16264.76007628046
 31
0.0
  0
INSERT
  5
7408
330
7403
100
AcDbEntity
  8
D-STR-TXT
 62
     0
370
    -2
100
AcDbBlockReference
  2
_Open30
 10
13512.66807093462
 20
16264.76007628046
 30
0.0
 41
100.0
 42
100.0
 43
100.0
 50
180.0
  0
INSERT
  5
7409
330
7403
100
AcDbEntity
  8
D-STR-TXT
 62
     0
370
    -2
100
AcDbBlockReference
  2
_Open30
 10
13397.66807093462
 20
16264.76007628046
 30
0.0
 41
100.0
 42
100.0
 43
100.0
  0
MTEXT
  5
740A
330
7403
100
AcDbEntity
  8
D-STR-TXT
 62
     0
100
AcDbMText
 10
13455.16807093462
 20
16392.26007628046
 30
0.0
 40
175.0
 41
0.0
 71
     5
 72
     1
  1
\A1;115
  7
ＭＳ ゴシック
 73
     1
 44
1.0
1001
ACAD
1000
MTEXTBEGIN
1070
    73
1070
     1
1070
    44
1040
1.0
1070
    74
1070
     0
1000
MTEXTEND
  0
POINT
  5
740B
330
7403
100
AcDbEntity
  8
DEFPOINTS
 62
     0
100
AcDbPoint
 10
13512.66807093462
 20
16650.62240287973
 30
0.0
  0
POINT
  5
740C
330
7403
100
AcDbEntity
  8
DEFPOINTS
 62
     0
100
AcDbPoint
 10
13397.66807093462
 20
16770.79102848379
 30
0.0
  0
POINT
  5
740D
330
7403
100
AcDbEntity
  8
DEFPOINTS
 62
     0
100
AcDbPoint
 10
13397.66807093462
 20
16264.76007628046
 30
0.0
  0
ENDBLK
  5
740F
330
7403
100
AcDbEntity
  8
0
100
AcDbBlockEnd
  0
BLOCK
  5
741B
330
7411
100
AcDbEntity
  8
0
100
AcDbBlockBegin
  2
*D39
 70
     1
 10
0.0
 20
0.0
 30
0.0
  3
*D39
  1

  0
LINE
  5
7412
330
7411
100
AcDbEntity
  8
D-STR-TXT
 62
     0
370
    -2
100
AcDbLine
 10
14022.66807093462
 20
13470.7910284838
 30
0.0
 11
15573.60825286252
 21
13470.7910284838
 31
0.0
  0
LINE
  5
7413
330
7411
100
AcDbEntity
  8
D-STR-TXT
 62
     0
370
    -2
100
AcDbLine
 10
13912.66807093461
 20
17630.79102848379
 30
0.0
 11
15573.60825286252
 21
17630.79102848379
 31
0.0
  0
LINE
  5
7414
330
7411
100
AcDbEntity
  8
D-STR-TXT
 62
     0
370
    -2
100
AcDbLine
 10
15548.60825286252
 20
13570.7910284838
 30
0.0
 11
15548.60825286252
 21
17530.79102848379
 31
0.0
  0
INSERT
  5
7415
330
7411
100
AcDbEntity
  8
D-STR-TXT
 62
     0
370
    -2
100
AcDbBlockReference
  2
_Open30
 10
15548.60825286252
 20
13470.7910284838
 30
0.0
 41
100.0
 42
100.0
 43
100.0
 50
270.0
  0
INSERT
  5
7416
330
7411
100
AcDbEntity
  8
D-STR-TXT
 62
     0
370
    -2
100
AcDbBlockReference
  2
_Open30
 10
15548.60825286252
 20
17630.79102848379
 30
0.0
 41
100.0
 42
100.0
 43
100.0
 50
90.0
  0
MTEXT
  5
7417
330
7411
100
AcDbEntity
  8
D-STR-TXT
 62
     0
100
AcDbMText
 10
15421.10825286252
 20
15550.7910284838
 30
0.0
 40
175.0
 41
0.0
 71
     5
 72
     1
  1
\A1;4160
  7
ＭＳ ゴシック
 11
0.0000000000000001
 21
1.0
 31
0.0
 73
     1
 44
1.0
1001
ACAD
1000
MTEXTBEGIN
1070
    73
1070
     1
1070
    44
1040
1.0
1070
    74
1070
     0
1000
MTEXTEND
  0
POINT
  5
7418
330
7411
100
AcDbEntity
  8
DEFPOINTS
 62
     0
100
AcDbPoint
 10
13922.66807093462
 20
13470.7910284838
 30
0.0
  0
POINT
  5
7419
330
7411
100
AcDbEntity
  8
DEFPOINTS
 62
     0
100
AcDbPoint
 10
13812.66807093461
 20
17630.79102848379
 30
0.0
  0
POINT
  5
741A
330
7411
100
AcDbEntity
  8
DEFPOINTS
 62
     0
100
AcDbPoint
 10
15548.60825286252
 20
17630.79102848379
 30
0.0
  0
ENDBLK
  5
741C
330
7411
100
AcDbEntity
  8
0
100
AcDbBlockEnd
  0
ENDSEC
  0
SECTION
  2
ENTITIES
  0
TEXT
  5
73
330
17
100
AcDbEntity
  8
D-STR
100
AcDbText
 10
57301.49202538158
 20
31087.05882352942
 30
0.0
 40
300.0
  1
　
100
AcDbText
  0
POINT
  5
5EF2
330
17
100
AcDbEntity
  8
0
100
AcDbPoint
 10
716.1287757555255
 20
28939.30295771935
 30
0.0
  0
POINT
  5
5EF3
330
17
100
AcDbEntity
  8
0
100
AcDbPoint
 10
41059.1193407588
 20
297.2211282883939
 30
0.0
  0
LWPOLYLINE
  5
5FBA
330
17
100
AcDbEntity
  8
DEFPOINTS
  6
DOT2
 48
10.0
100
AcDbPolyline
 90
        4
 70
     1
 43
0.0
 10
716.1287757555255
 20
28939.30295771935
 10
41059.1193407588
 20
28939.30295771935
 10
41059.1193407588
 20
297.2211282883939
 10
716.1287757555255
 20
297.2211282883945
  0
LWPOLYLINE
  5
6A02
330
17
100
AcDbEntity
  8
D-TTL
100
AcDbPolyline
 90
        4
 70
     1
 43
0.0
 10
40846.04170657807
 20
899.7238890210571
 10
1137.787681100715
 20
899.7238890210574
 10
1137.787681100715
 20
28721.46892743971
 10
40846.04170657806
 20
28721.46892743972
  0
LWPOLYLINE
  5
6A0C
330
17
100
AcDbEntity
  8
D-TTL
100
AcDbPolyline
 90
        4
 70
     1
 43
0.0
 10
40841.04170657806
 20
904.7238890210572
 10
1142.787681100715
 20
904.7238890210573
 10
1142.787681100715
 20
28716.46892743971
 10
40841.04170657806
 20
28716.46892743973
  0
LWPOLYLINE
  5
6A0D
330
17
100
AcDbEntity
  8
D-TTL
100
AcDbPolyline
 90
        4
 70
     1
 43
0.0
 10
40851.04170657807
 20
894.7238890210572
 10
1132.787681100715
 20
894.7238890210574
 10
1132.787681100715
 20
28726.46892743971
 10
40851.04170657806
 20
28726.46892743972
  0
LWPOLYLINE
  5
6FDE
330
17
100
AcDbEntity
  8
D-STR
100
AcDbPolyline
 90
       16
 70
     1
 43
0.0
 10
12932.52875070961
 20
13470.7910284838
 10
13397.66807093462
 20
13470.7910284838
 10
13862.80739115961
 20
13470.79102848381
 42
0.4472135955001586
 10
13907.52875070961
 20
13470.7910284838
 10
13907.66807093462
 20
13470.7910284838
 10
13922.66807093462
 20
13470.7910284838
 10
13927.66807093462
 20
13480.7910284838
 10
13952.66807093462
 20
13480.7910284838
 10
13962.66807093462
 20
13340.7910284838
 10
13397.66807093462
 20
13340.7910284838
 10
12832.66807093462
 20
13340.7910284838
 10
12842.66807093462
 20
13480.7910284838
 10
12867.66807093462
 20
13480.7910284838
 10
12872.66807093462
 20
13470.7910284838
 10
12887.66807093462
 20
13470.7910284838
 10
12887.80739115961
 20
13470.79102848381
 42
0.4472135955001586
  0
LWPOLYLINE
  5
7021
330
17
100
AcDbEntity
  8
D-STR
100
AcDbPolyline
 90
        7
 70
     0
 43
0.0
 10
12872.66807093462
 20
15570.7910284838
 10
12887.66807093462
 20
15570.7910284838
 42
0.4514162296450455
 10
12932.66807093461
 20
15570.7910284838
 10
13397.66807093462
 20
15570.7910284838
 10
13862.66807093462
 20
15570.7910284838
 42
0.4514162296450455
 10
13907.66807093462
 20
15570.7910284838
 10
13922.66807093462
 20
15570.7910284838
  0
LINE
  5
7022
330
17
100
AcDbEntity
  8
D-BMK
 48
0.3
100
AcDbLine
 10
13397.66807093462
 20
13209.88986108319
 30
0.0
 11
13397.66807093462
 21
16895.47103091611
 31
0.0
  0
LINE
  5
7023
330
17
100
AcDbEntity
  8
D-STR
100
AcDbLine
 10
12947.66807093462
 20
13470.7910284838
 30
0.0
 11
12947.66807093462
 21
16770.7910284838
 31
0.0
  0
LINE
  5
7024
330
17
100
AcDbEntity
  8
D-STR
100
AcDbLine
 10
13847.66807093462
 20
13470.7910284838
 30
0.0
 11
13847.66807093462
 21
16770.7910284838
 31
0.0
  0
LINE
  5
7025
330
17
100
AcDbEntity
  8
D-STR
100
AcDbLine
 10
12872.66807093462
 20
13470.7910284838
 30
0.0
 11
12872.66807093462
 21
16770.7910284838
 31
0.0
  0
LINE
  5
7026
330
17
100
AcDbEntity
  8
D-STR
100
AcDbLine
 10
13922.66807093462
 20
13470.7910284838
 30
0.0
 11
13922.66807093462
 21
16770.7910284838
 31
0.0
  0
LWPOLYLINE
  5
702E
330
17
100
AcDbEntity
  8
D-STR
100
AcDbPolyline
 90
        7
 70
     0
 43
0.0
 10
12872.66807093462
 20
16770.7910284838
 10
12887.66807093462
 20
16770.7910284838
 42
0.4514162296450455
 10
12932.66807093461
 20
16770.7910284838
 10
13397.66807093462
 20
16770.7910284838
 10
13862.66807093462
 20
16770.7910284838
 42
0.4514162296450455
 10
13907.66807093462
 20
16770.7910284838
 10
13922.66807093462
 20
16770.7910284838
  0
LWPOLYLINE
  5
7224
330
17
100
AcDbEntity
  8
D-STR
 48
0.5
100
AcDbPolyline
 90
        3
 70
     0
 43
0.0
 10
12942.29945367014
 20
10903.78372150458
 10
12947.29945367014
 20
10868.78372150458
 10
12977.29945367014
 20
10618.78372150458
  0
LWPOLYLINE
  5
7226
330
17
100
AcDbEntity
  8
D-STR
 48
0.5
100
AcDbPolyline
 90
       19
 70
     1
 43
0.0
 10
12002.29945367014
 20
10708.78372150458
 10
12232.29945367014
 20
10908.78372150458
 10
12232.29945367014
 20
10918.78372150458
 10
12310.29945367014
 20
10918.78372150458
 10
12316.29945367014
 20
10903.78372150458
 10
12342.29945367014
 20
10903.78372150458
 10
12942.29945367014
 20
10903.78372150458
 10
12968.29945367014
 20
10903.78372150458
 10
12974.29945367014
 20
10918.78372150458
 10
13052.29945367014
 20
10918.78372150458
 10
13052.29945367014
 20
10618.78372150458
 10
13035.79945367014
 20
10618.78372150458
 42
-0.428571428571586
 10
12993.79945367013
 20
10618.78372150459
 10
12977.29945367014
 20
10618.78372150458
 10
12527.29945367014
 20
10618.78372150458
 10
12077.29945367014
 20
10618.78372150458
 10
12060.79945367014
 20
10618.78372150458
 42
-0.4285714285717474
 10
12018.79945367013
 20
10618.78372150459
 10
12002.29945367014
 20
10618.78372150459
  0
LWPOLYLINE
  5
722B
330
17
100
AcDbEntity
  8
D-STR
 48
0.5
100
AcDbPolyline
 90
        3
 70
     0
 43
0.0
 10
12342.29945367014
 20
10903.78372150458
 10
12337.29945367014
 20
10868.78372150458
 10
12077.29945367014
 20
10618.78372150458
  0
LWPOLYLINE
  5
724A
330
17
100
AcDbEntity
  8
D-STR
 48
0.5
100
AcDbPolyline
 90
        3
 70
     0
 43
0.0
 10
14794.27786464236
 20
10468.78372150458
 10
14764.27786464237
 20
10868.78372150458
 10
14759.27786464237
 20
10903.78372150458
  0
LWPOLYLINE
  5
724C
330
17
100
AcDbEntity
  8
D-STR
 48
0.5
100
AcDbPolyline
 90
       17
 70
     1
 43
0.0
 10
14127.27786464237
 20
10918.78372150458
 10
14049.27786464236
 20
10918.78372150458
 10
14049.27786464236
 20
10868.78372150458
 10
13819.27786464236
 20
10518.78372150458
 10
13819.27786464236
 20
10468.78372150458
 10
13835.77786464236
 20
10468.78372150458
 42
0.4285714285715862
 10
13877.77786464237
 20
10468.78372150459
 10
14344.27786464237
 20
10468.78372150458
 10
14810.77786464237
 20
10468.78372150458
 42
0.4285714285715898
 10
14852.77786464236
 20
10468.78372150458
 10
14869.27786464236
 20
10468.78372150458
 10
14869.27786464236
 20
10918.78372150458
 10
14791.27786464236
 20
10918.78372150458
 10
14785.27786464236
 20
10903.78372150458
 10
14759.27786464237
 20
10903.78372150458
 10
14159.27786464236
 20
10903.78372150458
 10
14133.27786464237
 20
10903.78372150458
  0
LWPOLYLINE
  5
7251
330
17
100
AcDbEntity
  8
D-STR
 48
0.5
100
AcDbPolyline
 90
        3
 70
     0
 43
0.0
 10
13894.27786464237
 20
10468.78372150458
 10
14154.27786464237
 20
10868.78372150458
 10
14159.27786464236
 20
10903.78372150458
  0
LWPOLYLINE
  5
726F
330
17
100
AcDbEntity
  8
D-STR
 48
0.5
100
AcDbPolyline
 90
        3
 70
     0
 43
0.0
 10
16640.14582390878
 20
10318.78372150458
 10
16610.14582390877
 20
10868.78372150458
 10
16605.14582390877
 20
10903.78372150458
  0
LWPOLYLINE
  5
7271
330
17
100
AcDbEntity
  8
D-STR
 48
0.5
100
AcDbPolyline
 90
       17
 70
     1
 43
0.0
 10
15973.14582390878
 20
10918.78372150458
 10
15895.14582390878
 20
10918.78372150458
 10
15895.14582390878
 20
10868.78372150458
 10
15665.14582390877
 20
10368.78372150458
 10
15665.14582390877
 20
10318.78372150458
 10
15681.64582390878
 20
10318.78372150458
 42
0.4285714285715862
 10
15723.64582390879
 20
10318.78372150459
 10
16190.14582390878
 20
10318.78372150458
 10
16656.64582390878
 20
10318.78372150458
 42
0.4285714285717472
 10
16698.64582390879
 20
10318.78372150459
 10
16715.14582390877
 20
10318.78372150459
 10
16715.14582390877
 20
10918.78372150458
 10
16637.14582390878
 20
10918.78372150458
 10
16631.14582390877
 20
10903.78372150458
 10
16605.14582390877
 20
10903.78372150458
 10
16005.14582390878
 20
10903.78372150458
 10
15979.14582390878
 20
10903.78372150458
  0
LWPOLYLINE
  5
7276
330
17
100
AcDbEntity
  8
D-STR
 48
0.5
100
AcDbPolyline
 90
        3
 70
     0
 43
0.0
 10
15740.14582390877
 20
10318.78372150458
 10
16000.14582390878
 20
10868.78372150458
 10
16005.14582390878
 20
10903.78372150458
  0
TEXT
  5
7278
330
17
100
AcDbEntity
  8
D-STR-TXT
100
AcDbText
 10
12360.01157672752
 20
10679.40342650568
 30
0.0
 40
150.0
  1
300
  7
ＭＳ ゴシック
100
AcDbText
  0
TEXT
  5
7279
330
17
100
AcDbEntity
  8
D-STR-TXT
100
AcDbText
 10
14288.73129265339
 20
10679.40342650568
 30
0.0
 40
150.0
  1
450
  7
ＭＳ ゴシック
100
AcDbText
  0
TEXT
  5
727A
330
17
100
AcDbEntity
  8
D-STR-TXT
100
AcDbText
 10
16136.09052972038
 20
10679.40342650568
 30
0.0
 40
150.0
  1
600
  7
ＭＳ ゴシック
100
AcDbText
  0
LWPOLYLINE
  5
727B
330
17
100
AcDbEntity
  8
D-STR
 48
0.5
100
AcDbPolyline
 90
        3
 70
     0
 43
0.0
 10
13847.66807093462
 20
16770.79102848379
 10
13817.66807093462
 20
17320.79102848379
 10
13812.66807093462
 20
17355.79102848379
  0
LWPOLYLINE
  5
727D
330
17
100
AcDbEntity
  8
D-STR
 48
0.5
100
AcDbPolyline
 90
        3
 70
     0
 43
0.0
 10
12947.66807093462
 20
16770.79102848379
 10
13207.66807093462
 20
17320.79102848379
 10
13212.66807093462
 20
17355.79102848379
  0
LINE
  5
7280
330
17
100
AcDbEntity
  8
D-BMK
 48
0.3
100
AcDbLine
 10
13512.66807093462
 20
17923.83521471504
 30
0.0
 11
13512.66807093462
 21
16650.62240287973
 31
0.0
  0
LWPOLYLINE
  5
72A4
330
17
100
AcDbEntity
  8
D-STR
100
AcDbPolyline
 90
        6
 70
     0
 43
0.0
 10
13102.66807093462
 20
17370.79102848379
 10
13181.89456824272
 20
17370.79102848379
 10
13187.66807093462
 20
17360.79102848379
 10
13837.66807093462
 20
17360.79102848379
 10
13843.44157362651
 20
17370.79102848379
 10
13922.66807093462
 20
17370.79102848379
  0
LWPOLYLINE
  5
72F1
330
17
100
AcDbEntity
  8
D-STR
 48
0.5
100
AcDbPolyline
 90
       17
 70
     1
 43
0.0
 10
13180.66807093462
 20
17370.79102848379
 10
13102.66807093462
 20
17370.79102848379
 10
13102.66807093462
 20
17320.79102848379
 10
12872.66807093462
 20
16820.79102848379
 10
12872.66807093462
 20
16770.79102848379
 10
12889.16807093462
 20
16770.79102848379
 42
0.4285714285715862
 10
12931.16807093463
 20
16770.7910284838
 10
13397.66807093462
 20
16770.79102848379
 10
13864.16807093462
 20
16770.79102848379
 42
0.4285714285717472
 10
13906.16807093463
 20
16770.7910284838
 10
13922.66807093462
 20
16770.7910284838
 10
13922.66807093462
 20
17370.79102848379
 10
13844.66807093462
 20
17370.79102848379
 10
13838.66807093462
 20
17355.79102848379
 10
13812.66807093462
 20
17355.79102848379
 10
13212.66807093462
 20
17355.79102848379
 10
13186.66807093462
 20
17355.79102848379
  0
LWPOLYLINE
  5
72F2
330
17
100
AcDbEntity
  8
D-STR
100
AcDbPolyline
 90
        6
 70
     0
 43
0.0
 10
13102.66807093462
 20
17520.79102848379
 10
13181.89456824272
 20
17520.79102848379
 10
13187.66807093462
 20
17510.79102848379
 10
13837.66807093462
 20
17510.79102848379
 10
13843.44157362651
 20
17520.79102848379
 10
13922.66807093462
 20
17520.79102848379
  0
LINE
  5
72F3
330
17
100
AcDbEntity
  8
D-STR
100
AcDbLine
 10
13102.66807093462
 20
17370.79102848379
 30
0.0
 11
13102.66807093462
 21
17520.79102848379
 31
0.0
  0
LINE
  5
72F4
330
17
100
AcDbEntity
  8
D-STR
100
AcDbLine
 10
13212.66807093462
 20
17360.79102848379
 30
0.0
 11
13212.66807093462
 21
17510.79102848379
 31
0.0
  0
LINE
  5
72F5
330
17
100
AcDbEntity
  8
D-STR
100
AcDbLine
 10
13922.66807093461
 20
17370.79102848379
 30
0.0
 11
13922.66807093461
 21
17520.79102848379
 31
0.0
  0
LINE
  5
72F6
330
17
100
AcDbEntity
  8
D-STR
100
AcDbLine
 10
13812.66807093461
 20
17360.79102848379
 30
0.0
 11
13812.66807093461
 21
17510.79102848379
 31
0.0
  0
INSERT
  5
7332
330
17
100
AcDbEntity
  8
D-STR-TXT
100
AcDbBlockReference
  2
蓋・受け枠
 10
13922.66807093461
 20
17520.79102848379
 30
0.0
  0
DIMENSION
  5
7333
330
17
100
AcDbEntity
  8
D-STR-TXT
100
AcDbDimension
  2
*D25
 10
15548.60825286252
 20
13470.7910284838
 30
0.0
 11
15421.10825286251
 21
13405.7910284838
 31
0.0
 70
    32
 71
     5
 42
130.0
  3
S-50
100
AcDbAlignedDimension
 13
13962.66807093462
 23
13340.7910284838
 33
0.0
 14
13922.66807093462
 24
13470.7910284838
 34
0.0
 50
90.0
100
AcDbRotatedDimension
  0
DIMENSION
  5
7341
330
17
100
AcDbEntity
  8
D-STR-TXT
100
AcDbDimension
  2
*D26
 10
15135.5434756821
 20
15570.7910284838
 30
0.0
 11
15008.04347568209
 21
14520.7910284838
 31
0.0
 70
    32
 71
     5
 42
2100.0
  3
S-50
100
AcDbAlignedDimension
 13
13922.66807093462
 23
13470.7910284838
 33
0.0
 14
13922.66807093462
 24
15570.7910284838
 34
0.0
 50
90.0
100
AcDbRotatedDimension
  0
DIMENSION
  5
734E
330
17
100
AcDbEntity
  8
D-STR-TXT
100
AcDbDimension
  2
*D27
 10
15135.5434756821
 20
16770.7910284838
 30
0.0
 11
15008.04347568209
 21
16170.7910284838
 31
0.0
 70
    32
 71
     5
 42
1200.0
  3
S-50
100
AcDbAlignedDimension
 13
13922.66807093462
 23
15570.7910284838
 33
0.0
 14
13922.66807093462
 24
16770.7910284838
 34
0.0
 50
90.0
100
AcDbRotatedDimension
  0
DIMENSION
  5
735B
330
17
100
AcDbEntity
  8
D-STR-TXT
100
AcDbDimension
  2
*D28
 10
15135.5434756821
 20
17370.79102848379
 30
0.0
 11
15008.04347568209
 21
17070.7910284838
 31
0.0
 70
    32
 71
     5
 42
599.999999999989
  3
S-50
100
AcDbAlignedDimension
 13
13922.66807093462
 23
16770.7910284838
 33
0.0
 14
13922.66807093462
 24
17370.79102848379
 34
0.0
 50
90.0
100
AcDbRotatedDimension
  0
DIMENSION
  5
7368
330
17
100
AcDbEntity
  8
D-STR-TXT
100
AcDbDimension
  2
*D29
 10
15135.5434756821
 20
17520.79102848379
 30
0.0
 11
15008.04347568209
 21
17445.79102848379
 31
0.0
 70
    32
 71
     5
 42
150.0
  3
S-50
100
AcDbAlignedDimension
 13
13922.66807093462
 23
17370.79102848379
 33
0.0
 14
13922.66807093461
 24
17520.79102848379
 34
0.0
 50
90.0
100
AcDbRotatedDimension
  0
DIMENSION
  5
7376
330
17
100
AcDbEntity
  8
D-STR-TXT
100
AcDbDimension
  2
*D30
 10
15135.5434756821
 20
17630.79102848379
 30
0.0
 11
15265.76880357371
 21
17575.7910284838
 31
0.0
 70
   160
 71
     5
 42
110.0
  3
S-50
100
AcDbAlignedDimension
 13
13922.66807093461
 23
17520.79102848379
 33
0.0
 14
13812.66807093461
 24
17630.79102848379
 34
0.0
 50
90.0
100
AcDbRotatedDimension
  0
DIMENSION
  5
738E
330
17
100
AcDbEntity
  8
D-STR-TXT
100
AcDbDimension
  2
*D31
 10
13847.66807093462
 20
14828.02544310057
 30
0.0
 11
13397.66807093462
 21
14955.52544310057
 31
0.0
 70
    32
 71
     5
 42
900.0
  3
S-50
100
AcDbAlignedDimension
 13
12947.66807093462
 23
15120.7910284838
 33
0.0
 14
13847.66807093462
 24
15120.7910284838
 34
0.0
100
AcDbRotatedDimension
  0
DIMENSION
  5
739B
330
17
100
AcDbEntity
  8
D-STR-TXT
100
AcDbDimension
  2
*D32
 10
13922.66807093462
 20
14828.02544310057
 30
0.0
 11
14063.89872695058
 21
14955.52544310057
 31
0.0
 70
   160
 71
     5
 42
75.0
  3
S-50
100
AcDbAlignedDimension
 13
13847.66807093462
 23
15120.7910284838
 33
0.0
 14
13922.66807093462
 24
15120.7910284838
 34
0.0
100
AcDbRotatedDimension
  0
DIMENSION
  5
73B3
330
17
100
AcDbEntity
  8
D-STR-TXT
100
AcDbDimension
  2
*D33
 10
12872.66807093462
 20
14828.02544310057
 30
0.0
 11
12731.43741491865
 21
14955.52544310057
 31
0.0
 70
   160
 71
     5
 42
75.0
  3
S-50
100
AcDbAlignedDimension
 13
12947.66807093462
 23
15120.7910284838
 33
0.0
 14
12872.66807093462
 24
15120.7910284838
 34
0.0
 50
180.0
100
AcDbRotatedDimension
  0
DIMENSION
  5
73CB
330
17
100
AcDbEntity
  8
D-STR-TXT
100
AcDbDimension
  2
*D34
 10
13812.66807093461
 20
18215.13440743246
 30
0.0
 11
13512.66807093461
 21
18342.63440743247
 31
0.0
 70
    32
 71
     5
 42
600.0
  3
S-50
100
AcDbAlignedDimension
 13
13212.66807093461
 23
17630.79102848379
 33
0.0
 14
13812.66807093461
 24
17630.79102848379
 34
0.0
100
AcDbRotatedDimension
  0
DIMENSION
  5
73E6
330
17
100
AcDbEntity
  8
D-STR-TXT
100
AcDbDimension
  2
*D36
 10
13922.66807093461
 20
18215.13440743246
 30
0.0
 11
13867.66807093462
 21
18342.63440743247
 31
0.0
 70
    32
 71
     5
 42
110.0
  3
S-50
100
AcDbAlignedDimension
 13
13812.66807093461
 23
17630.79102848379
 33
0.0
 14
13922.66807093461
 24
17630.79102848379
 34
0.0
100
AcDbRotatedDimension
  0
DIMENSION
  5
73F4
330
17
100
AcDbEntity
  8
D-STR-TXT
100
AcDbDimension
  2
*D37
 10
13102.66807093461
 20
18215.13440743246
 30
0.0
 11
13157.66807093461
 21
18342.63440743247
 31
0.0
 70
    32
 71
     5
 42
110.0
  3
S-50
100
AcDbAlignedDimension
 13
13212.66807093461
 23
17630.79102848379
 33
0.0
 14
13102.66807093461
 24
17630.79102848379
 34
0.0
100
AcDbRotatedDimension
  0
DIMENSION
  5
7402
330
17
100
AcDbEntity
  8
D-STR-TXT
100
AcDbDimension
  2
*D38
 10
13397.66807093462
 20
16264.76007628046
 30
0.0
 11
13455.16807093462
 21
16392.26007628046
 31
0.0
 70
    32
 71
     5
 42
115.0
  3
S-50
100
AcDbAlignedDimension
 13
13512.66807093462
 23
16650.62240287973
 33
0.0
 14
13397.66807093462
 24
16770.79102848379
 34
0.0
100
AcDbRotatedDimension
  0
DIMENSION
  5
7410
330
17
100
AcDbEntity
  8
D-STR-TXT
100
AcDbDimension
  2
*D39
 10
15548.60825286252
 20
17630.79102848379
 30
0.0
 11
15421.10825286252
 21
15550.7910284838
 31
0.0
 70
    32
 71
     5
 42
4159.999999999989
  3
S-50
100
AcDbAlignedDimension
 13
13922.66807093462
 23
13470.7910284838
 33
0.0
 14
13812.66807093461
 24
17630.79102848379
 34
0.0
 50
90.0
100
AcDbRotatedDimension
  0
ENDSEC
  0
SECTION
  2
OBJECTS
  0
DICTIONARY
  5
C
330
0
100
AcDbDictionary
281
     1
  3
ACAD_COLOR
350
5EB0
  3
ACAD_GROUP
350
D
  3
ACAD_LAYOUT
350
3A33
  3
ACAD_MATERIAL
350
5EAF
  3
ACAD_MLINESTYLE
350
1A
  3
ACAD_PLOTSETTINGS
350
3A34
  3
ACAD_PLOTSTYLENAME
350
3A31
  3
ACAD_TABLESTYLE
350
5EB1
  3
ACDBHEADERROUNDTRIPXREC
350
7437
  3
AcDbVariableDictionary
350
3A82
  3
DWGPROPS
350
7436
  0
DICTIONARY
  5
3B1C
330
2
100
AcDbDictionary
280
     1
281
     1
  3
ACAD_LAYERFILTERS
360
6D20
  3
ACLYDICTIONARY
360
6D1F
  0
DICTIONARY
  5
3A7C
330
17
100
AcDbDictionary
280
     1
281
     1
  3
ACAD_LAYOUTSELFREF
360
5EA7
  3
ACAD_SORTENTS
360
5350
  0
DICTIONARY
  5
3A7A
330
14
100
AcDbDictionary
280
     1
281
     1
  3
ACAD_LAYOUTSELFREF
360
5EA6
  0
DICTIONARY
  5
5EB0
102
{ACAD_REACTORS
330
C
102
}
330
C
100
AcDbDictionary
281
     1
  0
DICTIONARY
  5
D
102
{ACAD_REACTORS
330
C
102
}
330
C
100
AcDbDictionary
281
     1
  0
DICTIONARY
  5
3A33
102
{ACAD_REACTORS
330
C
102
}
330
C
100
AcDbDictionary
281
     1
  3
Model
350
3A35
  3
ﾚｲｱｳﾄ1
350
3A36
  0
DICTIONARY
  5
5EAF
102
{ACAD_REACTORS
330
C
102
}
330
C
100
AcDbDictionary
281
     1
  0
DICTIONARY
  5
1A
102
{ACAD_REACTORS
330
C
102
}
330
C
100
AcDbDictionary
281
     1
  3
STANDARD
350
1B
  0
DICTIONARY
  5
3A34
102
{ACAD_REACTORS
330
C
102
}
330
C
100
AcDbDictionary
281
     1
  0
ACDBDICTIONARYWDFLT
  5
3A31
102
{ACAD_REACTORS
330
C
102
}
330
C
100
AcDbDictionary
281
     1
  3
Normal
350
3A32
100
AcDbDictionaryWithDefault
340
3A32
  0
DICTIONARY
  5
5EB1
102
{ACAD_REACTORS
330
C
102
}
330
C
100
AcDbDictionary
281
     1
  3
Standard
350
5EB2
  0
DICTIONARY
  5
7437
102
{ACAD_REACTORS
330
C
102
}
330
C
100
AcDbDictionary
281
     1
  0
DICTIONARY
  5
3A82
102
{ACAD_REACTORS
330
C
102
}
330
C
100
AcDbDictionary
281
     1
  3
CTABLESTYLE
350
5EC7
  3
DIMASSOC
350
3A83
  3
PROJECTNAME
350
5EC8
  3
SORTENTS
350
5351
  0
XRECORD
  5
7436
102
{ACAD_REACTORS
330
C
102
}
330
C
100
AcDbXrecord
280
     1
  1
DWGPROPS COOKIE
  2

  3

  4

  6

  7

  8
imai
  9

300
=
301
=
302
=
303
=
304
=
305
=
306
=
307
=
308
=
309
=
 40
0.4716639467592593
 41
2450010.607337963
 42
2456189.563506216
  1

 90
        0
  0
DICTIONARY
  5
6D20
102
{ACAD_REACTORS
330
3B1C
102
}
330
3B1C
100
AcDbDictionary
281
     1
  3
50
350
6D22
  3
hat
350
6D24
  3
kabe
350
6D26
  3
kijun
350
6D28
  3
setubi
350
6D2A
  3
siage
350
6D2C
  3
tategu
350
6D2E
  3
梁
350
6D30
  0
DICTIONARY
  5
6D1F
102
{ACAD_REACTORS
330
3B1C
102
}
330
3B1C
100
AcDbDictionary
281
     1
  3
*A1
350
6D21
  3
*A2
350
6D23
  3
*A3
350
6D25
  3
*A4
350
6D27
  3
*A5
350
6D29
  3
*A6
350
6D2B
  3
*A7
350
6D2D
  3
*A8
350
6D2F
1001
ACAD
1000
<All
  0
XRECORD
  5
5EA7
102
{ACAD_REACTORS
330
3A7C
102
}
330
3A7C
100
AcDbXrecord
280
     1
340
17
  0
SORTENTSTABLE
  5
5350
102
{ACAD_REACTORS
330
3A7C
102
}
330
3A7C
100
AcDbSortentsTable
330
17
331
7025
  5
7026
331
7251
  5
72A8
331
7022
  5
7022
331
72F4
  5
72F4
331
72F1
  5
72F1
331
73
  5
51D5
331
7224
  5
710F
331
7276
  5
72C5
331
6A0C
  5
6A06
331
7279
  5
72E0
331
5EF2
  5
6A09
331
7026
  5
7024
331
7023
  5
7025
331
724C
  5
72C2
331
6FDE
  5
6FED
331
72F5
  5
72F5
331
72F2
  5
72F2
331
722B
  5
7115
331
72A4
  5
72F0
331
6A0D
  5
6A05
331
7280
  5
72E6
331
7271
  5
72C4
331
727D
  5
72E4
331
727A
  5
72E1
331
5EF3
  5
6A0C
331
7024
  5
7023
331
7021
  5
7021
331
724A
  5
72A7
331
72F6
  5
72F6
331
72F3
  5
72F3
331
7226
  5
7112
331
726F
  5
72C3
331
727B
  5
72E2
331
5FBA
  5
6A0D
331
6A02
  5
51D7
331
7278
  5
72DF
331
702E
  5
702E
  0
XRECORD
  5
5EA6
102
{ACAD_REACTORS
330
3A7A
102
}
330
3A7A
100
AcDbXrecord
280
     1
340
14
  0
LAYOUT
  5
3A35
102
{ACAD_XDICTIONARY
360
7438
102
}
102
{ACAD_REACTORS
330
3A33
102
}
330
3A33
100
AcDbPlotSettings
  1

  2
RICOH SP9II RPDL.pc3
  4
A3
  6

 40
5.873749732971191
 41
5.873758316040039
 42
4.349761962890625
 43
8.159759521484375
 44
420.1159973144531
 45
296.9259948730469
 46
0.0
 47
0.0
 48
0.0
 49
0.0
140
0.0
141
0.0
142
1.0
143
7502.175706480581
 70
 11952
 72
     0
 73
     0
 74
     0
  7
acad.ctb
 75
     0
147
0.0001332946653244
148
620250.6491077151
149
88199.04588441564
100
AcDbLayout
  1
Model
 70
     1
 71
     0
 10
0.0
 20
0.0
 11
12.0
 21
9.0
 12
0.0
 22
0.0
 32
0.0
 14
0.0
 24
0.0
 34
0.0
 15
0.0
 25
0.0
 35
0.0
146
0.0
 13
0.0
 23
0.0
 33
0.0
 16
1.0
 26
0.0
 36
0.0
 17
0.0
 27
1.0
 37
0.0
 76
     0
330
17
  0
LAYOUT
  5
3A36
102
{ACAD_XDICTIONARY
360
743A
102
}
102
{ACAD_REACTORS
330
3A33
102
}
330
3A33
100
AcDbPlotSettings
  1

  2
C:\PROGRAM FILES\MDT6\plotters\RICOH SP9II RPDL.pc3
  4

  6

 40
0.0
 41
0.0
 42
0.0
 43
0.0
 44
0.0
 45
0.0
 46
0.0
 47
0.0
 48
0.0
 49
0.0
140
0.0
141
0.0
142
1.0
143
1.0
 70
   688
 72
     0
 73
     0
 74
     5
  7
acad.ctb
 75
    16
147
1.0
148
0.0
149
0.0
100
AcDbLayout
  1
ﾚｲｱｳﾄ1
 70
     0
 71
     1
 10
0.0
 20
0.0
 11
12.0
 21
9.0
 12
0.0
 22
0.0
 32
0.0
 14
1.000000000000000E+20
 24
1.000000000000000E+20
 34
1.000000000000000E+20
 15
-1.000000000000000E+20
 25
-1.000000000000000E+20
 35
-1.000000000000000E+20
146
0.0
 13
0.0
 23
0.0
 33
0.0
 16
1.0
 26
0.0
 36
0.0
 17
0.0
 27
1.0
 37
0.0
 76
     0
330
14
  0
MLINESTYLE
  5
1B
102
{ACAD_REACTORS
330
1A
102
}
330
1A
100
AcDbMlineStyle
  2
STANDARD
 70
     0
  3

 62
   256
 51
90.0
 52
90.0
 71
     2
 49
0.5
 62
   256
  6
BYLAYER
 49
-0.5
 62
   256
  6
BYLAYER
  0
ACDBPLACEHOLDER
  5
3A32
102
{ACAD_REACTORS
330
3A31
102
}
330
3A31
  0
TABLESTYLE
  5
5EB2
102
{ACAD_REACTORS
330
5EB1
102
}
330
5EB1
100
AcDbTableStyle
  3
Standard
 70
     0
 71
     0
 40
0.06
 41
0.06
280
     0
281
     0
  7
STANDARD
140
0.18
170
     2
 62
     0
 63
     7
283
     0
274
    -2
284
     1
 64
     0
275
    -2
285
     1
 65
     0
276
    -2
286
     1
 66
     0
277
    -2
287
     1
 67
     0
278
    -2
288
     1
 68
     0
279
    -2
289
     1
 69
     0
  7
STANDARD
140
0.25
170
     5
 62
     0
 63
     7
283
     0
274
    -2
284
     1
 64
     0
275
    -2
285
     1
 65
     0
276
    -2
286
     1
 66
     0
277
    -2
287
     1
 67
     0
278
    -2
288
     1
 68
     0
279
    -2
289
     1
 69
     0
  7
STANDARD
140
0.18
170
     5
 62
     0
 63
     7
283
     0
274
    -2
284
     1
 64
     0
275
    -2
285
     1
 65
     0
276
    -2
286
     1
 66
     0
277
    -2
287
     1
 67
     0
278
    -2
288
     1
 68
     0
279
    -2
289
     1
 69
     0
  0
DICTIONARYVAR
  5
5EC7
102
{ACAD_REACTORS
330
3A82
102
}
330
3A82
100
DictionaryVariables
280
     0
  1
STANDARD
  0
DICTIONARYVAR
  5
3A83
102
{ACAD_REACTORS
330
3A82
102
}
330
3A82
100
DictionaryVariables
280
     0
  1
1
  0
DICTIONARYVAR
  5
5EC8
102
{ACAD_REACTORS
330
3A82
102
}
330
3A82
100
DictionaryVariables
280
     0
  1

  0
DICTIONARYVAR
  5
5351
102
{ACAD_REACTORS
330
3A82
102
}
330
3A82
100
DictionaryVariables
280
     0
  1
127
  0
XRECORD
  5
6D22
102
{ACAD_REACTORS
330
6D20
102
}
330
6D20
100
AcDbXrecord
280
     1
  1
50
  1
*50*
  1
*
  1
*
 70
     0
  1
*
  1
*
1001
ACAD
1000
( NAME== "*50*" )
  0
XRECORD
  5
6D24
102
{ACAD_REACTORS
330
6D20
102
}
330
6D20
100
AcDbXrecord
280
     1
  1
hat
  1
*hat*
  1
*
  1
*
 70
     0
  1
*
  1
*
1001
ACAD
1000
( NAME== "*hat*" )
  0
XRECORD
  5
6D26
102
{ACAD_REACTORS
330
6D20
102
}
330
6D20
100
AcDbXrecord
280
     1
  1
kabe
  1
*kabe*
  1
*
  1
*
 70
     0
  1
*
  1
*
1001
ACAD
1000
( NAME== "*kabe*" )
  0
XRECORD
  5
6D28
102
{ACAD_REACTORS
330
6D20
102
}
330
6D20
100
AcDbXrecord
280
     1
  1
kijun
  1
*kijun*
  1
*
  1
*
 70
     0
  1
*
  1
*
1001
ACAD
1000
( NAME== "*kijun*" )
  0
XRECORD
  5
6D2A
102
{ACAD_REACTORS
330
6D20
102
}
330
6D20
100
AcDbXrecord
280
     1
  1
setubi
  1
*setubi*
  1
*
  1
*
 70
     0
  1
*
  1
*
1001
ACAD
1000
( NAME== "*setubi*" )
  0
XRECORD
  5
6D2C
102
{ACAD_REACTORS
330
6D20
102
}
330
6D20
100
AcDbXrecord
280
     1
  1
siage
  1
*siage*
  1
*
  1
*
 70
     0
  1
*
  1
*
1001
ACAD
1000
( NAME== "*siage*" )
  0
XRECORD
  5
6D2E
102
{ACAD_REACTORS
330
6D20
102
}
330
6D20
100
AcDbXrecord
280
     1
  1
tategu
  1
*tategu*
  1
*
  1
*
 70
     0
  1
*
  1
*
1001
ACAD
1000
( NAME== "*tategu*" )
  0
XRECORD
  5
6D30
102
{ACAD_REACTORS
330
6D20
102
}
330
6D20
100
AcDbXrecord
280
     1
  1
梁
  1
*梁*
  1
*
  1
*
 70
     0
  1
*
  1
*
1001
ACAD
1000
( NAME== "*梁*" )
  0
XRECORD
  5
6D21
102
{ACAD_REACTORS
330
6D1F
102
}
330
6D1F
100
AcDbXrecord
280
     1
  1
AcLyLayerFilter
 90
        1
300
50
301
( NAME== "*50*" )
  0
XRECORD
  5
6D23
102
{ACAD_REACTORS
330
6D1F
102
}
330
6D1F
100
AcDbXrecord
280
     1
  1
AcLyLayerFilter
 90
        1
300
hat
301
( NAME== "*hat*" )
  0
XRECORD
  5
6D25
102
{ACAD_REACTORS
330
6D1F
102
}
330
6D1F
100
AcDbXrecord
280
     1
  1
AcLyLayerFilter
 90
        1
300
kabe
301
( NAME== "*kabe*" )
  0
XRECORD
  5
6D27
102
{ACAD_REACTORS
330
6D1F
102
}
330
6D1F
100
AcDbXrecord
280
     1
  1
AcLyLayerFilter
 90
        1
300
kijun
301
( NAME== "*kijun*" )
  0
XRECORD
  5
6D29
102
{ACAD_REACTORS
330
6D1F
102
}
330
6D1F
100
AcDbXrecord
280
     1
  1
AcLyLayerFilter
 90
        1
300
setubi
301
( NAME== "*setubi*" )
  0
XRECORD
  5
6D2B
102
{ACAD_REACTORS
330
6D1F
102
}
330
6D1F
100
AcDbXrecord
280
     1
  1
AcLyLayerFilter
 90
        1
300
siage
301
( NAME== "*siage*" )
  0
XRECORD
  5
6D2D
102
{ACAD_REACTORS
330
6D1F
102
}
330
6D1F
100
AcDbXrecord
280
     1
  1
AcLyLayerFilter
 90
        1
300
tategu
301
( NAME== "*tategu*" )
  0
XRECORD
  5
6D2F
102
{ACAD_REACTORS
330
6D1F
102
}
330
6D1F
100
AcDbXrecord
280
     1
  1
AcLyLayerFilter
 90
        1
300
梁
301
( NAME== "*梁*" )
  0
DICTIONARY
  5
7438
330
3A35
100
AcDbDictionary
280
     1
281
     1
  3
ACAD_XREC_ROUNDTRIP
360
7439
  0
DICTIONARY
  5
743A
330
3A36
100
AcDbDictionary
280
     1
281
     1
  3
ACAD_XREC_ROUNDTRIP
360
743B
  0
XRECORD
  5
7439
102
{ACAD_REACTORS
330
7438
102
}
330
7438
100
AcDbXrecord
280
     1
102
SHADEPLOT
 70
     0
102
SHADEPLOTRESLEVEL
 70
     2
102
SHADEPLOTCUSTOMDPI
 70
   300
  0
XRECORD
  5
743B
102
{ACAD_REACTORS
330
743A
102
}
330
743A
100
AcDbXrecord
280
     1
102
SHADEPLOT
 70
     0
102
SHADEPLOTRESLEVEL
 70
     2
102
SHADEPLOTCUSTOMDPI
 70
   300
  0
ENDSEC
  0
EOF
