  0
SECTION
  2
HEADER
  9
$ACADVER
  1
AC1018
  9
$ACADMAINTVER
 70
     0
  9
$DWGCODEPAGE
  3
ANSI_932
  9
$LASTSAVEDBY
  1
shinwa
  9
$INSBASE
 10
0.0
 20
0.0
 30
0.0
  9
$EXTMIN
 10
0.0
 20
400.0
 30
0.0
  9
$EXTMAX
 10
7312.796081
 20
5415.067432
 30
0.0
  9
$LIMMIN
 10
0.0
 20
0.0
  9
$LIMMAX
 10
8400.0
 20
5940.0
  9
$ORTHOMODE
 70
     0
  9
$REGENMODE
 70
     1
  9
$FILLMODE
 70
     1
  9
$QTEXTMODE
 70
     0
  9
$MIRRTEXT
 70
     1
  9
$LTSCALE
 40
3.0
  9
$ATTMODE
 70
     1
  9
$TEXTSIZE
 40
100.0
  9
$TRACEWID
 40
1.0
  9
$TEXTSTYLE
  7
STYLE2
  9
$CLAYER
  8
寸法
  9
$CELTYPE
  6
BYLAYER
  9
$CECOLOR
 62
   256
  9
$CELTSCALE
 40
1.0
  9
$DISPSILH
 70
     0
  9
$DIMSCALE
 40
20.0
  9
$DIMASZ
 40
1.0
  9
$DIMEXO
 40
1.0
  9
$DIMDLI
 40
3.75
  9
$DIMRND
 40
0.0
  9
$DIMDLE
 40
0.0
  9
$DIMEXE
 40
0.5
  9
$DIMTP
 40
0.0
  9
$DIMTM
 40
0.0
  9
$DIMTXT
 40
2.5
  9
$DIMCEN
 40
1.5
  9
$DIMTSZ
 40
0.0
  9
$DIMTOL
 70
     0
  9
$DIMLIM
 70
     0
  9
$DIMTIH
 70
     0
  9
$DIMTOH
 70
     0
  9
$DIMSE1
 70
     0
  9
$DIMSE2
 70
     0
  9
$DIMTAD
 70
     1
  9
$DIMZIN
 70
     8
  9
$DIMBLK
  1

  9
$DIMASO
 70
     1
  9
$DIMSHO
 70
     1
  9
$DIMPOST
  1

  9
$DIMAPOST
  1

  9
$DIMALT
 70
     0
  9
$DIMALTD
 70
     4
  9
$DIMALTF
 40
0.0394
  9
$DIMLFAC
 40
1.0
  9
$DIMTOFL
 70
     1
  9
$DIMTVP
 40
0.0
  9
$DIMTIX
 70
     0
  9
$DIMSOXD
 70
     0
  9
$DIMSAH
 70
     1
  9
$DIMBLK1
  1
OPEN
  9
$DIMBLK2
  1
OPEN
  9
$DIMSTYLE
  2
STANDARD_WS
  9
$DIMCLRD
 70
     0
  9
$DIMCLRE
 70
     0
  9
$DIMCLRT
 70
     0
  9
$DIMTFAC
 40
1.0
  9
$DIMGAP
 40
0.625
  9
$DIMJUST
 70
     0
  9
$DIMSD1
 70
     0
  9
$DIMSD2
 70
     0
  9
$DIMTOLJ
 70
     1
  9
$DIMTZIN
 70
     0
  9
$DIMALTZ
 70
     0
  9
$DIMALTTZ
 70
     0
  9
$DIMUPT
 70
     0
  9
$DIMDEC
 70
     0
  9
$DIMTDEC
 70
     0
  9
$DIMALTU
 70
     8
  9
$DIMALTTD
 70
     4
  9
$DIMTXSTY
  7
DIM
  9
$DIMAUNIT
 70
     0
  9
$DIMADEC
 70
     0
  9
$DIMALTRND
 40
0.0
  9
$DIMAZIN
 70
     0
  9
$DIMDSEP
 70
    46
  9
$DIMATFIT
 70
     3
  9
$DIMFRAC
 70
     0
  9
$DIMLDRBLK
  1
OPEN
  9
$DIMLUNIT
 70
     2
  9
$DIMLWD
 70
    -2
  9
$DIMLWE
 70
    -2
  9
$DIMTMOVE
 70
     2
  9
$LUNITS
 70
     2
  9
$LUPREC
 70
     4
  9
$SKETCHINC
 40
1.0
  9
$FILLETRAD
 40
26.5
  9
$AUNITS
 70
     0
  9
$AUPREC
 70
     0
  9
$MENU
  1
acad
  9
$ELEVATION
 40
0.0
  9
$PELEVATION
 40
0.0
  9
$THICKNESS
 40
0.0
  9
$LIMCHECK
 70
     0
  9
$CHAMFERA
 40
9.0
  9
$CHAMFERB
 40
9.0
  9
$CHAMFERC
 40
200.0
  9
$CHAMFERD
 40
1.186824
  9
$SKPOLY
 70
     0
  9
$TDCREATE
 40
2451431.582333449
  9
$TDUCREATE
 40
2451431.207333449
  9
$TDUPDATE
 40
2457955.411460995
  9
$TDUUPDATE
 40
2457955.036460995
  9
$TDINDWG
 40
4.7496655093
  9
$TDUSRTIMER
 40
4.7496655093
  9
$USRTIMER
 70
     1
  9
$ANGBASE
 50
0.0
  9
$ANGDIR
 70
     0
  9
$PDMODE
 70
     0
  9
$PDSIZE
 40
0.0
  9
$PLINEWID
 40
0.0
  9
$SPLFRAME
 70
     0
  9
$SPLINETYPE
 70
     6
  9
$SPLINESEGS
 70
     8
  9
$HANDSEED
  5
B5E8
  9
$SURFTAB1
 70
     6
  9
$SURFTAB2
 70
     6
  9
$SURFTYPE
 70
     6
  9
$SURFU
 70
     6
  9
$SURFV
 70
     6
  9
$UCSBASE
  2

  9
$UCSNAME
  2

  9
$UCSORG
 10
0.0
 20
0.0
 30
0.0
  9
$UCSXDIR
 10
1.0
 20
0.0
 30
0.0
  9
$UCSYDIR
 10
0.0
 20
1.0
 30
0.0
  9
$UCSORTHOREF
  2

  9
$UCSORTHOVIEW
 70
     0
  9
$UCSORGTOP
 10
0.0
 20
0.0
 30
0.0
  9
$UCSORGBOTTOM
 10
0.0
 20
0.0
 30
0.0
  9
$UCSORGLEFT
 10
0.0
 20
0.0
 30
0.0
  9
$UCSORGRIGHT
 10
0.0
 20
0.0
 30
0.0
  9
$UCSORGFRONT
 10
0.0
 20
0.0
 30
0.0
  9
$UCSORGBACK
 10
0.0
 20
0.0
 30
0.0
  9
$PUCSBASE
  2

  9
$PUCSNAME
  2

  9
$PUCSORG
 10
0.0
 20
0.0
 30
0.0
  9
$PUCSXDIR
 10
1.0
 20
0.0
 30
0.0
  9
$PUCSYDIR
 10
0.0
 20
1.0
 30
0.0
  9
$PUCSORTHOREF
  2

  9
$PUCSORTHOVIEW
 70
     0
  9
$PUCSORGTOP
 10
0.0
 20
0.0
 30
0.0
  9
$PUCSORGBOTTOM
 10
0.0
 20
0.0
 30
0.0
  9
$PUCSORGLEFT
 10
0.0
 20
0.0
 30
0.0
  9
$PUCSORGRIGHT
 10
0.0
 20
0.0
 30
0.0
  9
$PUCSORGFRONT
 10
0.0
 20
0.0
 30
0.0
  9
$PUCSORGBACK
 10
0.0
 20
0.0
 30
0.0
  9
$USERI1
 70
     0
  9
$USERI2
 70
     0
  9
$USERI3
 70
     0
  9
$USERI4
 70
     0
  9
$USERI5
 70
     0
  9
$USERR1
 40
0.0
  9
$USERR2
 40
0.0
  9
$USERR3
 40
0.0
  9
$USERR4
 40
0.0
  9
$USERR5
 40
0.0
  9
$WORLDVIEW
 70
     1
  9
$SHADEDGE
 70
     3
  9
$SHADEDIF
 70
    70
  9
$TILEMODE
 70
     1
  9
$MAXACTVP
 70
    48
  9
$PINSBASE
 10
0.0
 20
0.0
 30
0.0
  9
$PLIMCHECK
 70
     0
  9
$PEXTMIN
 10
1.000000000000000E+20
 20
1.000000000000000E+20
 30
1.000000000000000E+20
  9
$PEXTMAX
 10
-1.000000000000000E+20
 20
-1.000000000000000E+20
 30
-1.000000000000000E+20
  9
$PLIMMIN
 10
0.0
 20
0.0
  9
$PLIMMAX
 10
420.0
 20
297.0
  9
$UNITMODE
 70
     0
  9
$VISRETAIN
 70
     1
  9
$PLINEGEN
 70
     0
  9
$PSLTSCALE
 70
     1
  9
$TREEDEPTH
 70
  3020
  9
$CMLSTYLE
  2
STANDARD
  9
$CMLJUST
 70
     0
  9
$CMLSCALE
 40
20.0
  9
$PROXYGRAPHICS
 70
     1
  9
$MEASUREMENT
 70
     1
  9
$CELWEIGHT
370
    -1
  9
$ENDCAPS
280
     0
  9
$JOINSTYLE
280
     0
  9
$LWDISPLAY
290
     0
  9
$INSUNITS
 70
     0
  9
$HYPERLINKBASE
  1

  9
$STYLESHEET
  1

  9
$XEDIT
290
     1
  9
$CEPSNTYPE
380
     0
  9
$PSTYLEMODE
290
     0
  9
$FINGERPRINTGUID
  2
{1E720C51-FD86-4309-A457-44B517B80E2A}
  9
$VERSIONGUID
  2
{824A8B67-22F4-439B-8381-63EF509F6466}
  9
$EXTNAMES
290
     1
  9
$PSVPSCALE
 40
0.0
  9
$OLESTARTUP
290
     0
  9
$SORTENTS
280
   127
  9
$INDEXCTL
280
     0
  9
$HIDETEXT
280
     0
  9
$XCLIPFRAME
290
     0
  9
$HALOGAP
280
     0
  9
$OBSCOLOR
 70
   257
  9
$OBSLTYPE
280
     0
  9
$INTERSECTIONDISPLAY
280
     0
  9
$INTERSECTIONCOLOR
 70
   257
  9
$DIMASSOC
280
     1
  9
$PROJECTNAME
  1

  0
ENDSEC
  0
SECTION
  2
CLASSES
  0
CLASS
  1
DICTIONARYVAR
  2
AcDbDictionaryVar
  3
ObjectDBX Classes
 90
        0
 91
        4
280
     0
281
     0
  0
CLASS
  1
LWPOLYLINE
  2
AcDbPolyline
  3
AutoCAD 2000
 90
        0
 91
        1
280
     0
281
     1
  0
CLASS
  1
HATCH
  2
AcDbHatch
  3
AutoCAD 2000
 90
        0
 91
        1
280
     0
281
     1
  0
CLASS
  1
ACDBDICTIONARYWDFLT
  2
AcDbDictionaryWithDefault
  3
ObjectDBX Classes
 90
        0
 91
        4
280
     0
281
     0
  0
CLASS
  1
ACDBPLACEHOLDER
  2
AcDbPlaceHolder
  3
ObjectDBX Classes
 90
        0
 91
        1
280
     0
281
     0
  0
CLASS
  1
LAYOUT
  2
AcDbLayout
  3
ObjectDBX Classes
 90
        0
 91
        1
280
     0
281
     0
  0
CLASS
  1
DUMMY
  2
AcDbLongTransaction
  3
DUMMY
 90
        0
 91
        1
280
     0
281
     0
  0
CLASS
  1
LWPOLYLINE
  2
AcDbPolyline
  3
AutoCAD 2000
 90
        0
 91
        1
280
     0
281
     1
  0
CLASS
  1
HATCH
  2
AcDbHatch
  3
AutoCAD 2000
 90
        0
 91
        1
280
     0
281
     1
  0
CLASS
  1
XRECORD
  2
AcDbXrecord
  3
AutoCAD 2000
 90
        0
 91
        1
280
     0
281
     0
  0
CLASS
  1
MATERIAL
  2
AcDbMaterial
  3
ObjectDBX Classes
 90
     1153
 91
        4
280
     0
281
     0
  0
CLASS
  1
VISUALSTYLE
  2
AcDbVisualStyle
  3
ObjectDBX Classes
 90
     4095
 91
        4
280
     0
281
     0
  0
CLASS
  1
TABLESTYLE
  2
AcDbTableStyle
  3
ObjectDBX Classes
 90
     4095
 91
        4
280
     0
281
     0
  0
CLASS
  1
SCALE
  2
AcDbScale
  3
ObjectDBX Classes
 90
     1153
 91
        4
280
     0
281
     0
  0
CLASS
  1
MLEADERSTYLE
  2
AcDbMLeaderStyle
  3
ACDB_MLEADERSTYLE_CLASS
 90
     4095
 91
        4
280
     0
281
     0
  0
CLASS
  1
ACDBSECTIONVIEWSTYLE
  2
AcDbSectionViewStyle
  3
ObjectDBX Classes
 90
     1025
 91
        2
280
     1
281
     0
  0
CLASS
  1
ACDBDETAILVIEWSTYLE
  2
AcDbDetailViewStyle
  3
ObjectDBX Classes
 90
     1025
 91
        2
280
     1
281
     0
  0
CLASS
  1
CELLSTYLEMAP
  2
AcDbCellStyleMap
  3
ObjectDBX Classes
 90
     1152
 91
        4
280
     0
281
     0
  0
ENDSEC
  0
SECTION
  2
TABLES
  0
TABLE
  2
VPORT
  5
8
102
{ACAD_XDICTIONARY
360
B5AC
102
}
330
0
100
AcDbSymbolTable
 70
     1
  0
VPORT
  5
B450
330
8
100
AcDbSymbolTableRecord
100
AcDbViewportTableRecord
  2
*Active
 70
     0
 10
0.0
 20
0.0
 11
1.0
 21
1.0
 12
4426.3239510572
 22
2858.684676078981
 13
0.0
 23
0.0
 14
200.0
 24
200.0
 15
200.0
 25
200.0
 16
0.0
 26
0.0
 36
1.0
 17
0.0
 27
0.0
 37
0.0
 40
8580.142792202329
 41
1.560747663551402
 42
50.0
 43
0.0
 44
0.0
 50
0.0
 51
0.0
 71
     0
 72
   100
 73
     1
 74
     1
 75
     0
 76
     0
 77
     0
 78
     0
281
     0
 65
     1
110
0.0
120
0.0
130
0.0
111
1.0
121
0.0
131
0.0
112
0.0
122
1.0
132
0.0
 79
     0
146
0.0
1001
ACAD_NAV_VCDISPLAY
1070
     3
  0
ENDTAB
  0
TABLE
  2
LTYPE
  5
5
330
0
100
AcDbSymbolTable
 70
     3
  0
LTYPE
  5
12
330
5
100
AcDbSymbolTableRecord
100
AcDbLinetypeTableRecord
  2
BYBLOCK
 70
     0
  3

 72
    65
 73
     0
 40
0.0
  0
LTYPE
  5
13
330
5
100
AcDbSymbolTableRecord
100
AcDbLinetypeTableRecord
  2
BYLAYER
 70
     0
  3

 72
    65
 73
     0
 40
0.0
  0
LTYPE
  5
14
330
5
100
AcDbSymbolTableRecord
100
AcDbLinetypeTableRecord
  2
CONTINUOUS
 70
     0
  3
Solid line
 72
    65
 73
     0
 40
0.0
  0
LTYPE
  5
48D1
330
5
100
AcDbSymbolTableRecord
100
AcDbLinetypeTableRecord
  2
DASHED2
 70
     0
  3
Dashed (.5x) _ _ _ _ _ _ _ _ _ _ _ _ _ _ _ _ _
 72
    65
 73
     2
 40
9.525
 49
6.35
 74
     0
 49
-3.175
 74
     0
  0
LTYPE
  5
A8F5
330
5
100
AcDbSymbolTableRecord
100
AcDbLinetypeTableRecord
  2
CENTER2
 70
     0
  3
Center (.5x) ___ _ ___ _ ___ _ ___ _ ___ _ ___
 72
    65
 73
     4
 40
28.575
 49
19.05
 74
     0
 49
-3.175
 74
     0
 49
3.175
 74
     0
 49
-3.175
 74
     0
  0
ENDTAB
  0
TABLE
  2
LAYER
  5
2
102
{ACAD_XDICTIONARY
360
B4B9
102
}
330
0
100
AcDbSymbolTable
 70
     9
  0
LAYER
  5
E
102
{ACAD_XDICTIONARY
360
B4A6
102
}
330
2
100
AcDbSymbolTableRecord
100
AcDbLayerTableRecord
  2
0
 70
     0
 62
     7
  6
CONTINUOUS
370
    -3
390
B360
  0
LAYER
  5
38
102
{ACAD_XDICTIONARY
360
B4A8
102
}
330
2
100
AcDbSymbolTableRecord
100
AcDbLayerTableRecord
  2
外枠
 70
     0
 62
     6
  6
CONTINUOUS
370
    -3
390
B360
  0
LAYER
  5
39
102
{ACAD_XDICTIONARY
360
B4AA
102
}
330
2
100
AcDbSymbolTableRecord
100
AcDbLayerTableRecord
  2
実線1
 70
     0
 62
     5
  6
CONTINUOUS
370
    -3
390
B360
  0
LAYER
  5
3B
102
{ACAD_XDICTIONARY
360
B4AC
102
}
330
2
100
AcDbSymbolTableRecord
100
AcDbLayerTableRecord
  2
寸法
 70
     0
 62
     3
  6
CONTINUOUS
370
    -3
390
B360
  0
LAYER
  5
42
102
{ACAD_XDICTIONARY
360
B4AE
102
}
330
2
100
AcDbSymbolTableRecord
100
AcDbLayerTableRecord
  2
文字
 70
     0
 62
     7
  6
CONTINUOUS
370
    -3
390
B360
  0
LAYER
  5
2D4
330
2
100
AcDbSymbolTableRecord
100
AcDbLayerTableRecord
  2
DEFPOINTS
 70
     0
 62
     7
  6
CONTINUOUS
290
     0
370
    -3
390
B360
  0
LAYER
  5
5281
102
{ACAD_XDICTIONARY
360
B4B0
102
}
330
2
100
AcDbSymbolTableRecord
100
AcDbLayerTableRecord
  2
中心線
 70
     0
 62
     1
  6
CENTER2
370
    -3
390
B360
  0
LAYER
  5
69B4
102
{ACAD_XDICTIONARY
360
B4B2
102
}
330
2
100
AcDbSymbolTableRecord
100
AcDbLayerTableRecord
  2
かくれ線
 70
     0
 62
     4
  6
DASHED2
370
    -3
390
B360
  0
LAYER
  5
69B5
102
{ACAD_XDICTIONARY
360
B4B4
102
}
330
2
100
AcDbSymbolTableRecord
100
AcDbLayerTableRecord
  2
実線
 70
     0
 62
     7
  6
CONTINUOUS
370
    -3
390
B360
  0
ENDTAB
  0
TABLE
  2
STYLE
  5
3
330
0
100
AcDbSymbolTable
 70
     5
  0
STYLE
  5
F
330
3
100
AcDbSymbolTableRecord
100
AcDbTextStyleTableRecord
  2
STANDARD
 70
     0
 40
0.0
 41
1.0
 50
0.0
 71
     0
 42
50.0
  3
txt
  4

  0
STYLE
  5
43
330
3
100
AcDbSymbolTableRecord
100
AcDbTextStyleTableRecord
  2
STYLE1
 70
     0
 40
0.0
 41
1.0
 50
0.0
 71
     0
 42
25.0
  3

  4

1001
ACAD
1000
MS PMincho
1071
    32786
  0
STYLE
  5
2CB
330
3
100
AcDbSymbolTableRecord
100
AcDbTextStyleTableRecord
  2
STYLE2
 70
     0
 40
0.0
 41
1.0
 50
0.0
 71
     0
 42
100.0
  3

  4

1001
ACAD
1000
MS PGothic
1071
    32818
  0
STYLE
  5
3369
330
3
100
AcDbSymbolTableRecord
100
AcDbTextStyleTableRecord
  2
STYLE3
 70
     0
 40
0.0
 41
1.0
 50
0.0
 71
     0
 42
32.0
  3

  4

1001
ACAD
1000
MS PGothic
1071
    32818
  0
STYLE
  5
A071
330
3
100
AcDbSymbolTableRecord
100
AcDbTextStyleTableRecord
  2
DIM
 70
     0
 40
0.0
 41
0.6
 50
0.0
 71
     0
 42
80.0
  3
simplex.shx
  4
bigfont.shx
  0
ENDTAB
  0
TABLE
  2
VIEW
  5
6
330
0
100
AcDbSymbolTable
 70
     2
  0
VIEW
  5
5C39
330
6
100
AcDbSymbolTableRecord
100
AcDbViewTableRecord
  2
OLE1
 70
     0
 40
1616.932398
 10
6642.301687
 20
4936.378879999999
 41
2961.095331
 11
0.0
 21
0.0
 31
1.0
 12
0.0
 22
0.0
 32
0.0
 42
50.0
 43
0.0
 44
0.0
 50
0.0
 71
     0
281
     0
 72
     0
  0
VIEW
  5
62CF
330
6
100
AcDbSymbolTableRecord
100
AcDbViewTableRecord
  2
OLE2
 70
     0
 40
903.464999
 10
3122.156532
 20
4373.895141
 41
1732.87549
 11
0.0
 21
0.0
 31
1.0
 12
0.0
 22
0.0
 32
0.0
 42
50.0
 43
0.0
 44
0.0
 50
0.0
 71
     0
281
     0
 72
     0
  0
ENDTAB
  0
TABLE
  2
UCS
  5
7
330
0
100
AcDbSymbolTable
 70
     0
  0
ENDTAB
  0
TABLE
  2
APPID
  5
9
330
0
100
AcDbSymbolTable
 70
     8
  0
APPID
  5
10
330
9
100
AcDbSymbolTableRecord
100
AcDbRegAppTableRecord
  2
ACAD
 70
     0
  0
APPID
  5
24
330
9
100
AcDbSymbolTableRecord
100
AcDbRegAppTableRecord
  2
CONTENTTABDATA
 70
     0
  0
APPID
  5
25
330
9
100
AcDbSymbolTableRecord
100
AcDbRegAppTableRecord
  2
CONTENTCURRENTTAB
 70
     0
  0
APPID
  5
41
330
9
100
AcDbSymbolTableRecord
100
AcDbRegAppTableRecord
  2
CONTENTBLOCKDESCRIPTION
 70
     0
  0
APPID
  5
60
330
9
100
AcDbSymbolTableRecord
100
AcDbRegAppTableRecord
  2
CONTENTBLOCKICON
 70
     0
  0
APPID
  5
A3
330
9
100
AcDbSymbolTableRecord
100
AcDbRegAppTableRecord
  2
DRAWINGVARIABLESXDATA
 70
     0
  0
APPID
  5
B4BF
330
9
100
AcDbSymbolTableRecord
100
AcDbRegAppTableRecord
  2
ACAD_NAV_VCDISPLAY
 70
     0
  0
APPID
  5
B4FD
330
9
100
AcDbSymbolTableRecord
100
AcDbRegAppTableRecord
  2
ACAD_MLEADERVER
 70
     0
  0
ENDTAB
  0
TABLE
  2
DIMSTYLE
  5
A
330
0
100
AcDbSymbolTable
 70
     3
100
AcDbDimStyleTable
  0
DIMSTYLE
105
1D
330
A
100
AcDbSymbolTableRecord
100
AcDbDimStyleTableRecord
  2
STANDARD
 70
     0
178
     0
340
F
  0
DIMSTYLE
105
35
102
{ACAD_REACTORS
330
9E92
330
9E9F
330
9EB8
330
A115
330
A134
330
A141
330
A14E
330
A15B
330
A181
330
A1A9
330
A1B6
330
A1C3
330
A20B
330
A21B
330
A241
330
AA6B
330
AA7E
330
AA9B
330
AAAB
330
AEA8
330
B176
330
B183
330
B190
330
B26B
330
B26C
330
B26D
330
B26E
330
B277
330
B278
330
B279
330
B27A
330
B27B
330
B27C
330
B283
330
B284
330
B285
330
B28D
330
B295
102
}
330
A
100
AcDbSymbolTableRecord
100
AcDbDimStyleTableRecord
  2
STANDARD_WS
 70
     0
 40
20.0
 41
1.0
 42
1.0
 43
3.75
 44
0.5
 73
     0
 74
     0
 77
     1
 78
     8
140
2.5
141
1.5
143
0.0394
147
0.625
171
     4
172
     1
173
     1
178
     0
271
     0
272
     0
273
     8
274
     4
279
     2
340
A071
341
2C5
343
2C5
344
2C5
  0
DIMSTYLE
105
44
330
A
100
AcDbSymbolTableRecord
100
AcDbDimStyleTableRecord
  2
寸法
 70
     0
 40
10.0
 41
2.0
 42
10.0
 43
3.75
 44
1.25
 73
     0
 74
     0
 77
     1
 78
     8
140
2.5
141
2.5
143
0.0394
147
0.625
171
     4
172
     1
173
     1
176
   256
177
   256
178
   256
273
     8
274
     4
340
43
341
2C5
343
2C5
344
2C5
  0
ENDTAB
  0
TABLE
  2
BLOCK_RECORD
  5
1
330
0
100
AcDbSymbolTable
 70
    49
  0
BLOCK_RECORD
  5
18
330
1
100
AcDbSymbolTableRecord
100
AcDbBlockTableRecord
  2
*MODEL_SPACE
340
B363
  0
BLOCK_RECORD
  5
15
330
1
100
AcDbSymbolTableRecord
100
AcDbBlockTableRecord
  2
*PAPER_SPACE
340
B364
  0
BLOCK_RECORD
  5
2C5
330
1
100
AcDbSymbolTableRecord
100
AcDbBlockTableRecord
  2
_OPEN
340
0
102
{BLKREFS
331
B195
331
B196
331
B1AB
331
B1AC
331
B1BB
331
B1BC
331
B1C6
331
B1C7
331
B1D2
331
B1D3
331
B1E2
331
B1E3
331
B1ED
331
B1EE
331
B1FD
331
B1FE
331
B208
331
B209
331
B214
331
B215
331
B224
331
B225
331
B22F
331
B230
331
B23B
331
B23C
331
B247
331
B248
331
B254
331
B255
331
B260
331
B261
331
B420
331
B421
331
B428
331
B429
331
B43A
331
B43B
331
AD84
331
AD85
331
AD90
331
AD91
331
ADA5
331
ADA6
331
ADB0
331
ADB1
331
ADBB
331
ADBC
331
ADC6
331
ADC7
331
ADD5
331
ADD6
331
ADEA
331
ADEB
331
ADF5
331
ADF6
331
AE00
331
AE01
331
AE0B
331
AE0C
331
AE1A
331
AE1B
331
AE24
331
AE25
331
AE56
331
AE57
331
AE61
331
AE62
331
AE70
331
AE71
331
AE7E
331
AE7F
331
B16F
331
B170
331
B17C
331
B17D
102
}
  0
BLOCK_RECORD
  5
7EFD
330
1
100
AcDbSymbolTableRecord
100
AcDbBlockTableRecord
  2
A$C1F1E088B
340
0
  0
BLOCK_RECORD
  5
9E86
330
1
100
AcDbSymbolTableRecord
100
AcDbBlockTableRecord
  2
*D6
340
0
  0
BLOCK_RECORD
  5
9E93
330
1
100
AcDbSymbolTableRecord
100
AcDbBlockTableRecord
  2
*D7
340
0
  0
BLOCK_RECORD
  5
9EAC
330
1
100
AcDbSymbolTableRecord
100
AcDbBlockTableRecord
  2
*D8
340
0
  0
BLOCK_RECORD
  5
A109
330
1
100
AcDbSymbolTableRecord
100
AcDbBlockTableRecord
  2
*D9
340
0
  0
BLOCK_RECORD
  5
A128
330
1
100
AcDbSymbolTableRecord
100
AcDbBlockTableRecord
  2
*D10
340
0
  0
BLOCK_RECORD
  5
A135
330
1
100
AcDbSymbolTableRecord
100
AcDbBlockTableRecord
  2
*D11
340
0
  0
BLOCK_RECORD
  5
A142
330
1
100
AcDbSymbolTableRecord
100
AcDbBlockTableRecord
  2
*D12
340
0
  0
BLOCK_RECORD
  5
A14F
330
1
100
AcDbSymbolTableRecord
100
AcDbBlockTableRecord
  2
*D13
340
0
  0
BLOCK_RECORD
  5
A172
330
1
100
AcDbSymbolTableRecord
100
AcDbBlockTableRecord
  2
*D14
340
0
  0
BLOCK_RECORD
  5
A19D
330
1
100
AcDbSymbolTableRecord
100
AcDbBlockTableRecord
  2
*D16
340
0
  0
BLOCK_RECORD
  5
A1AA
330
1
100
AcDbSymbolTableRecord
100
AcDbBlockTableRecord
  2
*D17
340
0
  0
BLOCK_RECORD
  5
A1B7
330
1
100
AcDbSymbolTableRecord
100
AcDbBlockTableRecord
  2
*D18
340
0
  0
BLOCK_RECORD
  5
A1FF
330
1
100
AcDbSymbolTableRecord
100
AcDbBlockTableRecord
  2
*D19
340
0
  0
BLOCK_RECORD
  5
A20C
330
1
100
AcDbSymbolTableRecord
100
AcDbBlockTableRecord
  2
*D20
340
0
  0
BLOCK_RECORD
  5
A235
330
1
100
AcDbSymbolTableRecord
100
AcDbBlockTableRecord
  2
*D21
340
0
  0
BLOCK_RECORD
  5
AA5F
330
1
100
AcDbSymbolTableRecord
100
AcDbBlockTableRecord
  2
*D22
340
0
  0
BLOCK_RECORD
  5
AA72
330
1
100
AcDbSymbolTableRecord
100
AcDbBlockTableRecord
  2
*D23
340
0
  0
BLOCK_RECORD
  5
AA8C
330
1
100
AcDbSymbolTableRecord
100
AcDbBlockTableRecord
  2
*D24
340
0
  0
BLOCK_RECORD
  5
AA9C
330
1
100
AcDbSymbolTableRecord
100
AcDbBlockTableRecord
  2
*D25
340
0
  0
BLOCK_RECORD
  5
AE99
330
1
100
AcDbSymbolTableRecord
100
AcDbBlockTableRecord
  2
*D27
340
0
  0
BLOCK_RECORD
  5
B16A
330
1
100
AcDbSymbolTableRecord
100
AcDbBlockTableRecord
  2
*D28
340
0
  0
BLOCK_RECORD
  5
B177
330
1
100
AcDbSymbolTableRecord
100
AcDbBlockTableRecord
  2
*D29
340
0
  0
BLOCK_RECORD
  5
B184
330
1
100
AcDbSymbolTableRecord
100
AcDbBlockTableRecord
  2
*D30
340
0
  0
BLOCK_RECORD
  5
B1A7
330
1
100
AcDbSymbolTableRecord
100
AcDbBlockTableRecord
  2
*D31
340
0
  0
BLOCK_RECORD
  5
B1B3
330
1
100
AcDbSymbolTableRecord
100
AcDbBlockTableRecord
  2
*D32
340
0
  0
BLOCK_RECORD
  5
B1C2
330
1
100
AcDbSymbolTableRecord
100
AcDbBlockTableRecord
  2
*D33
340
0
  0
BLOCK_RECORD
  5
B1CE
330
1
100
AcDbSymbolTableRecord
100
AcDbBlockTableRecord
  2
*D34
340
0
  0
BLOCK_RECORD
  5
B1DA
330
1
100
AcDbSymbolTableRecord
100
AcDbBlockTableRecord
  2
*D35
340
0
  0
BLOCK_RECORD
  5
B1E9
330
1
100
AcDbSymbolTableRecord
100
AcDbBlockTableRecord
  2
*D36
340
0
  0
BLOCK_RECORD
  5
B1F5
330
1
100
AcDbSymbolTableRecord
100
AcDbBlockTableRecord
  2
*D37
340
0
  0
BLOCK_RECORD
  5
B204
330
1
100
AcDbSymbolTableRecord
100
AcDbBlockTableRecord
  2
*D38
340
0
  0
BLOCK_RECORD
  5
B210
330
1
100
AcDbSymbolTableRecord
100
AcDbBlockTableRecord
  2
*D39
340
0
  0
BLOCK_RECORD
  5
B21C
330
1
100
AcDbSymbolTableRecord
100
AcDbBlockTableRecord
  2
*D40
340
0
  0
BLOCK_RECORD
  5
B22B
330
1
100
AcDbSymbolTableRecord
100
AcDbBlockTableRecord
  2
*D41
340
0
  0
BLOCK_RECORD
  5
B237
330
1
100
AcDbSymbolTableRecord
100
AcDbBlockTableRecord
  2
*D42
340
0
  0
BLOCK_RECORD
  5
B243
330
1
100
AcDbSymbolTableRecord
100
AcDbBlockTableRecord
  2
*D43
340
0
  0
BLOCK_RECORD
  5
B24F
330
1
100
AcDbSymbolTableRecord
100
AcDbBlockTableRecord
  2
*D44
340
0
  0
BLOCK_RECORD
  5
B25B
330
1
100
AcDbSymbolTableRecord
100
AcDbBlockTableRecord
  2
*D45
340
0
  0
BLOCK_RECORD
  5
B267
330
1
100
AcDbSymbolTableRecord
100
AcDbBlockTableRecord
  2
A$C7C337783
340
0
  0
BLOCK_RECORD
  5
B2DD
330
1
100
AcDbSymbolTableRecord
100
AcDbBlockTableRecord
  2
A$C0FA13F9A
340
0
102
{BLKREFS
331
B302
102
}
  0
BLOCK_RECORD
  5
B2E2
330
1
100
AcDbSymbolTableRecord
100
AcDbBlockTableRecord
  2
A$C5A273433
340
0
  0
ENDTAB
  0
ENDSEC
  0
SECTION
  2
BLOCKS
  0
BLOCK
  5
19
330
18
100
AcDbEntity
  8
0
100
AcDbBlockBegin
  2
*MODEL_SPACE
 70
     0
 10
0.0
 20
0.0
 30
0.0
  3
*MODEL_SPACE
  1

  0
ENDBLK
  5
1A
330
18
100
AcDbEntity
  8
0
100
AcDbBlockEnd
  0
BLOCK
  5
16
330
15
100
AcDbEntity
 67
     1
  8
0
100
AcDbBlockBegin
  2
*PAPER_SPACE
 70
     0
 10
0.0
 20
0.0
 30
0.0
  3
*PAPER_SPACE
  1

  0
ENDBLK
  5
17
330
15
100
AcDbEntity
 67
     1
  8
0
100
AcDbBlockEnd
  0
BLOCK
  5
2C6
330
2C5
100
AcDbEntity
  8
0
100
AcDbBlockBegin
  2
_OPEN
 70
     0
 10
0.0
 20
0.0
 30
0.0
  3
_OPEN
  1

  0
LINE
  5
2C7
330
2C5
100
AcDbEntity
  8
0
  6
ByBlock
 62
     0
380
     1
100
AcDbLine
 10
-1.0
 20
0.166667
 30
0.0
 11
0.0
 21
0.0
 31
0.0
  0
LINE
  5
2C8
330
2C5
100
AcDbEntity
  8
0
  6
ByBlock
 62
     0
380
     1
100
AcDbLine
 10
0.0
 20
0.0
 30
0.0
 11
-1.0
 21
-0.166667
 31
0.0
  0
LINE
  5
2C9
330
2C5
100
AcDbEntity
  8
0
  6
ByBlock
 62
     0
380
     1
100
AcDbLine
 10
0.0
 20
0.0
 30
0.0
 11
-1.0
 21
0.0
 31
0.0
  0
ENDBLK
  5
2CA
330
2C5
100
AcDbEntity
  8
0
100
AcDbBlockEnd
  0
BLOCK
  5
7F0D
330
7EFD
100
AcDbEntity
  8
0
100
AcDbBlockBegin
  2
A$C1F1E088B
 70
     0
 10
0.0
 20
0.0
 30
0.0
  3
A$C1F1E088B
  1

  0
LINE
  5
7EFE
330
7EFD
100
AcDbEntity
  8
実線1
100
AcDbLine
 10
211.244739
 20
-0.000007
 30
0.0
 11
414.676196
 21
-0.000007
 31
0.0
  0
LINE
  5
7EFF
330
7EFD
100
AcDbEntity
  8
実線1
100
AcDbLine
 10
211.244739
 20
15.999993
 30
0.0
 11
414.676196
 21
15.999993
 31
0.0
  0
LINE
  5
7F00
330
7EFD
100
AcDbEntity
  8
中心線
100
AcDbLine
 10
194.676196
 20
7.999992999999999
 30
0.0
 11
414.676196
 21
7.999992999999999
 31
0.0
  0
LINE
  5
7F01
330
7EFD
100
AcDbEntity
  8
実線1
100
AcDbLine
 10
14.058881
 20
177.3036
 30
0.0
 11
177.303613
 21
14.058867
 31
0.0
  0
LINE
  5
7F02
330
7EFD
100
AcDbEntity
  8
実線1
100
AcDbLine
 10
25.372589
 20
188.617308
 30
0.0
 11
188.617322
 21
25.372576
 31
0.0
  0
LINE
  5
7F03
330
7EFD
100
AcDbEntity
  8
中心線
100
AcDbLine
 10
8.000005999999999
 20
194.676183
 30
0.0
 11
194.676196
 21
7.999992999999999
 31
0.0
  0
ARC
  5
7F04
330
7EFD
100
AcDbEntity
  8
実線1
100
AcDbCircle
 10
211.244739
 20
47.999993
 30
0.0
 40
48.0
100
AcDbArc
 50
225.0
 51
270.0
  0
ARC
  5
7F05
330
7EFD
100
AcDbEntity
  8
実線1
100
AcDbCircle
 10
211.244739
 20
47.999993
 30
0.0
 40
32.0
100
AcDbArc
 50
225.0
 51
270.0
  0
LINE
  5
7F06
330
7EFD
100
AcDbEntity
  8
実線1
100
AcDbLine
 10
0.000006
 20
211.244725
 30
0.0
 11
0.000006
 21
414.676183
 31
0.0
  0
LINE
  5
7F07
330
7EFD
100
AcDbEntity
  8
実線1
100
AcDbLine
 10
16.000006
 20
211.244725
 30
0.0
 11
16.000006
 21
414.676183
 31
0.0
  0
LINE
  5
7F08
330
7EFD
100
AcDbEntity
  8
中心線
100
AcDbLine
 10
8.000005999999999
 20
194.676183
 30
0.0
 11
8.000005999999999
 21
414.676183
 31
0.0
  0
ARC
  5
7F09
330
7EFD
100
AcDbEntity
  8
実線1
100
AcDbCircle
 10
48.000006
 20
211.244725
 30
0.0
 40
48.0
100
AcDbArc
 50
180.0
 51
225.0
  0
ARC
  5
7F0A
330
7EFD
100
AcDbEntity
  8
実線1
100
AcDbCircle
 10
48.000006
 20
211.244725
 30
0.0
 40
32.0
100
AcDbArc
 50
180.0
 51
225.0
  0
LINE
  5
7F0B
330
7EFD
100
AcDbEntity
  8
実線1
100
AcDbLine
 10
0.000006
 20
414.676183
 30
0.0
 11
16.000006
 21
414.676183
 31
0.0
  0
LINE
  5
7F0C
330
7EFD
100
AcDbEntity
  8
実線1
100
AcDbLine
 10
414.676196
 20
15.999993
 30
0.0
 11
414.676196
 21
-0.000007
 31
0.0
  0
ENDBLK
  5
7F0E
330
7EFD
100
AcDbEntity
  8
0
100
AcDbBlockEnd
  0
BLOCK
  5
AD6A
330
9E86
100
AcDbEntity
  8
0
100
AcDbBlockBegin
  2
*D6
 70
     1
 10
0.0
 20
0.0
 30
0.0
  3
*D6
  1

  0
LINE
  5
B437
330
9E86
100
AcDbEntity
  8
寸法
 62
     0
440
 16777216
370
    -2
100
AcDbLine
 10
444.1251979499148
 20
3899.81441641428
 30
0.0
 11
444.1251979499148
 21
3689.413709457527
 31
0.0
  0
LINE
  5
B438
330
9E86
100
AcDbEntity
  8
寸法
 62
     0
440
 16777216
370
    -2
100
AcDbLine
 10
2444.125197949915
 20
3899.814416414281
 30
0.0
 11
2444.125197949915
 21
3689.413709457527
 31
0.0
  0
LINE
  5
B439
330
9E86
100
AcDbEntity
  8
寸法
 62
     0
440
 16777216
370
    -2
100
AcDbLine
 10
464.1251979499148
 20
3699.413709457527
 30
0.0
 11
2424.125197949915
 21
3699.413709457527
 31
0.0
  0
INSERT
  5
B43A
330
9E86
100
AcDbEntity
  8
寸法
 62
     0
440
 16777216
370
    -2
100
AcDbBlockReference
  2
_OPEN
 10
444.1251979499148
 20
3699.413709457527
 30
0.0
 41
20.0
 42
20.0
 43
20.0
 50
180.0
  0
INSERT
  5
B43B
330
9E86
100
AcDbEntity
  8
寸法
 62
     0
440
 16777216
370
    -2
100
AcDbBlockReference
  2
_OPEN
 10
2444.125197949915
 20
3699.413709457527
 30
0.0
 41
20.0
 42
20.0
 43
20.0
  0
MTEXT
  5
B43C
330
9E86
100
AcDbEntity
  8
寸法
 62
     0
440
 16777216
100
AcDbMText
 10
1444.125197949915
 20
3736.913709457527
 30
0.0
 40
50.0
 41
0.0
 71
     5
 72
     1
  1
\A1;2000
  7
DIM
 73
     1
 44
1.0
  0
POINT
  5
B43D
330
9E86
100
AcDbEntity
  8
DEFPOINTS
 62
     0
440
 16777216
100
AcDbPoint
 10
444.1251979499148
 20
3919.81441641428
 30
0.0
  0
POINT
  5
B43E
330
9E86
100
AcDbEntity
  8
DEFPOINTS
 62
     0
440
 16777216
100
AcDbPoint
 10
2444.125197949915
 20
3919.814416414281
 30
0.0
  0
POINT
  5
B43F
330
9E86
100
AcDbEntity
  8
DEFPOINTS
 62
     0
440
 16777216
100
AcDbPoint
 10
2444.125197949915
 20
3699.413709457527
 30
0.0
  0
ENDBLK
  5
AD74
330
9E86
100
AcDbEntity
  8
0
100
AcDbBlockEnd
  0
BLOCK
  5
AD75
330
9E93
100
AcDbEntity
  8
0
100
AcDbBlockBegin
  2
*D7
 70
     1
 10
0.0
 20
0.0
 30
0.0
  3
*D7
  1

  0
LINE
  5
B425
330
9E93
100
AcDbEntity
  8
寸法
 62
     0
440
 16777216
370
    -2
100
AcDbLine
 10
424.1251979499148
 20
4419.814416414281
 30
0.0
 11
315.8495203157182
 21
4419.814416414281
 31
0.0
  0
LINE
  5
B426
330
9E93
100
AcDbEntity
  8
寸法
 62
     0
440
 16777216
370
    -2
100
AcDbLine
 10
424.1251979499148
 20
3919.81441641428
 30
0.0
 11
315.8495203157181
 21
3919.81441641428
 31
0.0
  0
LINE
  5
B427
330
9E93
100
AcDbEntity
  8
寸法
 62
     0
440
 16777216
370
    -2
100
AcDbLine
 10
325.8495203157182
 20
4399.814416414281
 30
0.0
 11
325.8495203157181
 21
3939.81441641428
 31
0.0
  0
INSERT
  5
B428
330
9E93
100
AcDbEntity
  8
寸法
 62
     0
440
 16777216
370
    -2
100
AcDbBlockReference
  2
_OPEN
 10
325.8495203157182
 20
4419.814416414281
 30
0.0
 41
20.0
 42
20.0
 43
20.0
 50
90.0
  0
INSERT
  5
B429
330
9E93
100
AcDbEntity
  8
寸法
 62
     0
440
 16777216
370
    -2
100
AcDbBlockReference
  2
_OPEN
 10
325.8495203157181
 20
3919.81441641428
 30
0.0
 41
20.0
 42
20.0
 43
20.0
 50
270.0
  0
MTEXT
  5
B42A
330
9E93
100
AcDbEntity
  8
寸法
 62
     0
440
 16777216
100
AcDbMText
 10
288.3495203157175
 20
4169.814416414281
 30
0.0
 40
50.0
 41
0.0
 71
     5
 72
     1
  1
\A1;500
  7
DIM
 11
6.123031769111886E-17
 21
1.0
 31
0.0
 73
     1
 44
1.0
  0
POINT
  5
B42B
330
9E93
100
AcDbEntity
  8
DEFPOINTS
 62
     0
440
 16777216
100
AcDbPoint
 10
444.1251979499148
 20
4419.814416414281
 30
0.0
  0
POINT
  5
B42C
330
9E93
100
AcDbEntity
  8
DEFPOINTS
 62
     0
440
 16777216
100
AcDbPoint
 10
444.1251979499148
 20
3919.81441641428
 30
0.0
  0
POINT
  5
B42D
330
9E93
100
AcDbEntity
  8
DEFPOINTS
 62
     0
440
 16777216
100
AcDbPoint
 10
325.8495203157181
 20
3919.81441641428
 30
0.0
  0
ENDBLK
  5
AD7F
330
9E93
100
AcDbEntity
  8
0
100
AcDbBlockEnd
  0
BLOCK
  5
AD80
330
9EAC
100
AcDbEntity
  8
0
100
AcDbBlockBegin
  2
*D8
 70
     1
 10
0.0
 20
0.0
 30
0.0
  3
*D8
  1

  0
LINE
  5
AD81
330
9EAC
100
AcDbEntity
  8
0
  6
ByBlock
 62
     0
440
 16777216
380
     1
100
AcDbLine
 10
3671.554378179822
 20
3908.81441641428
 30
0.0
 11
3671.554378179822
 21
3576.224752023394
 31
0.0
  0
LINE
  5
AD82
330
9EAC
100
AcDbEntity
  8
0
  6
ByBlock
 62
     0
440
 16777216
380
     1
100
AcDbLine
 10
4971.554378179823
 20
3899.814416414281
 30
0.0
 11
4971.554378179823
 21
3576.224752023394
 31
0.0
  0
LINE
  5
AD83
330
9EAC
100
AcDbEntity
  8
0
  6
ByBlock
 62
     0
440
 16777216
380
     1
100
AcDbLine
 10
3691.554378179822
 20
3586.224752023394
 30
0.0
 11
4951.554378179823
 21
3586.224752023394
 31
0.0
  0
INSERT
  5
AD84
330
9EAC
100
AcDbEntity
  8
0
  6
ByBlock
 62
     0
440
 16777216
380
     1
100
AcDbBlockReference
  2
_OPEN
 10
3671.554378179822
 20
3586.224752023394
 30
0.0
 41
20.0
 42
20.0
 43
20.0
 50
180.0
  0
INSERT
  5
AD85
330
9EAC
100
AcDbEntity
  8
0
  6
ByBlock
 62
     0
440
 16777216
380
     1
100
AcDbBlockReference
  2
_OPEN
 10
4971.554378179823
 20
3586.224752023394
 30
0.0
 41
20.0
 42
20.0
 43
20.0
  0
MTEXT
  5
AD86
330
9EAC
100
AcDbEntity
  8
0
  6
ByBlock
 62
     0
440
 16777216
380
     1
100
AcDbMText
 10
4321.554378179822
 20
3623.724752023394
 30
0.0
 40
50.0
 41
0.0
 71
     5
 72
     1
  1
\A1;1300
  7
DIM
 73
     1
 44
1.0
  0
POINT
  5
AD87
330
9EAC
100
AcDbEntity
  8
DEFPOINTS
  6
ByBlock
 62
     0
440
 16777216
380
     1
100
AcDbPoint
 10
3671.554378179822
 20
3928.81441641428
 30
0.0
  0
POINT
  5
AD88
330
9EAC
100
AcDbEntity
  8
DEFPOINTS
  6
ByBlock
 62
     0
440
 16777216
380
     1
100
AcDbPoint
 10
4971.554378179823
 20
3919.814416414281
 30
0.0
  0
POINT
  5
AD89
330
9EAC
100
AcDbEntity
  8
DEFPOINTS
  6
ByBlock
 62
     0
440
 16777216
380
     1
100
AcDbPoint
 10
4971.554378179823
 20
3586.224752023394
 30
0.0
  0
ENDBLK
  5
AD8A
330
9EAC
100
AcDbEntity
  8
0
100
AcDbBlockEnd
  0
BLOCK
  5
AD8B
330
A109
100
AcDbEntity
  8
0
100
AcDbBlockBegin
  2
*D9
 70
     1
 10
0.0
 20
0.0
 30
0.0
  3
*D9
  1

  0
LINE
  5
AD8C
330
A109
100
AcDbEntity
  8
0
  6
ByBlock
 62
     0
440
 16777216
380
     1
100
AcDbLine
 10
4991.554378179823
 20
3989.81441641428
 30
0.0
 11
5115.814904248022
 21
3989.81441641428
 31
0.0
  0
LINE
  5
AD8D
330
A109
100
AcDbEntity
  8
0
  6
ByBlock
 62
     0
440
 16777216
380
     1
100
AcDbLine
 10
4991.554378179823
 20
3919.814416414281
 30
0.0
 11
5115.814904248022
 21
3919.814416414281
 31
0.0
  0
LINE
  5
AD8E
330
A109
100
AcDbEntity
  8
0
  6
ByBlock
 62
     0
440
 16777216
380
     1
100
AcDbLine
 10
5105.814904248022
 20
3969.81441641428
 30
0.0
 11
5105.814904248022
 21
3939.814416414281
 31
0.0
  0
MTEXT
  5
AD8F
330
A109
100
AcDbEntity
  8
0
  6
ByBlock
 62
     0
440
 16777216
380
     1
100
AcDbMText
 10
5159.564904248022
 20
3954.814416414281
 30
0.0
 40
50.0
 41
0.0
 71
     5
 72
     1
  1
\A1;70
  7
DIM
 11
6.123031769111886E-17
 21
1.0
 31
0.0
 73
     1
 44
1.0
  0
INSERT
  5
AD90
330
A109
100
AcDbEntity
  8
0
  6
ByBlock
 62
     0
440
 16777216
380
     1
100
AcDbBlockReference
  2
_OPEN
 10
5105.814904248022
 20
3989.81441641428
 30
0.0
 41
20.0
 42
20.0
 43
20.0
 50
90.0
  0
INSERT
  5
AD91
330
A109
100
AcDbEntity
  8
0
  6
ByBlock
 62
     0
440
 16777216
380
     1
100
AcDbBlockReference
  2
_OPEN
 10
5105.814904248022
 20
3919.814416414281
 30
0.0
 41
20.0
 42
20.0
 43
20.0
 50
270.0
  0
POINT
  5
AD92
330
A109
100
AcDbEntity
  8
DEFPOINTS
  6
ByBlock
 62
     0
440
 16777216
380
     1
100
AcDbPoint
 10
4971.554378179823
 20
3989.81441641428
 30
0.0
  0
POINT
  5
AD93
330
A109
100
AcDbEntity
  8
DEFPOINTS
  6
ByBlock
 62
     0
440
 16777216
380
     1
100
AcDbPoint
 10
4971.554378179823
 20
3919.814416414281
 30
0.0
  0
POINT
  5
AD94
330
A109
100
AcDbEntity
  8
DEFPOINTS
  6
ByBlock
 62
     0
440
 16777216
380
     1
100
AcDbPoint
 10
5105.814904248022
 20
3919.814416414281
 30
0.0
  0
ENDBLK
  5
AD95
330
A109
100
AcDbEntity
  8
0
100
AcDbBlockEnd
  0
BLOCK
  5
ADA1
330
A128
100
AcDbEntity
  8
0
100
AcDbBlockBegin
  2
*D10
 70
     1
 10
0.0
 20
0.0
 30
0.0
  3
*D10
  1

  0
LINE
  5
ADA2
330
A128
100
AcDbEntity
  8
0
  6
ByBlock
 62
     0
440
 16777216
380
     1
100
AcDbLine
 10
3971.554378179823
 20
4439.81441641428
 30
0.0
 11
3971.554378179823
 21
4623.773123774055
 31
0.0
  0
LINE
  5
ADA3
330
A128
100
AcDbEntity
  8
0
  6
ByBlock
 62
     0
440
 16777216
380
     1
100
AcDbLine
 10
3671.554378179822
 20
4450.81441641428
 30
0.0
 11
3671.554378179822
 21
4623.773123774055
 31
0.0
  0
LINE
  5
ADA4
330
A128
100
AcDbEntity
  8
0
  6
ByBlock
 62
     0
440
 16777216
380
     1
100
AcDbLine
 10
3951.554378179823
 20
4613.773123774055
 30
0.0
 11
3691.554378179822
 21
4613.773123774055
 31
0.0
  0
INSERT
  5
ADA5
330
A128
100
AcDbEntity
  8
0
  6
ByBlock
 62
     0
440
 16777216
380
     1
100
AcDbBlockReference
  2
_OPEN
 10
3971.554378179823
 20
4613.773123774055
 30
0.0
 41
20.0
 42
20.0
 43
20.0
  0
INSERT
  5
ADA6
330
A128
100
AcDbEntity
  8
0
  6
ByBlock
 62
     0
440
 16777216
380
     1
100
AcDbBlockReference
  2
_OPEN
 10
3671.554378179822
 20
4613.773123774055
 30
0.0
 41
20.0
 42
20.0
 43
20.0
 50
180.0
  0
MTEXT
  5
ADA7
330
A128
100
AcDbEntity
  8
0
  6
ByBlock
 62
     0
440
 16777216
380
     1
100
AcDbMText
 10
3821.554378179823
 20
4651.273123774055
 30
0.0
 40
50.0
 41
0.0
 71
     5
 72
     1
  1
\A1;300
  7
DIM
 73
     1
 44
1.0
  0
POINT
  5
ADA8
330
A128
100
AcDbEntity
  8
DEFPOINTS
  6
ByBlock
 62
     0
440
 16777216
380
     1
100
AcDbPoint
 10
3971.554378179823
 20
4419.81441641428
 30
0.0
  0
POINT
  5
ADA9
330
A128
100
AcDbEntity
  8
DEFPOINTS
  6
ByBlock
 62
     0
440
 16777216
380
     1
100
AcDbPoint
 10
3671.554378179822
 20
4430.81441641428
 30
0.0
  0
POINT
  5
ADAA
330
A128
100
AcDbEntity
  8
DEFPOINTS
  6
ByBlock
 62
     0
440
 16777216
380
     1
100
AcDbPoint
 10
3671.554378179822
 20
4613.773123774055
 30
0.0
  0
ENDBLK
  5
ADAB
330
A128
100
AcDbEntity
  8
0
100
AcDbBlockEnd
  0
BLOCK
  5
ADAC
330
A135
100
AcDbEntity
  8
0
100
AcDbBlockBegin
  2
*D11
 70
     1
 10
0.0
 20
0.0
 30
0.0
  3
*D11
  1

  0
LINE
  5
ADAD
330
A135
100
AcDbEntity
  8
0
  6
ByBlock
 62
     0
440
 16777216
380
     1
100
AcDbLine
 10
3991.554378179823
 20
4419.81441641428
 30
0.0
 11
4232.733316304366
 21
4419.81441641428
 31
0.0
  0
LINE
  5
ADAE
330
A135
100
AcDbEntity
  8
0
  6
ByBlock
 62
     0
440
 16777216
380
     1
100
AcDbLine
 10
4030.560859177427
 20
4029.749602438253
 30
0.0
 11
4232.733316304366
 21
4029.749602438253
 31
0.0
  0
LINE
  5
ADAF
330
A135
100
AcDbEntity
  8
0
  6
ByBlock
 62
     0
440
 16777216
380
     1
100
AcDbLine
 10
4222.733316304366
 20
4399.81441641428
 30
0.0
 11
4222.733316304366
 21
4049.749602438253
 31
0.0
  0
INSERT
  5
ADB0
330
A135
100
AcDbEntity
  8
0
  6
ByBlock
 62
     0
440
 16777216
380
     1
100
AcDbBlockReference
  2
_OPEN
 10
4222.733316304366
 20
4419.81441641428
 30
0.0
 41
20.0
 42
20.0
 43
20.0
 50
90.0
  0
INSERT
  5
ADB1
330
A135
100
AcDbEntity
  8
0
  6
ByBlock
 62
     0
440
 16777216
380
     1
100
AcDbBlockReference
  2
_OPEN
 10
4222.733316304366
 20
4029.749602438253
 30
0.0
 41
20.0
 42
20.0
 43
20.0
 50
270.0
  0
MTEXT
  5
ADB2
330
A135
100
AcDbEntity
  8
0
  6
ByBlock
 62
     0
440
 16777216
380
     1
100
AcDbMText
 10
4185.233316304366
 20
4224.782009426267
 30
0.0
 40
50.0
 41
0.0
 71
     5
 72
     1
  1
\A1;390
  7
DIM
 11
6.123031769111886E-17
 21
1.0
 31
0.0
 73
     1
 44
1.0
  0
POINT
  5
ADB3
330
A135
100
AcDbEntity
  8
DEFPOINTS
  6
ByBlock
 62
     0
440
 16777216
380
     1
100
AcDbPoint
 10
3971.554378179823
 20
4419.81441641428
 30
0.0
  0
POINT
  5
ADB4
330
A135
100
AcDbEntity
  8
DEFPOINTS
  6
ByBlock
 62
     0
440
 16777216
380
     1
100
AcDbPoint
 10
4010.560859177427
 20
4029.749602438253
 30
0.0
  0
POINT
  5
ADB5
330
A135
100
AcDbEntity
  8
DEFPOINTS
  6
ByBlock
 62
     0
440
 16777216
380
     1
100
AcDbPoint
 10
4222.733316304366
 20
4029.749602438253
 30
0.0
  0
ENDBLK
  5
ADB6
330
A135
100
AcDbEntity
  8
0
100
AcDbBlockEnd
  0
BLOCK
  5
ADB7
330
A142
100
AcDbEntity
  8
0
100
AcDbBlockBegin
  2
*D12
 70
     1
 10
0.0
 20
0.0
 30
0.0
  3
*D12
  1

  0
LINE
  5
ADB8
330
A142
100
AcDbEntity
  8
0
  6
ByBlock
 62
     0
440
 16777216
380
     1
100
AcDbLine
 10
3660.554378179822
 20
4439.81441641428
 30
0.0
 11
3468.635510960739
 21
4439.81441641428
 31
0.0
  0
LINE
  5
ADB9
330
A142
100
AcDbEntity
  8
0
  6
ByBlock
 62
     0
440
 16777216
380
     1
100
AcDbLine
 10
3660.554378179822
 20
3919.81441641428
 30
0.0
 11
3468.635510960739
 21
3919.81441641428
 31
0.0
  0
LINE
  5
ADBA
330
A142
100
AcDbEntity
  8
0
  6
ByBlock
 62
     0
440
 16777216
380
     1
100
AcDbLine
 10
3478.635510960739
 20
4419.81441641428
 30
0.0
 11
3478.635510960739
 21
3939.81441641428
 31
0.0
  0
INSERT
  5
ADBB
330
A142
100
AcDbEntity
  8
0
  6
ByBlock
 62
     0
440
 16777216
380
     1
100
AcDbBlockReference
  2
_OPEN
 10
3478.635510960739
 20
4439.81441641428
 30
0.0
 41
20.0
 42
20.0
 43
20.0
 50
90.0
  0
INSERT
  5
ADBC
330
A142
100
AcDbEntity
  8
0
  6
ByBlock
 62
     0
440
 16777216
380
     1
100
AcDbBlockReference
  2
_OPEN
 10
3478.635510960739
 20
3919.81441641428
 30
0.0
 41
20.0
 42
20.0
 43
20.0
 50
270.0
  0
MTEXT
  5
ADBD
330
A142
100
AcDbEntity
  8
0
  6
ByBlock
 62
     0
440
 16777216
380
     1
100
AcDbMText
 10
3441.135510960739
 20
4179.81441641428
 30
0.0
 40
50.0
 41
0.0
 71
     5
 72
     1
  1
\A1;520
  7
DIM
 11
6.123031769111886E-17
 21
1.0
 31
0.0
 73
     1
 44
1.0
  0
POINT
  5
ADBE
330
A142
100
AcDbEntity
  8
DEFPOINTS
  6
ByBlock
 62
     0
440
 16777216
380
     1
100
AcDbPoint
 10
3680.554378179822
 20
4439.81441641428
 30
0.0
  0
POINT
  5
ADBF
330
A142
100
AcDbEntity
  8
DEFPOINTS
  6
ByBlock
 62
     0
440
 16777216
380
     1
100
AcDbPoint
 10
3680.554378179822
 20
3919.81441641428
 30
0.0
  0
POINT
  5
ADC0
330
A142
100
AcDbEntity
  8
DEFPOINTS
  6
ByBlock
 62
     0
440
 16777216
380
     1
100
AcDbPoint
 10
3478.635510960739
 20
3919.81441641428
 30
0.0
  0
ENDBLK
  5
ADC1
330
A142
100
AcDbEntity
  8
0
100
AcDbBlockEnd
  0
BLOCK
  5
ADC2
330
A14F
100
AcDbEntity
  8
0
100
AcDbBlockBegin
  2
*D13
 70
     1
 10
0.0
 20
0.0
 30
0.0
  3
*D13
  1

  0
LINE
  5
ADC3
330
A14F
100
AcDbEntity
  8
0
  6
ByBlock
 62
     0
440
 16777216
380
     1
100
AcDbLine
 10
3660.554378179822
 20
4419.81441641428
 30
0.0
 11
3567.140094402755
 21
4419.81441641428
 31
0.0
  0
LINE
  5
ADC4
330
A14F
100
AcDbEntity
  8
0
  6
ByBlock
 62
     0
440
 16777216
380
     1
100
AcDbLine
 10
3660.554378179822
 20
3919.81441641428
 30
0.0
 11
3567.140094402755
 21
3919.81441641428
 31
0.0
  0
LINE
  5
ADC5
330
A14F
100
AcDbEntity
  8
0
  6
ByBlock
 62
     0
440
 16777216
380
     1
100
AcDbLine
 10
3577.140094402755
 20
4399.81441641428
 30
0.0
 11
3577.140094402755
 21
3939.81441641428
 31
0.0
  0
INSERT
  5
ADC6
330
A14F
100
AcDbEntity
  8
0
  6
ByBlock
 62
     0
440
 16777216
380
     1
100
AcDbBlockReference
  2
_OPEN
 10
3577.140094402755
 20
4419.81441641428
 30
0.0
 41
20.0
 42
20.0
 43
20.0
 50
90.0
  0
INSERT
  5
ADC7
330
A14F
100
AcDbEntity
  8
0
  6
ByBlock
 62
     0
440
 16777216
380
     1
100
AcDbBlockReference
  2
_OPEN
 10
3577.140094402755
 20
3919.81441641428
 30
0.0
 41
20.0
 42
20.0
 43
20.0
 50
270.0
  0
MTEXT
  5
ADC8
330
A14F
100
AcDbEntity
  8
0
  6
ByBlock
 62
     0
440
 16777216
380
     1
100
AcDbMText
 10
3539.640094402755
 20
4169.81441641428
 30
0.0
 40
50.0
 41
0.0
 71
     5
 72
     1
  1
\A1;500
  7
DIM
 11
6.123031769111886E-17
 21
1.0
 31
0.0
 73
     1
 44
1.0
  0
POINT
  5
ADC9
330
A14F
100
AcDbEntity
  8
DEFPOINTS
  6
ByBlock
 62
     0
440
 16777216
380
     1
100
AcDbPoint
 10
3680.554378179822
 20
4419.81441641428
 30
0.0
  0
POINT
  5
ADCA
330
A14F
100
AcDbEntity
  8
DEFPOINTS
  6
ByBlock
 62
     0
440
 16777216
380
     1
100
AcDbPoint
 10
3680.554378179822
 20
3919.81441641428
 30
0.0
  0
POINT
  5
ADCB
330
A14F
100
AcDbEntity
  8
DEFPOINTS
  6
ByBlock
 62
     0
440
 16777216
380
     1
100
AcDbPoint
 10
3577.140094402755
 20
3919.81441641428
 30
0.0
  0
ENDBLK
  5
ADCC
330
A14F
100
AcDbEntity
  8
0
100
AcDbBlockEnd
  0
BLOCK
  5
ADCD
330
A172
100
AcDbEntity
  8
0
100
AcDbBlockBegin
  2
*D14
 70
     1
 10
0.0
 20
0.0
 30
0.0
  3
*D14
  1

  0
LINE
  5
ADCE
330
A172
100
AcDbEntity
  8
0
  6
ByBlock
 62
     0
440
 16777216
380
     1
100
AcDbLine
 10
3660.554378179822
 20
4419.81441641428
 30
0.0
 11
3567.140094402755
 21
4419.81441641428
 31
0.0
  0
LINE
  5
ADCF
330
A172
100
AcDbEntity
  8
0
  6
ByBlock
 62
     0
440
 16777216
380
     1
100
AcDbLine
 10
3660.554378179822
 20
4439.81441641428
 30
0.0
 11
3567.140094402755
 21
4439.81441641428
 31
0.0
  0
LINE
  5
ADD0
330
A172
100
AcDbEntity
  8
0
  6
ByBlock
 62
     0
440
 16777216
380
     1
100
AcDbLine
 10
3577.140094402755
 20
4399.81441641428
 30
0.0
 11
3577.140094402755
 21
4379.81441641428
 31
0.0
  0
LINE
  5
ADD1
330
A172
100
AcDbEntity
  8
0
  6
ByBlock
 62
     0
440
 16777216
380
     1
100
AcDbLine
 10
3577.140094402755
 20
4459.81441641428
 30
0.0
 11
3577.140094402755
 21
4479.81441641428
 31
0.0
  0
MTEXT
  5
ADD2
330
A172
100
AcDbEntity
  8
0
  6
ByBlock
 62
     0
440
 16777216
380
     1
100
AcDbMText
 10
3523.390094402755
 20
4475.454972314736
 30
0.0
 40
50.0
 41
0.0
 71
     5
 72
     1
  1
\A1;20
  7
DIM
 11
6.123031769111886E-17
 21
1.0
 31
0.0
 73
     1
 44
1.0
  0
LINE
  5
ADD3
330
A172
100
AcDbEntity
  8
0
  6
ByBlock
 62
     0
440
 16777216
380
     1
100
AcDbLine
 10
3577.140094402755
 20
4419.81441641428
 30
0.0
 11
3577.140094402755
 21
4439.81441641428
 31
0.0
  0
LINE
  5
ADD4
330
A172
100
AcDbEntity
  8
0
  6
ByBlock
 62
     0
440
 16777216
380
     1
100
AcDbLine
 10
3577.140094402755
 20
4419.81441641428
 30
0.0
 11
3577.140094402755
 21
4439.81441641428
 31
0.0
  0
INSERT
  5
ADD5
330
A172
100
AcDbEntity
  8
0
  6
ByBlock
 62
     0
440
 16777216
380
     1
100
AcDbBlockReference
  2
_OPEN
 10
3577.140094402755
 20
4419.81441641428
 30
0.0
 41
20.0
 42
20.0
 43
20.0
 50
90.0
  0
INSERT
  5
ADD6
330
A172
100
AcDbEntity
  8
0
  6
ByBlock
 62
     0
440
 16777216
380
     1
100
AcDbBlockReference
  2
_OPEN
 10
3577.140094402755
 20
4439.81441641428
 30
0.0
 41
20.0
 42
20.0
 43
20.0
 50
270.0
  0
POINT
  5
ADD7
330
A172
100
AcDbEntity
  8
DEFPOINTS
  6
ByBlock
 62
     0
440
 16777216
380
     1
100
AcDbPoint
 10
3680.554378179822
 20
4419.81441641428
 30
0.0
  0
POINT
  5
ADD8
330
A172
100
AcDbEntity
  8
DEFPOINTS
  6
ByBlock
 62
     0
440
 16777216
380
     1
100
AcDbPoint
 10
3680.554378179822
 20
4439.81441641428
 30
0.0
  0
POINT
  5
ADD9
330
A172
100
AcDbEntity
  8
DEFPOINTS
  6
ByBlock
 62
     0
440
 16777216
380
     1
100
AcDbPoint
 10
3577.140094402755
 20
4439.81441641428
 30
0.0
  0
ENDBLK
  5
ADDA
330
A172
100
AcDbEntity
  8
0
100
AcDbBlockEnd
  0
BLOCK
  5
ADE6
330
A19D
100
AcDbEntity
  8
0
100
AcDbBlockBegin
  2
*D16
 70
     1
 10
0.0
 20
0.0
 30
0.0
  3
*D16
  1

  0
LINE
  5
ADE7
330
A19D
100
AcDbEntity
  8
0
  6
ByBlock
 62
     0
440
 16777216
380
     1
100
AcDbLine
 10
1349.125197949915
 20
4459.814416414281
 30
0.0
 11
1349.125197949915
 21
4525.142183497137
 31
0.0
  0
LINE
  5
ADE8
330
A19D
100
AcDbEntity
  8
0
  6
ByBlock
 62
     0
440
 16777216
380
     1
100
AcDbLine
 10
1539.125197949915
 20
4459.814416414281
 30
0.0
 11
1539.125197949915
 21
4525.142183497137
 31
0.0
  0
LINE
  5
ADE9
330
A19D
100
AcDbEntity
  8
0
  6
ByBlock
 62
     0
440
 16777216
380
     1
100
AcDbLine
 10
1369.125197949915
 20
4515.142183497137
 30
0.0
 11
1519.125197949915
 21
4515.142183497137
 31
0.0
  0
INSERT
  5
ADEA
330
A19D
100
AcDbEntity
  8
0
  6
ByBlock
 62
     0
440
 16777216
380
     1
100
AcDbBlockReference
  2
_OPEN
 10
1349.125197949915
 20
4515.142183497137
 30
0.0
 41
20.0
 42
20.0
 43
20.0
 50
180.0
  0
INSERT
  5
ADEB
330
A19D
100
AcDbEntity
  8
0
  6
ByBlock
 62
     0
440
 16777216
380
     1
100
AcDbBlockReference
  2
_OPEN
 10
1539.125197949915
 20
4515.142183497137
 30
0.0
 41
20.0
 42
20.0
 43
20.0
  0
MTEXT
  5
ADEC
330
A19D
100
AcDbEntity
  8
0
  6
ByBlock
 62
     0
440
 16777216
380
     1
100
AcDbMText
 10
1444.125197949915
 20
4552.642183497137
 30
0.0
 40
50.0
 41
0.0
 71
     5
 72
     1
  1
\A1;190
  7
DIM
 73
     1
 44
1.0
  0
POINT
  5
ADED
330
A19D
100
AcDbEntity
  8
DEFPOINTS
  6
ByBlock
 62
     0
440
 16777216
380
     1
100
AcDbPoint
 10
1349.125197949915
 20
4439.814416414281
 30
0.0
  0
POINT
  5
ADEE
330
A19D
100
AcDbEntity
  8
DEFPOINTS
  6
ByBlock
 62
     0
440
 16777216
380
     1
100
AcDbPoint
 10
1539.125197949915
 20
4439.814416414281
 30
0.0
  0
POINT
  5
ADEF
330
A19D
100
AcDbEntity
  8
DEFPOINTS
  6
ByBlock
 62
     0
440
 16777216
380
     1
100
AcDbPoint
 10
1539.125197949915
 20
4515.142183497137
 30
0.0
  0
ENDBLK
  5
ADF0
330
A19D
100
AcDbEntity
  8
0
100
AcDbBlockEnd
  0
BLOCK
  5
ADF1
330
A1AA
100
AcDbEntity
  8
0
100
AcDbBlockBegin
  2
*D17
 70
     1
 10
0.0
 20
0.0
 30
0.0
  3
*D17
  1

  0
LINE
  5
ADF2
330
A1AA
100
AcDbEntity
  8
0
  6
ByBlock
 62
     0
440
 16777216
380
     1
100
AcDbLine
 10
3991.554378179823
 20
4419.81441641428
 30
0.0
 11
4109.275509416286
 21
4419.81441641428
 31
0.0
  0
LINE
  5
ADF3
330
A1AA
100
AcDbEntity
  8
0
  6
ByBlock
 62
     0
440
 16777216
380
     1
100
AcDbLine
 10
4003.554378179823
 20
4299.81441641428
 30
0.0
 11
4109.275509416286
 21
4299.81441641428
 31
0.0
  0
LINE
  5
ADF4
330
A1AA
100
AcDbEntity
  8
0
  6
ByBlock
 62
     0
440
 16777216
380
     1
100
AcDbLine
 10
4099.275509416286
 20
4399.81441641428
 30
0.0
 11
4099.275509416286
 21
4319.81441641428
 31
0.0
  0
INSERT
  5
ADF5
330
A1AA
100
AcDbEntity
  8
0
  6
ByBlock
 62
     0
440
 16777216
380
     1
100
AcDbBlockReference
  2
_OPEN
 10
4099.275509416286
 20
4419.81441641428
 30
0.0
 41
20.0
 42
20.0
 43
20.0
 50
90.0
  0
INSERT
  5
ADF6
330
A1AA
100
AcDbEntity
  8
0
  6
ByBlock
 62
     0
440
 16777216
380
     1
100
AcDbBlockReference
  2
_OPEN
 10
4099.275509416286
 20
4299.81441641428
 30
0.0
 41
20.0
 42
20.0
 43
20.0
 50
270.0
  0
MTEXT
  5
ADF7
330
A1AA
100
AcDbEntity
  8
0
  6
ByBlock
 62
     0
440
 16777216
380
     1
100
AcDbMText
 10
4061.775509416286
 20
4359.81441641428
 30
0.0
 40
50.0
 41
0.0
 71
     5
 72
     1
  1
\A1;120
  7
DIM
 11
6.123031769111886E-17
 21
1.0
 31
0.0
 73
     1
 44
1.0
  0
POINT
  5
ADF8
330
A1AA
100
AcDbEntity
  8
DEFPOINTS
  6
ByBlock
 62
     0
440
 16777216
380
     1
100
AcDbPoint
 10
3971.554378179823
 20
4419.81441641428
 30
0.0
  0
POINT
  5
ADF9
330
A1AA
100
AcDbEntity
  8
DEFPOINTS
  6
ByBlock
 62
     0
440
 16777216
380
     1
100
AcDbPoint
 10
3983.554378179823
 20
4299.81441641428
 30
0.0
  0
POINT
  5
ADFA
330
A1AA
100
AcDbEntity
  8
DEFPOINTS
  6
ByBlock
 62
     0
440
 16777216
380
     1
100
AcDbPoint
 10
4099.275509416286
 20
4299.81441641428
 30
0.0
  0
ENDBLK
  5
ADFB
330
A1AA
100
AcDbEntity
  8
0
100
AcDbBlockEnd
  0
BLOCK
  5
ADFC
330
A1B7
100
AcDbEntity
  8
0
100
AcDbBlockBegin
  2
*D18
 70
     1
 10
0.0
 20
0.0
 30
0.0
  3
*D18
  1

  0
LINE
  5
ADFD
330
A1B7
100
AcDbEntity
  8
0
  6
ByBlock
 62
     0
440
 16777216
380
     1
100
AcDbLine
 10
4003.554378179823
 20
4299.81441641428
 30
0.0
 11
4109.275509416286
 21
4299.81441641428
 31
0.0
  0
LINE
  5
ADFE
330
A1B7
100
AcDbEntity
  8
0
  6
ByBlock
 62
     0
440
 16777216
380
     1
100
AcDbLine
 10
3786.554378179822
 20
4209.81441641428
 30
0.0
 11
4109.275509416286
 21
4209.81441641428
 31
0.0
  0
LINE
  5
ADFF
330
A1B7
100
AcDbEntity
  8
0
  6
ByBlock
 62
     0
440
 16777216
380
     1
100
AcDbLine
 10
4099.275509416286
 20
4279.81441641428
 30
0.0
 11
4099.275509416286
 21
4229.81441641428
 31
0.0
  0
INSERT
  5
AE00
330
A1B7
100
AcDbEntity
  8
0
  6
ByBlock
 62
     0
440
 16777216
380
     1
100
AcDbBlockReference
  2
_OPEN
 10
4099.275509416286
 20
4299.81441641428
 30
0.0
 41
20.0
 42
20.0
 43
20.0
 50
90.0
  0
INSERT
  5
AE01
330
A1B7
100
AcDbEntity
  8
0
  6
ByBlock
 62
     0
440
 16777216
380
     1
100
AcDbBlockReference
  2
_OPEN
 10
4099.275509416286
 20
4209.81441641428
 30
0.0
 41
20.0
 42
20.0
 43
20.0
 50
270.0
  0
MTEXT
  5
AE02
330
A1B7
100
AcDbEntity
  8
0
  6
ByBlock
 62
     0
440
 16777216
380
     1
100
AcDbMText
 10
4061.775509416286
 20
4254.81441641428
 30
0.0
 40
50.0
 41
0.0
 71
     5
 72
     1
  1
\A1;90
  7
DIM
 11
6.123031769111886E-17
 21
1.0
 31
0.0
 73
     1
 44
1.0
  0
POINT
  5
AE03
330
A1B7
100
AcDbEntity
  8
DEFPOINTS
  6
ByBlock
 62
     0
440
 16777216
380
     1
100
AcDbPoint
 10
3983.554378179823
 20
4299.81441641428
 30
0.0
  0
POINT
  5
AE04
330
A1B7
100
AcDbEntity
  8
DEFPOINTS
  6
ByBlock
 62
     0
440
 16777216
380
     1
100
AcDbPoint
 10
3766.554378179822
 20
4209.81441641428
 30
0.0
  0
POINT
  5
AE05
330
A1B7
100
AcDbEntity
  8
DEFPOINTS
  6
ByBlock
 62
     0
440
 16777216
380
     1
100
AcDbPoint
 10
4099.275509416286
 20
4209.81441641428
 30
0.0
  0
ENDBLK
  5
AE06
330
A1B7
100
AcDbEntity
  8
0
100
AcDbBlockEnd
  0
BLOCK
  5
AE07
330
A1FF
100
AcDbEntity
  8
0
100
AcDbBlockBegin
  2
*D19
 70
     1
 10
0.0
 20
0.0
 30
0.0
  3
*D19
  1

  0
LINE
  5
AE08
330
A1FF
100
AcDbEntity
  8
0
  6
ByBlock
 62
     0
440
 16777216
380
     1
100
AcDbLine
 10
3761.554378179823
 20
4459.81441641428
 30
0.0
 11
3761.554378179823
 21
4525.142183497137
 31
0.0
  0
LINE
  5
AE09
330
A1FF
100
AcDbEntity
  8
0
  6
ByBlock
 62
     0
440
 16777216
380
     1
100
AcDbLine
 10
3921.554378179823
 20
4459.81441641428
 30
0.0
 11
3921.554378179823
 21
4525.142183497137
 31
0.0
  0
LINE
  5
AE0A
330
A1FF
100
AcDbEntity
  8
0
  6
ByBlock
 62
     0
440
 16777216
380
     1
100
AcDbLine
 10
3781.554378179823
 20
4515.142183497137
 30
0.0
 11
3901.554378179823
 21
4515.142183497137
 31
0.0
  0
INSERT
  5
AE0B
330
A1FF
100
AcDbEntity
  8
0
  6
ByBlock
 62
     0
440
 16777216
380
     1
100
AcDbBlockReference
  2
_OPEN
 10
3761.554378179823
 20
4515.142183497137
 30
0.0
 41
20.0
 42
20.0
 43
20.0
 50
180.0
  0
INSERT
  5
AE0C
330
A1FF
100
AcDbEntity
  8
0
  6
ByBlock
 62
     0
440
 16777216
380
     1
100
AcDbBlockReference
  2
_OPEN
 10
3921.554378179823
 20
4515.142183497137
 30
0.0
 41
20.0
 42
20.0
 43
20.0
  0
MTEXT
  5
AE0D
330
A1FF
100
AcDbEntity
  8
0
  6
ByBlock
 62
     0
440
 16777216
380
     1
100
AcDbMText
 10
3841.554378179823
 20
4552.642183497137
 30
0.0
 40
50.0
 41
0.0
 71
     5
 72
     1
  1
\A1;160
  7
DIM
 73
     1
 44
1.0
  0
POINT
  5
AE0E
330
A1FF
100
AcDbEntity
  8
DEFPOINTS
  6
ByBlock
 62
     0
440
 16777216
380
     1
100
AcDbPoint
 10
3761.554378179823
 20
4439.81441641428
 30
0.0
  0
POINT
  5
AE0F
330
A1FF
100
AcDbEntity
  8
DEFPOINTS
  6
ByBlock
 62
     0
440
 16777216
380
     1
100
AcDbPoint
 10
3921.554378179823
 20
4439.81441641428
 30
0.0
  0
POINT
  5
AE10
330
A1FF
100
AcDbEntity
  8
DEFPOINTS
  6
ByBlock
 62
     0
440
 16777216
380
     1
100
AcDbPoint
 10
3921.554378179823
 20
4515.142183497137
 30
0.0
  0
ENDBLK
  5
AE11
330
A1FF
100
AcDbEntity
  8
0
100
AcDbBlockEnd
  0
BLOCK
  5
AE12
330
A20C
100
AcDbEntity
  8
0
100
AcDbBlockBegin
  2
*D20
 70
     1
 10
0.0
 20
0.0
 30
0.0
  3
*D20
  1

  0
LINE
  5
AE13
330
A20C
100
AcDbEntity
  8
0
  6
ByBlock
 62
     0
440
 16777216
380
     1
100
AcDbLine
 10
3921.554378179823
 20
4459.81441641428
 30
0.0
 11
3921.554378179823
 21
4525.142183497137
 31
0.0
  0
LINE
  5
AE14
330
A20C
100
AcDbEntity
  8
0
  6
ByBlock
 62
     0
440
 16777216
380
     1
100
AcDbLine
 10
3971.554378179823
 20
4439.81441641428
 30
0.0
 11
3971.554378179823
 21
4525.142183497137
 31
0.0
  0
LINE
  5
AE15
330
A20C
100
AcDbEntity
  8
0
  6
ByBlock
 62
     0
440
 16777216
380
     1
100
AcDbLine
 10
3901.554378179823
 20
4515.142183497137
 30
0.0
 11
3881.554378179823
 21
4515.142183497137
 31
0.0
  0
LINE
  5
AE16
330
A20C
100
AcDbEntity
  8
0
  6
ByBlock
 62
     0
440
 16777216
380
     1
100
AcDbLine
 10
3991.554378179823
 20
4515.142183497137
 30
0.0
 11
4011.554378179823
 21
4515.142183497137
 31
0.0
  0
MTEXT
  5
AE17
330
A20C
100
AcDbEntity
  8
0
  6
ByBlock
 62
     0
440
 16777216
380
     1
100
AcDbMText
 10
3939.462807201169
 20
4568.892183497137
 30
0.0
 40
50.0
 41
0.0
 71
     5
 72
     1
  1
\A1;50
  7
DIM
 73
     1
 44
1.0
  0
LINE
  5
AE18
330
A20C
100
AcDbEntity
  8
0
  6
ByBlock
 62
     0
440
 16777216
380
     1
100
AcDbLine
 10
3921.554378179823
 20
4515.142183497137
 30
0.0
 11
3971.554378179823
 21
4515.142183497137
 31
0.0
  0
LINE
  5
AE19
330
A20C
100
AcDbEntity
  8
0
  6
ByBlock
 62
     0
440
 16777216
380
     1
100
AcDbLine
 10
3921.554378179823
 20
4515.142183497137
 30
0.0
 11
3971.554378179823
 21
4515.142183497137
 31
0.0
  0
INSERT
  5
AE1A
330
A20C
100
AcDbEntity
  8
0
  6
ByBlock
 62
     0
440
 16777216
380
     1
100
AcDbBlockReference
  2
_OPEN
 10
3921.554378179823
 20
4515.142183497137
 30
0.0
 41
20.0
 42
20.0
 43
20.0
  0
INSERT
  5
AE1B
330
A20C
100
AcDbEntity
  8
0
  6
ByBlock
 62
     0
440
 16777216
380
     1
100
AcDbBlockReference
  2
_OPEN
 10
3971.554378179823
 20
4515.142183497137
 30
0.0
 41
20.0
 42
20.0
 43
20.0
 50
180.0
  0
POINT
  5
AE1C
330
A20C
100
AcDbEntity
  8
DEFPOINTS
  6
ByBlock
 62
     0
440
 16777216
380
     1
100
AcDbPoint
 10
3921.554378179823
 20
4439.81441641428
 30
0.0
  0
POINT
  5
AE1D
330
A20C
100
AcDbEntity
  8
DEFPOINTS
  6
ByBlock
 62
     0
440
 16777216
380
     1
100
AcDbPoint
 10
3971.554378179823
 20
4419.81441641428
 30
0.0
  0
POINT
  5
AE1E
330
A20C
100
AcDbEntity
  8
DEFPOINTS
  6
ByBlock
 62
     0
440
 16777216
380
     1
100
AcDbPoint
 10
3971.554378179823
 20
4515.142183497137
 30
0.0
  0
ENDBLK
  5
AE1F
330
A20C
100
AcDbEntity
  8
0
100
AcDbBlockEnd
  0
BLOCK
  5
AE20
330
A235
100
AcDbEntity
  8
0
100
AcDbBlockBegin
  2
*D21
 70
     1
 10
0.0
 20
0.0
 30
0.0
  3
*D21
  1

  0
LINE
  5
AE21
330
A235
100
AcDbEntity
  8
0
  6
ByBlock
 62
     0
440
 16777216
380
     1
100
AcDbLine
 10
3761.554378179823
 20
4459.81441641428
 30
0.0
 11
3761.554378179823
 21
4525.142183497137
 31
0.0
  0
LINE
  5
AE22
330
A235
100
AcDbEntity
  8
0
  6
ByBlock
 62
     0
440
 16777216
380
     1
100
AcDbLine
 10
3671.554378179822
 20
4450.81441641428
 30
0.0
 11
3671.554378179822
 21
4525.142183497137
 31
0.0
  0
LINE
  5
AE23
330
A235
100
AcDbEntity
  8
0
  6
ByBlock
 62
     0
440
 16777216
380
     1
100
AcDbLine
 10
3741.554378179823
 20
4515.142183497137
 30
0.0
 11
3691.554378179822
 21
4515.142183497137
 31
0.0
  0
INSERT
  5
AE24
330
A235
100
AcDbEntity
  8
0
  6
ByBlock
 62
     0
440
 16777216
380
     1
100
AcDbBlockReference
  2
_OPEN
 10
3761.554378179823
 20
4515.142183497137
 30
0.0
 41
20.0
 42
20.0
 43
20.0
  0
INSERT
  5
AE25
330
A235
100
AcDbEntity
  8
0
  6
ByBlock
 62
     0
440
 16777216
380
     1
100
AcDbBlockReference
  2
_OPEN
 10
3671.554378179822
 20
4515.142183497137
 30
0.0
 41
20.0
 42
20.0
 43
20.0
 50
180.0
  0
MTEXT
  5
AE26
330
A235
100
AcDbEntity
  8
0
  6
ByBlock
 62
     0
440
 16777216
380
     1
100
AcDbMText
 10
3716.554378179822
 20
4552.642183497137
 30
0.0
 40
50.0
 41
0.0
 71
     5
 72
     1
  1
\A1;90
  7
DIM
 73
     1
 44
1.0
  0
POINT
  5
AE27
330
A235
100
AcDbEntity
  8
DEFPOINTS
  6
ByBlock
 62
     0
440
 16777216
380
     1
100
AcDbPoint
 10
3761.554378179823
 20
4439.81441641428
 30
0.0
  0
POINT
  5
AE28
330
A235
100
AcDbEntity
  8
DEFPOINTS
  6
ByBlock
 62
     0
440
 16777216
380
     1
100
AcDbPoint
 10
3671.554378179822
 20
4430.81441641428
 30
0.0
  0
POINT
  5
AE29
330
A235
100
AcDbEntity
  8
DEFPOINTS
  6
ByBlock
 62
     0
440
 16777216
380
     1
100
AcDbPoint
 10
3671.554378179822
 20
4515.142183497137
 30
0.0
  0
ENDBLK
  5
AE2A
330
A235
100
AcDbEntity
  8
0
100
AcDbBlockEnd
  0
BLOCK
  5
AE52
330
AA5F
100
AcDbEntity
  8
0
100
AcDbBlockBegin
  2
*D22
 70
     1
 10
0.0
 20
0.0
 30
0.0
  3
*D22
  1

  0
LINE
  5
AE53
330
AA5F
100
AcDbEntity
  8
0
  6
ByBlock
 62
     0
440
 16777216
380
     1
100
AcDbLine
 10
3778.805640838293
 20
4029.065679072752
 30
0.0
 11
3778.805640838293
 21
3689.413709457527
 31
0.0
  0
LINE
  5
AE54
330
AA5F
100
AcDbEntity
  8
0
  6
ByBlock
 62
     0
440
 16777216
380
     1
100
AcDbLine
 10
4971.554378179823
 20
3899.814416414281
 30
0.0
 11
4971.554378179823
 21
3689.413709457527
 31
0.0
  0
LINE
  5
AE55
330
AA5F
100
AcDbEntity
  8
0
  6
ByBlock
 62
     0
440
 16777216
380
     1
100
AcDbLine
 10
3798.805640838293
 20
3699.413709457527
 30
0.0
 11
4951.554378179823
 21
3699.413709457527
 31
0.0
  0
INSERT
  5
AE56
330
AA5F
100
AcDbEntity
  8
0
  6
ByBlock
 62
     0
440
 16777216
380
     1
100
AcDbBlockReference
  2
_OPEN
 10
3778.805640838293
 20
3699.413709457527
 30
0.0
 41
20.0
 42
20.0
 43
20.0
 50
180.0
  0
INSERT
  5
AE57
330
AA5F
100
AcDbEntity
  8
0
  6
ByBlock
 62
     0
440
 16777216
380
     1
100
AcDbBlockReference
  2
_OPEN
 10
4971.554378179823
 20
3699.413709457527
 30
0.0
 41
20.0
 42
20.0
 43
20.0
  0
MTEXT
  5
AE58
330
AA5F
100
AcDbEntity
  8
0
  6
ByBlock
 62
     0
440
 16777216
380
     1
100
AcDbMText
 10
4375.180009509058
 20
3736.913709457527
 30
0.0
 40
50.0
 41
0.0
 71
     5
 72
     1
  1
\A1;1193
  7
DIM
 73
     1
 44
1.0
  0
POINT
  5
AE59
330
AA5F
100
AcDbEntity
  8
DEFPOINTS
  6
ByBlock
 62
     0
440
 16777216
380
     1
100
AcDbPoint
 10
3778.805640838293
 20
4049.065679072752
 30
0.0
  0
POINT
  5
AE5A
330
AA5F
100
AcDbEntity
  8
DEFPOINTS
  6
ByBlock
 62
     0
440
 16777216
380
     1
100
AcDbPoint
 10
4971.554378179823
 20
3919.814416414281
 30
0.0
  0
POINT
  5
AE5B
330
AA5F
100
AcDbEntity
  8
DEFPOINTS
  6
ByBlock
 62
     0
440
 16777216
380
     1
100
AcDbPoint
 10
4971.554378179823
 20
3699.413709457527
 30
0.0
  0
ENDBLK
  5
AE5C
330
AA5F
100
AcDbEntity
  8
0
100
AcDbBlockEnd
  0
BLOCK
  5
AE5D
330
AA72
100
AcDbEntity
  8
0
100
AcDbBlockBegin
  2
*D23
 70
     1
 10
0.0
 20
0.0
 30
0.0
  3
*D23
  1

  0
LINE
  5
AE5E
330
AA72
100
AcDbEntity
  8
0
  6
ByBlock
 62
     0
440
 16777216
380
     1
100
AcDbLine
 10
3781.554378179822
 20
3999.81441641428
 30
0.0
 11
3781.554378179822
 21
3792.712290249256
 31
0.0
  0
LINE
  5
AE5F
330
AA72
100
AcDbEntity
  8
0
  6
ByBlock
 62
     0
440
 16777216
380
     1
100
AcDbLine
 10
3901.554378179823
 20
3999.81441641428
 30
0.0
 11
3901.554378179823
 21
3792.712290249256
 31
0.0
  0
LINE
  5
AE60
330
AA72
100
AcDbEntity
  8
0
  6
ByBlock
 62
     0
440
 16777216
380
     1
100
AcDbLine
 10
3801.554378179822
 20
3802.712290249256
 30
0.0
 11
3881.554378179823
 21
3802.712290249256
 31
0.0
  0
INSERT
  5
AE61
330
AA72
100
AcDbEntity
  8
0
  6
ByBlock
 62
     0
440
 16777216
380
     1
100
AcDbBlockReference
  2
_OPEN
 10
3781.554378179822
 20
3802.712290249256
 30
0.0
 41
20.0
 42
20.0
 43
20.0
 50
180.0
  0
INSERT
  5
AE62
330
AA72
100
AcDbEntity
  8
0
  6
ByBlock
 62
     0
440
 16777216
380
     1
100
AcDbBlockReference
  2
_OPEN
 10
3901.554378179823
 20
3802.712290249256
 30
0.0
 41
20.0
 42
20.0
 43
20.0
  0
MTEXT
  5
AE63
330
AA72
100
AcDbEntity
  8
0
  6
ByBlock
 62
     0
440
 16777216
380
     1
100
AcDbMText
 10
3841.554378179823
 20
3840.212290249256
 30
0.0
 40
50.0
 41
0.0
 71
     5
 72
     1
  1
\A1;120
  7
DIM
 73
     1
 44
1.0
  0
POINT
  5
AE64
330
AA72
100
AcDbEntity
  8
DEFPOINTS
  6
ByBlock
 62
     0
440
 16777216
380
     1
100
AcDbPoint
 10
3781.554378179822
 20
4019.81441641428
 30
0.0
  0
POINT
  5
AE65
330
AA72
100
AcDbEntity
  8
DEFPOINTS
  6
ByBlock
 62
     0
440
 16777216
380
     1
100
AcDbPoint
 10
3901.554378179823
 20
4019.81441641428
 30
0.0
  0
POINT
  5
AE66
330
AA72
100
AcDbEntity
  8
DEFPOINTS
  6
ByBlock
 62
     0
440
 16777216
380
     1
100
AcDbPoint
 10
3901.554378179823
 20
3802.712290249256
 30
0.0
  0
ENDBLK
  5
AE67
330
AA72
100
AcDbEntity
  8
0
100
AcDbBlockEnd
  0
BLOCK
  5
AE68
330
AA8C
100
AcDbEntity
  8
0
100
AcDbBlockBegin
  2
*D24
 70
     1
 10
0.0
 20
0.0
 30
0.0
  3
*D24
  1

  0
LINE
  5
AE69
330
AA8C
100
AcDbEntity
  8
0
  6
ByBlock
 62
     0
440
 16777216
380
     1
100
AcDbLine
 10
1424.125197949915
 20
4039.814416414281
 30
0.0
 11
1424.125197949915
 21
4106.128625834594
 31
0.0
  0
LINE
  5
AE6A
330
AA8C
100
AcDbEntity
  8
0
  6
ByBlock
 62
     0
440
 16777216
380
     1
100
AcDbLine
 10
1464.125197949915
 20
4039.814416414281
 30
0.0
 11
1464.125197949915
 21
4106.128625834594
 31
0.0
  0
LINE
  5
AE6B
330
AA8C
100
AcDbEntity
  8
0
  6
ByBlock
 62
     0
440
 16777216
380
     1
100
AcDbLine
 10
1404.125197949915
 20
4096.128625834594
 30
0.0
 11
1384.125197949915
 21
4096.128625834594
 31
0.0
  0
LINE
  5
AE6C
330
AA8C
100
AcDbEntity
  8
0
  6
ByBlock
 62
     0
440
 16777216
380
     1
100
AcDbLine
 10
1484.125197949915
 20
4096.128625834594
 30
0.0
 11
1504.125197949915
 21
4096.128625834594
 31
0.0
  0
MTEXT
  5
AE6D
330
AA8C
100
AcDbEntity
  8
0
  6
ByBlock
 62
     0
440
 16777216
380
     1
100
AcDbMText
 10
1444.125197949915
 20
4149.878625834594
 30
0.0
 40
50.0
 41
0.0
 71
     5
 72
     1
  1
\A1;φ40
  7
DIM
 73
     1
 44
1.0
  0
LINE
  5
AE6E
330
AA8C
100
AcDbEntity
  8
0
  6
ByBlock
 62
     0
440
 16777216
380
     1
100
AcDbLine
 10
1424.125197949915
 20
4096.128625834594
 30
0.0
 11
1464.125197949915
 21
4096.128625834594
 31
0.0
  0
LINE
  5
AE6F
330
AA8C
100
AcDbEntity
  8
0
  6
ByBlock
 62
     0
440
 16777216
380
     1
100
AcDbLine
 10
1424.125197949915
 20
4096.128625834594
 30
0.0
 11
1464.125197949915
 21
4096.128625834594
 31
0.0
  0
INSERT
  5
AE70
330
AA8C
100
AcDbEntity
  8
0
  6
ByBlock
 62
     0
440
 16777216
380
     1
100
AcDbBlockReference
  2
_OPEN
 10
1424.125197949915
 20
4096.128625834594
 30
0.0
 41
20.0
 42
20.0
 43
20.0
  0
INSERT
  5
AE71
330
AA8C
100
AcDbEntity
  8
0
  6
ByBlock
 62
     0
440
 16777216
380
     1
100
AcDbBlockReference
  2
_OPEN
 10
1464.125197949915
 20
4096.128625834594
 30
0.0
 41
20.0
 42
20.0
 43
20.0
 50
180.0
  0
POINT
  5
AE72
330
AA8C
100
AcDbEntity
  8
DEFPOINTS
  6
ByBlock
 62
     0
440
 16777216
380
     1
100
AcDbPoint
 10
1424.125197949915
 20
4019.814416414281
 30
0.0
  0
POINT
  5
AE73
330
AA8C
100
AcDbEntity
  8
DEFPOINTS
  6
ByBlock
 62
     0
440
 16777216
380
     1
100
AcDbPoint
 10
1464.125197949915
 20
4019.814416414281
 30
0.0
  0
POINT
  5
AE74
330
AA8C
100
AcDbEntity
  8
DEFPOINTS
  6
ByBlock
 62
     0
440
 16777216
380
     1
100
AcDbPoint
 10
1464.125197949915
 20
4096.128625834594
 30
0.0
  0
ENDBLK
  5
AE75
330
AA8C
100
AcDbEntity
  8
0
100
AcDbBlockEnd
  0
BLOCK
  5
AE76
330
AA9C
100
AcDbEntity
  8
0
100
AcDbBlockBegin
  2
*D25
 70
     1
 10
0.0
 20
0.0
 30
0.0
  3
*D25
  1

  0
LINE
  5
AE77
330
AA9C
100
AcDbEntity
  8
0
  6
ByBlock
 62
     0
440
 16777216
380
     1
100
AcDbLine
 10
1434.125197949915
 20
3899.814416414281
 30
0.0
 11
1434.125197949915
 21
3797.47461949398
 31
0.0
  0
LINE
  5
AE78
330
AA9C
100
AcDbEntity
  8
0
  6
ByBlock
 62
     0
440
 16777216
380
     1
100
AcDbLine
 10
1454.125197949915
 20
3899.814416414281
 30
0.0
 11
1454.125197949915
 21
3797.47461949398
 31
0.0
  0
LINE
  5
AE79
330
AA9C
100
AcDbEntity
  8
0
  6
ByBlock
 62
     0
440
 16777216
380
     1
100
AcDbLine
 10
1414.125197949915
 20
3807.47461949398
 30
0.0
 11
1394.125197949915
 21
3807.47461949398
 31
0.0
  0
LINE
  5
AE7A
330
AA9C
100
AcDbEntity
  8
0
  6
ByBlock
 62
     0
440
 16777216
380
     1
100
AcDbLine
 10
1474.125197949915
 20
3807.47461949398
 30
0.0
 11
1494.125197949915
 21
3807.47461949398
 31
0.0
  0
MTEXT
  5
AE7B
330
AA9C
100
AcDbEntity
  8
0
  6
ByBlock
 62
     0
440
 16777216
380
     1
100
AcDbMText
 10
1513.425750918366
 20
3847.655597011733
 30
0.0
 40
50.0
 41
0.0
 71
     5
 72
     1
  1
\A1;φ20
  7
DIM
 73
     1
 44
1.0
  0
LINE
  5
AE7C
330
AA9C
100
AcDbEntity
  8
0
  6
ByBlock
 62
     0
440
 16777216
380
     1
100
AcDbLine
 10
1434.125197949915
 20
3807.47461949398
 30
0.0
 11
1454.125197949915
 21
3807.47461949398
 31
0.0
  0
LINE
  5
AE7D
330
AA9C
100
AcDbEntity
  8
0
  6
ByBlock
 62
     0
440
 16777216
380
     1
100
AcDbLine
 10
1434.125197949915
 20
3807.47461949398
 30
0.0
 11
1454.125197949915
 21
3807.47461949398
 31
0.0
  0
INSERT
  5
AE7E
330
AA9C
100
AcDbEntity
  8
0
  6
ByBlock
 62
     0
440
 16777216
380
     1
100
AcDbBlockReference
  2
_OPEN
 10
1434.125197949915
 20
3807.47461949398
 30
0.0
 41
20.0
 42
20.0
 43
20.0
  0
INSERT
  5
AE7F
330
AA9C
100
AcDbEntity
  8
0
  6
ByBlock
 62
     0
440
 16777216
380
     1
100
AcDbBlockReference
  2
_OPEN
 10
1454.125197949915
 20
3807.47461949398
 30
0.0
 41
20.0
 42
20.0
 43
20.0
 50
180.0
  0
POINT
  5
AE80
330
AA9C
100
AcDbEntity
  8
DEFPOINTS
  6
ByBlock
 62
     0
440
 16777216
380
     1
100
AcDbPoint
 10
1434.125197949915
 20
3919.814416414281
 30
0.0
  0
POINT
  5
AE81
330
AA9C
100
AcDbEntity
  8
DEFPOINTS
  6
ByBlock
 62
     0
440
 16777216
380
     1
100
AcDbPoint
 10
1454.125197949915
 20
3919.814416414281
 30
0.0
  0
POINT
  5
AE82
330
AA9C
100
AcDbEntity
  8
DEFPOINTS
  6
ByBlock
 62
     0
440
 16777216
380
     1
100
AcDbPoint
 10
1454.125197949915
 20
3807.47461949398
 30
0.0
  0
ENDBLK
  5
AE83
330
AA9C
100
AcDbEntity
  8
0
100
AcDbBlockEnd
  0
BLOCK
  5
AE9A
330
AE99
100
AcDbEntity
  8
0
100
AcDbBlockBegin
  2
*D27
 70
     1
 10
0.0
 20
0.0
 30
0.0
  3
*D27
  1

  0
LINE
  5
B41A
330
AE99
100
AcDbEntity
  8
寸法
 62
     0
440
 16777216
370
    -2
100
AcDbLine
 10
1299.125197949915
 20
4439.814416414281
 30
0.0
 11
315.8495203157182
 21
4439.814416414281
 31
0.0
  0
LINE
  5
B41B
330
AE99
100
AcDbEntity
  8
寸法
 62
     0
440
 16777216
370
    -2
100
AcDbLine
 10
424.1251979499148
 20
4419.814416414281
 30
0.0
 11
315.8495203157182
 21
4419.814416414281
 31
0.0
  0
LINE
  5
B41C
330
AE99
100
AcDbEntity
  8
寸法
 62
     0
440
 16777216
370
    -2
100
AcDbLine
 10
325.8495203157182
 20
4459.814416414281
 30
0.0
 11
325.8495203157182
 21
4479.814416414281
 31
0.0
  0
LINE
  5
B41D
330
AE99
100
AcDbEntity
  8
寸法
 62
     0
440
 16777216
370
    -2
100
AcDbLine
 10
325.8495203157182
 20
4399.814416414281
 30
0.0
 11
325.8495203157182
 21
4379.814416414281
 31
0.0
  0
MTEXT
  5
B41E
330
AE99
100
AcDbEntity
  8
寸法
 62
     0
440
 16777216
100
AcDbMText
 10
272.0995203157175
 20
4429.814416414281
 30
0.0
 40
50.0
 41
0.0
 71
     5
 72
     1
  1
\A1;20
  7
DIM
 11
6.123031769111886E-17
 21
1.0
 31
0.0
 73
     1
 44
1.0
  0
LINE
  5
B41F
330
AE99
100
AcDbEntity
  8
寸法
 62
     0
440
 16777216
370
    -2
100
AcDbLine
 10
325.8495203157182
 20
4439.814416414281
 30
0.0
 11
325.8495203157182
 21
4419.814416414281
 31
0.0
  0
INSERT
  5
B420
330
AE99
100
AcDbEntity
  8
寸法
 62
     0
440
 16777216
370
    -2
100
AcDbBlockReference
  2
_OPEN
 10
325.8495203157182
 20
4439.814416414281
 30
0.0
 41
20.0
 42
20.0
 43
20.0
 50
270.0
  0
INSERT
  5
B421
330
AE99
100
AcDbEntity
  8
寸法
 62
     0
440
 16777216
370
    -2
100
AcDbBlockReference
  2
_OPEN
 10
325.8495203157182
 20
4419.814416414281
 30
0.0
 41
20.0
 42
20.0
 43
20.0
 50
90.0
  0
POINT
  5
B422
330
AE99
100
AcDbEntity
  8
DEFPOINTS
 62
     0
440
 16777216
100
AcDbPoint
 10
1319.125197949915
 20
4439.814416414281
 30
0.0
  0
POINT
  5
B423
330
AE99
100
AcDbEntity
  8
DEFPOINTS
 62
     0
440
 16777216
100
AcDbPoint
 10
444.1251979499148
 20
4419.814416414281
 30
0.0
  0
POINT
  5
B424
330
AE99
100
AcDbEntity
  8
DEFPOINTS
 62
     0
440
 16777216
100
AcDbPoint
 10
325.8495203157182
 20
4419.814416414281
 30
0.0
  0
ENDBLK
  5
AEA7
330
AE99
100
AcDbEntity
  8
0
100
AcDbBlockEnd
  0
BLOCK
  5
B16B
330
B16A
100
AcDbEntity
  8
0
100
AcDbBlockBegin
  2
*D28
 70
     1
 10
0.0
 20
0.0
 30
0.0
  3
*D28
  1

  0
LINE
  5
B16C
330
B16A
100
AcDbEntity
  8
0
  6
ByBlock
 62
     0
440
 16777216
380
     1
100
AcDbLine
 10
1319.125197949915
 20
4459.814416414281
 30
0.0
 11
1319.125197949915
 21
4612.708209637674
 31
0.0
  0
LINE
  5
B16D
330
B16A
100
AcDbEntity
  8
0
  6
ByBlock
 62
     0
440
 16777216
380
     1
100
AcDbLine
 10
1569.125197949915
 20
4459.814416414281
 30
0.0
 11
1569.125197949915
 21
4612.708209637674
 31
0.0
  0
LINE
  5
B16E
330
B16A
100
AcDbEntity
  8
0
  6
ByBlock
 62
     0
440
 16777216
380
     1
100
AcDbLine
 10
1339.125197949915
 20
4602.708209637674
 30
0.0
 11
1549.125197949915
 21
4602.708209637674
 31
0.0
  0
INSERT
  5
B16F
330
B16A
100
AcDbEntity
  8
0
  6
ByBlock
 62
     0
440
 16777216
380
     1
100
AcDbBlockReference
  2
_OPEN
 10
1319.125197949915
 20
4602.708209637674
 30
0.0
 41
20.0
 42
20.0
 43
20.0
 50
180.0
  0
INSERT
  5
B170
330
B16A
100
AcDbEntity
  8
0
  6
ByBlock
 62
     0
440
 16777216
380
     1
100
AcDbBlockReference
  2
_OPEN
 10
1569.125197949915
 20
4602.708209637674
 30
0.0
 41
20.0
 42
20.0
 43
20.0
  0
MTEXT
  5
B171
330
B16A
100
AcDbEntity
  8
0
  6
ByBlock
 62
     0
440
 16777216
380
     1
100
AcDbMText
 10
1444.125197949915
 20
4640.208209637674
 30
0.0
 40
50.0
 41
0.0
 71
     5
 72
     1
  1
\A1;250
  7
DIM
 73
     1
 44
1.0
  0
POINT
  5
B172
330
B16A
100
AcDbEntity
  8
DEFPOINTS
  6
ByBlock
 62
     0
440
 16777216
380
     1
100
AcDbPoint
 10
1319.125197949915
 20
4439.814416414281
 30
0.0
  0
POINT
  5
B173
330
B16A
100
AcDbEntity
  8
DEFPOINTS
  6
ByBlock
 62
     0
440
 16777216
380
     1
100
AcDbPoint
 10
1569.125197949915
 20
4439.814416414281
 30
0.0
  0
POINT
  5
B174
330
B16A
100
AcDbEntity
  8
DEFPOINTS
  6
ByBlock
 62
     0
440
 16777216
380
     1
100
AcDbPoint
 10
1569.125197949915
 20
4602.708209637674
 30
0.0
  0
ENDBLK
  5
B175
330
B16A
100
AcDbEntity
  8
0
100
AcDbBlockEnd
  0
BLOCK
  5
B178
330
B177
100
AcDbEntity
  8
0
100
AcDbBlockBegin
  2
*D29
 70
     1
 10
0.0
 20
0.0
 30
0.0
  3
*D29
  1

  0
LINE
  5
B179
330
B177
100
AcDbEntity
  8
0
  6
ByBlock
 62
     0
440
 16777216
380
     1
100
AcDbLine
 10
1294.125197949915
 20
4439.814416414281
 30
0.0
 11
1294.125197949915
 21
4692.728475992222
 31
0.0
  0
LINE
  5
B17A
330
B177
100
AcDbEntity
  8
0
  6
ByBlock
 62
     0
440
 16777216
380
     1
100
AcDbLine
 10
1594.125197949915
 20
4439.814416414281
 30
0.0
 11
1594.125197949915
 21
4692.728475992222
 31
0.0
  0
LINE
  5
B17B
330
B177
100
AcDbEntity
  8
0
  6
ByBlock
 62
     0
440
 16777216
380
     1
100
AcDbLine
 10
1314.125197949915
 20
4682.728475992222
 30
0.0
 11
1574.125197949915
 21
4682.728475992222
 31
0.0
  0
INSERT
  5
B17C
330
B177
100
AcDbEntity
  8
0
  6
ByBlock
 62
     0
440
 16777216
380
     1
100
AcDbBlockReference
  2
_OPEN
 10
1294.125197949915
 20
4682.728475992222
 30
0.0
 41
20.0
 42
20.0
 43
20.0
 50
180.0
  0
INSERT
  5
B17D
330
B177
100
AcDbEntity
  8
0
  6
ByBlock
 62
     0
440
 16777216
380
     1
100
AcDbBlockReference
  2
_OPEN
 10
1594.125197949915
 20
4682.728475992222
 30
0.0
 41
20.0
 42
20.0
 43
20.0
  0
MTEXT
  5
B17E
330
B177
100
AcDbEntity
  8
0
  6
ByBlock
 62
     0
440
 16777216
380
     1
100
AcDbMText
 10
1444.125197949915
 20
4720.228475992222
 30
0.0
 40
50.0
 41
0.0
 71
     5
 72
     1
  1
\A1;300
  7
DIM
 73
     1
 44
1.0
  0
POINT
  5
B17F
330
B177
100
AcDbEntity
  8
DEFPOINTS
  6
ByBlock
 62
     0
440
 16777216
380
     1
100
AcDbPoint
 10
1294.125197949915
 20
4419.814416414281
 30
0.0
  0
POINT
  5
B180
330
B177
100
AcDbEntity
  8
DEFPOINTS
  6
ByBlock
 62
     0
440
 16777216
380
     1
100
AcDbPoint
 10
1594.125197949915
 20
4419.814416414281
 30
0.0
  0
POINT
  5
B181
330
B177
100
AcDbEntity
  8
DEFPOINTS
  6
ByBlock
 62
     0
440
 16777216
380
     1
100
AcDbPoint
 10
1594.125197949915
 20
4682.728475992222
 30
0.0
  0
ENDBLK
  5
B182
330
B177
100
AcDbEntity
  8
0
100
AcDbBlockEnd
  0
BLOCK
  5
B191
330
B184
100
AcDbEntity
  8
0
100
AcDbBlockBegin
  2
*D30
 70
     1
 10
0.0
 20
0.0
 30
0.0
  3
*D30
  1

  0
LINE
  5
B192
330
B184
100
AcDbEntity
  8
0
  6
ByBlock
 62
     0
440
 16777216
380
     1
100
AcDbLine
 10
3766.554378179822
 20
4090.81441641428
 30
0.0
 11
3766.554378179822
 21
3690.421115285548
 31
0.0
  0
LINE
  5
B193
330
B184
100
AcDbEntity
  8
0
  6
ByBlock
 62
     0
440
 16777216
380
     1
100
AcDbLine
 10
3671.554378179822
 20
3908.81441641428
 30
0.0
 11
3671.554378179822
 21
3690.421115285548
 31
0.0
  0
LINE
  5
B194
330
B184
100
AcDbEntity
  8
0
  6
ByBlock
 62
     0
440
 16777216
380
     1
100
AcDbLine
 10
3746.554378179822
 20
3700.421115285548
 30
0.0
 11
3691.554378179822
 21
3700.421115285548
 31
0.0
  0
INSERT
  5
B195
330
B184
100
AcDbEntity
  8
0
  6
ByBlock
 62
     0
440
 16777216
380
     1
100
AcDbBlockReference
  2
_OPEN
 10
3766.554378179822
 20
3700.421115285548
 30
0.0
 41
20.0
 42
20.0
 43
20.0
  0
INSERT
  5
B196
330
B184
100
AcDbEntity
  8
0
  6
ByBlock
 62
     0
440
 16777216
380
     1
100
AcDbBlockReference
  2
_OPEN
 10
3671.554378179822
 20
3700.421115285548
 30
0.0
 41
20.0
 42
20.0
 43
20.0
 50
180.0
  0
MTEXT
  5
B197
330
B184
100
AcDbEntity
  8
0
  6
ByBlock
 62
     0
440
 16777216
380
     1
100
AcDbMText
 10
3719.054378179822
 20
3737.921115285548
 30
0.0
 40
50.0
 41
0.0
 71
     5
 72
     1
  1
\A1;95
  7
DIM
 73
     1
 44
1.0
  0
POINT
  5
B198
330
B184
100
AcDbEntity
  8
DEFPOINTS
  6
ByBlock
 62
     0
440
 16777216
380
     1
100
AcDbPoint
 10
3766.554378179822
 20
4110.81441641428
 30
0.0
  0
POINT
  5
B199
330
B184
100
AcDbEntity
  8
DEFPOINTS
  6
ByBlock
 62
     0
440
 16777216
380
     1
100
AcDbPoint
 10
3671.554378179822
 20
3928.81441641428
 30
0.0
  0
POINT
  5
B19A
330
B184
100
AcDbEntity
  8
DEFPOINTS
  6
ByBlock
 62
     0
440
 16777216
380
     1
100
AcDbPoint
 10
3671.554378179822
 20
3700.421115285548
 30
0.0
  0
ENDBLK
  5
B19B
330
B184
100
AcDbEntity
  8
0
100
AcDbBlockEnd
  0
BLOCK
  5
B1B1
330
B1A7
100
AcDbEntity
  8
0
100
AcDbBlockBegin
  2
*D31
 70
     1
 10
0.0
 20
0.0
 30
0.0
  3
*D31
  1

  0
LINE
  5
B1A8
330
B1A7
100
AcDbEntity
  8
0
  6
ByBlock
 62
     0
440
 16777216
380
     1
100
AcDbLine
 10
6344.135590971087
 20
2313.207678595862
 30
0.0
 11
6344.135590971087
 21
2185.587177203055
 31
0.0
  0
LINE
  5
B1A9
330
B1A7
100
AcDbEntity
  8
0
  6
ByBlock
 62
     0
440
 16777216
380
     1
100
AcDbLine
 10
6221.635590971087
 20
2313.207678595862
 30
0.0
 11
6221.635590971087
 21
2185.587177203055
 31
0.0
  0
LINE
  5
B1AA
330
B1A7
100
AcDbEntity
  8
0
  6
ByBlock
 62
     0
440
 16777216
380
     1
100
AcDbLine
 10
6324.135590971087
 20
2195.587177203055
 30
0.0
 11
6241.635590971087
 21
2195.587177203055
 31
0.0
  0
INSERT
  5
B1AB
330
B1A7
100
AcDbEntity
  8
0
  6
ByBlock
 62
     0
440
 16777216
380
     1
100
AcDbBlockReference
  2
_OPEN
 10
6344.135590971087
 20
2195.587177203055
 30
0.0
 41
20.0
 42
20.0
 43
20.0
  0
INSERT
  5
B1AC
330
B1A7
100
AcDbEntity
  8
0
  6
ByBlock
 62
     0
440
 16777216
380
     1
100
AcDbBlockReference
  2
_OPEN
 10
6221.635590971087
 20
2195.587177203055
 30
0.0
 41
20.0
 42
20.0
 43
20.0
 50
180.0
  0
MTEXT
  5
B1AD
330
B1A7
100
AcDbEntity
  8
0
  6
ByBlock
 62
     0
440
 16777216
380
     1
100
AcDbMText
 10
6282.885590971087
 20
2233.087177203055
 30
0.0
 40
50.0
 41
0.0
 71
     5
 72
     1
  1
\A1;49
  7
DIM
 73
     1
 44
1.0
  0
POINT
  5
B1AE
330
B1A7
100
AcDbEntity
  8
DEFPOINTS
  6
ByBlock
 62
     0
440
 16777216
380
     1
100
AcDbPoint
 10
6344.135590971087
 20
2333.207678595862
 30
0.0
  0
POINT
  5
B1AF
330
B1A7
100
AcDbEntity
  8
DEFPOINTS
  6
ByBlock
 62
     0
440
 16777216
380
     1
100
AcDbPoint
 10
6221.635590971087
 20
2333.207678595862
 30
0.0
  0
POINT
  5
B1B0
330
B1A7
100
AcDbEntity
  8
DEFPOINTS
  6
ByBlock
 62
     0
440
 16777216
380
     1
100
AcDbPoint
 10
6221.635590971087
 20
2195.587177203055
 30
0.0
  0
ENDBLK
  5
B1B2
330
B1A7
100
AcDbEntity
  8
0
100
AcDbBlockEnd
  0
BLOCK
  5
B1C0
330
B1B3
100
AcDbEntity
  8
0
100
AcDbBlockBegin
  2
*D32
 70
     1
 10
0.0
 20
0.0
 30
0.0
  3
*D32
  1

  0
LINE
  5
B1B4
330
B1B3
100
AcDbEntity
  8
0
  6
ByBlock
 62
     0
440
 16777216
380
     1
100
AcDbLine
 10
6344.135590971087
 20
2313.207678595862
 30
0.0
 11
6344.135590971087
 21
2185.587177203055
 31
0.0
  0
LINE
  5
B1B5
330
B1B3
100
AcDbEntity
  8
0
  6
ByBlock
 62
     0
440
 16777216
380
     1
100
AcDbLine
 10
6384.135590971087
 20
2313.207678595862
 30
0.0
 11
6384.135590971087
 21
2185.587177203055
 31
0.0
  0
LINE
  5
B1B6
330
B1B3
100
AcDbEntity
  8
0
  6
ByBlock
 62
     0
440
 16777216
380
     1
100
AcDbLine
 10
6324.135590971087
 20
2195.587177203055
 30
0.0
 11
6304.135590971087
 21
2195.587177203055
 31
0.0
  0
LINE
  5
B1B7
330
B1B3
100
AcDbEntity
  8
0
  6
ByBlock
 62
     0
440
 16777216
380
     1
100
AcDbLine
 10
6404.135590971087
 20
2195.587177203055
 30
0.0
 11
6424.135590971087
 21
2195.587177203055
 31
0.0
  0
MTEXT
  5
B1B8
330
B1B3
100
AcDbEntity
  8
0
  6
ByBlock
 62
     0
440
 16777216
380
     1
100
AcDbMText
 10
6427.357312170119
 20
2229.556328107477
 30
0.0
 40
50.0
 41
0.0
 71
     5
 72
     1
  1
\A1;16
  7
DIM
 73
     1
 44
1.0
  0
LINE
  5
B1B9
330
B1B3
100
AcDbEntity
  8
0
  6
ByBlock
 62
     0
440
 16777216
380
     1
100
AcDbLine
 10
6344.135590971087
 20
2195.587177203055
 30
0.0
 11
6384.135590971087
 21
2195.587177203055
 31
0.0
  0
LINE
  5
B1BA
330
B1B3
100
AcDbEntity
  8
0
  6
ByBlock
 62
     0
440
 16777216
380
     1
100
AcDbLine
 10
6344.135590971087
 20
2195.587177203055
 30
0.0
 11
6384.135590971087
 21
2195.587177203055
 31
0.0
  0
INSERT
  5
B1BB
330
B1B3
100
AcDbEntity
  8
0
  6
ByBlock
 62
     0
440
 16777216
380
     1
100
AcDbBlockReference
  2
_OPEN
 10
6344.135590971087
 20
2195.587177203055
 30
0.0
 41
20.0
 42
20.0
 43
20.0
  0
INSERT
  5
B1BC
330
B1B3
100
AcDbEntity
  8
0
  6
ByBlock
 62
     0
440
 16777216
380
     1
100
AcDbBlockReference
  2
_OPEN
 10
6384.135590971087
 20
2195.587177203055
 30
0.0
 41
20.0
 42
20.0
 43
20.0
 50
180.0
  0
POINT
  5
B1BD
330
B1B3
100
AcDbEntity
  8
DEFPOINTS
  6
ByBlock
 62
     0
440
 16777216
380
     1
100
AcDbPoint
 10
6344.135590971087
 20
2333.207678595862
 30
0.0
  0
POINT
  5
B1BE
330
B1B3
100
AcDbEntity
  8
DEFPOINTS
  6
ByBlock
 62
     0
440
 16777216
380
     1
100
AcDbPoint
 10
6384.135590971087
 20
2333.207678595862
 30
0.0
  0
POINT
  5
B1BF
330
B1B3
100
AcDbEntity
  8
DEFPOINTS
  6
ByBlock
 62
     0
440
 16777216
380
     1
100
AcDbPoint
 10
6384.135590971087
 20
2195.587177203055
 30
0.0
  0
ENDBLK
  5
B1C1
330
B1B3
100
AcDbEntity
  8
0
100
AcDbBlockEnd
  0
BLOCK
  5
B1CC
330
B1C2
100
AcDbEntity
  8
0
100
AcDbBlockBegin
  2
*D33
 70
     1
 10
0.0
 20
0.0
 30
0.0
  3
*D33
  1

  0
LINE
  5
B1C3
330
B1C2
100
AcDbEntity
  8
0
  6
ByBlock
 62
     0
440
 16777216
380
     1
100
AcDbLine
 10
6221.635590971087
 20
2313.207678595862
 30
0.0
 11
6221.635590971087
 21
2089.612510043049
 31
0.0
  0
LINE
  5
B1C4
330
B1C2
100
AcDbEntity
  8
0
  6
ByBlock
 62
     0
440
 16777216
380
     1
100
AcDbLine
 10
6384.135590971087
 20
2313.207678595862
 30
0.0
 11
6384.135590971087
 21
2089.612510043049
 31
0.0
  0
LINE
  5
B1C5
330
B1C2
100
AcDbEntity
  8
0
  6
ByBlock
 62
     0
440
 16777216
380
     1
100
AcDbLine
 10
6241.635590971087
 20
2099.612510043049
 30
0.0
 11
6364.135590971087
 21
2099.612510043049
 31
0.0
  0
INSERT
  5
B1C6
330
B1C2
100
AcDbEntity
  8
0
  6
ByBlock
 62
     0
440
 16777216
380
     1
100
AcDbBlockReference
  2
_OPEN
 10
6221.635590971087
 20
2099.612510043049
 30
0.0
 41
20.0
 42
20.0
 43
20.0
 50
180.0
  0
INSERT
  5
B1C7
330
B1C2
100
AcDbEntity
  8
0
  6
ByBlock
 62
     0
440
 16777216
380
     1
100
AcDbBlockReference
  2
_OPEN
 10
6384.135590971087
 20
2099.612510043049
 30
0.0
 41
20.0
 42
20.0
 43
20.0
  0
MTEXT
  5
B1C8
330
B1C2
100
AcDbEntity
  8
0
  6
ByBlock
 62
     0
440
 16777216
380
     1
100
AcDbMText
 10
6302.885590971087
 20
2137.112510043049
 30
0.0
 40
50.0
 41
0.0
 71
     5
 72
     1
  1
\A1;65
  7
DIM
 73
     1
 44
1.0
  0
POINT
  5
B1C9
330
B1C2
100
AcDbEntity
  8
DEFPOINTS
  6
ByBlock
 62
     0
440
 16777216
380
     1
100
AcDbPoint
 10
6221.635590971087
 20
2333.207678595862
 30
0.0
  0
POINT
  5
B1CA
330
B1C2
100
AcDbEntity
  8
DEFPOINTS
  6
ByBlock
 62
     0
440
 16777216
380
     1
100
AcDbPoint
 10
6384.135590971087
 20
2333.207678595862
 30
0.0
  0
POINT
  5
B1CB
330
B1C2
100
AcDbEntity
  8
DEFPOINTS
  6
ByBlock
 62
     0
440
 16777216
380
     1
100
AcDbPoint
 10
6384.135590971087
 20
2099.612510043049
 30
0.0
  0
ENDBLK
  5
B1CD
330
B1C2
100
AcDbEntity
  8
0
100
AcDbBlockEnd
  0
BLOCK
  5
B1D8
330
B1CE
100
AcDbEntity
  8
0
100
AcDbBlockBegin
  2
*D34
 70
     1
 10
0.0
 20
0.0
 30
0.0
  3
*D34
  1

  0
LINE
  5
B1CF
330
B1CE
100
AcDbEntity
  8
0
  6
ByBlock
 62
     0
440
 16777216
380
     1
100
AcDbLine
 10
6201.635590971087
 20
2643.207678595862
 30
0.0
 11
6005.139380673532
 21
2643.207678595862
 31
0.0
  0
LINE
  5
B1D0
330
B1CE
100
AcDbEntity
  8
0
  6
ByBlock
 62
     0
440
 16777216
380
     1
100
AcDbLine
 10
6201.635590971087
 20
2333.207678595862
 30
0.0
 11
6005.139380673532
 21
2333.207678595862
 31
0.0
  0
LINE
  5
B1D1
330
B1CE
100
AcDbEntity
  8
0
  6
ByBlock
 62
     0
440
 16777216
380
     1
100
AcDbLine
 10
6015.139380673532
 20
2623.207678595862
 30
0.0
 11
6015.139380673532
 21
2353.207678595862
 31
0.0
  0
INSERT
  5
B1D2
330
B1CE
100
AcDbEntity
  8
0
  6
ByBlock
 62
     0
440
 16777216
380
     1
100
AcDbBlockReference
  2
_OPEN
 10
6015.139380673532
 20
2643.207678595862
 30
0.0
 41
20.0
 42
20.0
 43
20.0
 50
90.0
  0
INSERT
  5
B1D3
330
B1CE
100
AcDbEntity
  8
0
  6
ByBlock
 62
     0
440
 16777216
380
     1
100
AcDbBlockReference
  2
_OPEN
 10
6015.139380673532
 20
2333.207678595862
 30
0.0
 41
20.0
 42
20.0
 43
20.0
 50
270.0
  0
MTEXT
  5
B1D4
330
B1CE
100
AcDbEntity
  8
0
  6
ByBlock
 62
     0
440
 16777216
380
     1
100
AcDbMText
 10
5977.639380673532
 20
2488.207678595862
 30
0.0
 40
50.0
 41
0.0
 71
     5
 72
     1
  1
\A1;124
  7
DIM
 11
6.123031769111886E-17
 21
1.0
 31
0.0
 73
     1
 44
1.0
  0
POINT
  5
B1D5
330
B1CE
100
AcDbEntity
  8
DEFPOINTS
  6
ByBlock
 62
     0
440
 16777216
380
     1
100
AcDbPoint
 10
6221.635590971087
 20
2643.207678595862
 30
0.0
  0
POINT
  5
B1D6
330
B1CE
100
AcDbEntity
  8
DEFPOINTS
  6
ByBlock
 62
     0
440
 16777216
380
     1
100
AcDbPoint
 10
6221.635590971087
 20
2333.207678595862
 30
0.0
  0
POINT
  5
B1D7
330
B1CE
100
AcDbEntity
  8
DEFPOINTS
  6
ByBlock
 62
     0
440
 16777216
380
     1
100
AcDbPoint
 10
6015.139380673532
 20
2333.207678595862
 30
0.0
  0
ENDBLK
  5
B1D9
330
B1CE
100
AcDbEntity
  8
0
100
AcDbBlockEnd
  0
BLOCK
  5
B1E7
330
B1DA
100
AcDbEntity
  8
0
100
AcDbBlockBegin
  2
*D35
 70
     1
 10
0.0
 20
0.0
 30
0.0
  3
*D35
  1

  0
LINE
  5
B1DB
330
B1DA
100
AcDbEntity
  8
0
  6
ByBlock
 62
     0
440
 16777216
380
     1
100
AcDbLine
 10
6201.635590971087
 20
2613.207678595862
 30
0.0
 11
6107.631001283267
 21
2613.207678595862
 31
0.0
  0
LINE
  5
B1DC
330
B1DA
100
AcDbEntity
  8
0
  6
ByBlock
 62
     0
440
 16777216
380
     1
100
AcDbLine
 10
6201.635590971087
 20
2643.207678595862
 30
0.0
 11
6107.631001283267
 21
2643.207678595862
 31
0.0
  0
LINE
  5
B1DD
330
B1DA
100
AcDbEntity
  8
0
  6
ByBlock
 62
     0
440
 16777216
380
     1
100
AcDbLine
 10
6117.631001283267
 20
2593.207678595862
 30
0.0
 11
6117.631001283267
 21
2573.207678595862
 31
0.0
  0
LINE
  5
B1DE
330
B1DA
100
AcDbEntity
  8
0
  6
ByBlock
 62
     0
440
 16777216
380
     1
100
AcDbLine
 10
6117.631001283267
 20
2663.207678595862
 30
0.0
 11
6117.631001283267
 21
2683.207678595862
 31
0.0
  0
MTEXT
  5
B1DF
330
B1DA
100
AcDbEntity
  8
0
  6
ByBlock
 62
     0
440
 16777216
380
     1
100
AcDbMText
 10
6063.881001283267
 20
2672.882167142159
 30
0.0
 40
50.0
 41
0.0
 71
     5
 72
     1
  1
\A1;12
  7
DIM
 11
6.123031769111886E-17
 21
1.0
 31
0.0
 73
     1
 44
1.0
  0
LINE
  5
B1E0
330
B1DA
100
AcDbEntity
  8
0
  6
ByBlock
 62
     0
440
 16777216
380
     1
100
AcDbLine
 10
6117.631001283267
 20
2613.207678595862
 30
0.0
 11
6117.631001283267
 21
2643.207678595862
 31
0.0
  0
LINE
  5
B1E1
330
B1DA
100
AcDbEntity
  8
0
  6
ByBlock
 62
     0
440
 16777216
380
     1
100
AcDbLine
 10
6117.631001283267
 20
2613.207678595862
 30
0.0
 11
6117.631001283267
 21
2643.207678595862
 31
0.0
  0
INSERT
  5
B1E2
330
B1DA
100
AcDbEntity
  8
0
  6
ByBlock
 62
     0
440
 16777216
380
     1
100
AcDbBlockReference
  2
_OPEN
 10
6117.631001283267
 20
2613.207678595862
 30
0.0
 41
20.0
 42
20.0
 43
20.0
 50
90.0
  0
INSERT
  5
B1E3
330
B1DA
100
AcDbEntity
  8
0
  6
ByBlock
 62
     0
440
 16777216
380
     1
100
AcDbBlockReference
  2
_OPEN
 10
6117.631001283267
 20
2643.207678595862
 30
0.0
 41
20.0
 42
20.0
 43
20.0
 50
270.0
  0
POINT
  5
B1E4
330
B1DA
100
AcDbEntity
  8
DEFPOINTS
  6
ByBlock
 62
     0
440
 16777216
380
     1
100
AcDbPoint
 10
6221.635590971087
 20
2613.207678595862
 30
0.0
  0
POINT
  5
B1E5
330
B1DA
100
AcDbEntity
  8
DEFPOINTS
  6
ByBlock
 62
     0
440
 16777216
380
     1
100
AcDbPoint
 10
6221.635590971087
 20
2643.207678595862
 30
0.0
  0
POINT
  5
B1E6
330
B1DA
100
AcDbEntity
  8
DEFPOINTS
  6
ByBlock
 62
     0
440
 16777216
380
     1
100
AcDbPoint
 10
6117.631001283267
 20
2643.207678595862
 30
0.0
  0
ENDBLK
  5
B1E8
330
B1DA
100
AcDbEntity
  8
0
100
AcDbBlockEnd
  0
BLOCK
  5
B1F3
330
B1E9
100
AcDbEntity
  8
0
100
AcDbBlockBegin
  2
*D36
 70
     1
 10
0.0
 20
0.0
 30
0.0
  3
*D36
  1

  0
LINE
  5
B1EA
330
B1E9
100
AcDbEntity
  8
0
  6
ByBlock
 62
     0
440
 16777216
380
     1
100
AcDbLine
 10
6201.635590971087
 20
2613.207678595862
 30
0.0
 11
6107.631001283267
 21
2613.207678595862
 31
0.0
  0
LINE
  5
B1EB
330
B1E9
100
AcDbEntity
  8
0
  6
ByBlock
 62
     0
440
 16777216
380
     1
100
AcDbLine
 10
6201.635590971087
 20
2488.207678595862
 30
0.0
 11
6107.631001283267
 21
2488.207678595862
 31
0.0
  0
LINE
  5
B1EC
330
B1E9
100
AcDbEntity
  8
0
  6
ByBlock
 62
     0
440
 16777216
380
     1
100
AcDbLine
 10
6117.631001283267
 20
2593.207678595862
 30
0.0
 11
6117.631001283267
 21
2508.207678595862
 31
0.0
  0
INSERT
  5
B1ED
330
B1E9
100
AcDbEntity
  8
0
  6
ByBlock
 62
     0
440
 16777216
380
     1
100
AcDbBlockReference
  2
_OPEN
 10
6117.631001283267
 20
2613.207678595862
 30
0.0
 41
20.0
 42
20.0
 43
20.0
 50
90.0
  0
INSERT
  5
B1EE
330
B1E9
100
AcDbEntity
  8
0
  6
ByBlock
 62
     0
440
 16777216
380
     1
100
AcDbBlockReference
  2
_OPEN
 10
6117.631001283267
 20
2488.207678595862
 30
0.0
 41
20.0
 42
20.0
 43
20.0
 50
270.0
  0
MTEXT
  5
B1EF
330
B1E9
100
AcDbEntity
  8
0
  6
ByBlock
 62
     0
440
 16777216
380
     1
100
AcDbMText
 10
6080.131001283267
 20
2550.707678595862
 30
0.0
 40
50.0
 41
0.0
 71
     5
 72
     1
  1
\A1;50
  7
DIM
 11
6.123031769111886E-17
 21
1.0
 31
0.0
 73
     1
 44
1.0
  0
POINT
  5
B1F0
330
B1E9
100
AcDbEntity
  8
DEFPOINTS
  6
ByBlock
 62
     0
440
 16777216
380
     1
100
AcDbPoint
 10
6221.635590971087
 20
2613.207678595862
 30
0.0
  0
POINT
  5
B1F1
330
B1E9
100
AcDbEntity
  8
DEFPOINTS
  6
ByBlock
 62
     0
440
 16777216
380
     1
100
AcDbPoint
 10
6221.635590971087
 20
2488.207678595862
 30
0.0
  0
POINT
  5
B1F2
330
B1E9
100
AcDbEntity
  8
DEFPOINTS
  6
ByBlock
 62
     0
440
 16777216
380
     1
100
AcDbPoint
 10
6117.631001283267
 20
2488.207678595862
 30
0.0
  0
ENDBLK
  5
B1F4
330
B1E9
100
AcDbEntity
  8
0
100
AcDbBlockEnd
  0
BLOCK
  5
B202
330
B1F5
100
AcDbEntity
  8
0
100
AcDbBlockBegin
  2
*D37
 70
     1
 10
0.0
 20
0.0
 30
0.0
  3
*D37
  1

  0
LINE
  5
B1F6
330
B1F5
100
AcDbEntity
  8
0
  6
ByBlock
 62
     0
440
 16777216
380
     1
100
AcDbLine
 10
6201.635590971087
 20
2363.207678595862
 30
0.0
 11
6107.631001283267
 21
2363.207678595862
 31
0.0
  0
LINE
  5
B1F7
330
B1F5
100
AcDbEntity
  8
0
  6
ByBlock
 62
     0
440
 16777216
380
     1
100
AcDbLine
 10
6201.635590971087
 20
2333.207678595862
 30
0.0
 11
6107.631001283267
 21
2333.207678595862
 31
0.0
  0
LINE
  5
B1F8
330
B1F5
100
AcDbEntity
  8
0
  6
ByBlock
 62
     0
440
 16777216
380
     1
100
AcDbLine
 10
6117.631001283267
 20
2383.207678595862
 30
0.0
 11
6117.631001283267
 21
2403.207678595862
 31
0.0
  0
LINE
  5
B1F9
330
B1F5
100
AcDbEntity
  8
0
  6
ByBlock
 62
     0
440
 16777216
380
     1
100
AcDbLine
 10
6117.631001283267
 20
2313.207678595862
 30
0.0
 11
6117.631001283267
 21
2293.207678595862
 31
0.0
  0
MTEXT
  5
B1FA
330
B1F5
100
AcDbEntity
  8
0
  6
ByBlock
 62
     0
440
 16777216
380
     1
100
AcDbMText
 10
6063.881001283267
 20
2303.533190049566
 30
0.0
 40
50.0
 41
0.0
 71
     5
 72
     1
  1
\A1;12
  7
DIM
 11
6.123031769111886E-17
 21
1.0
 31
0.0
 73
     1
 44
1.0
  0
LINE
  5
B1FB
330
B1F5
100
AcDbEntity
  8
0
  6
ByBlock
 62
     0
440
 16777216
380
     1
100
AcDbLine
 10
6117.631001283267
 20
2363.207678595862
 30
0.0
 11
6117.631001283267
 21
2333.207678595862
 31
0.0
  0
LINE
  5
B1FC
330
B1F5
100
AcDbEntity
  8
0
  6
ByBlock
 62
     0
440
 16777216
380
     1
100
AcDbLine
 10
6117.631001283267
 20
2363.207678595862
 30
0.0
 11
6117.631001283267
 21
2333.207678595862
 31
0.0
  0
INSERT
  5
B1FD
330
B1F5
100
AcDbEntity
  8
0
  6
ByBlock
 62
     0
440
 16777216
380
     1
100
AcDbBlockReference
  2
_OPEN
 10
6117.631001283267
 20
2363.207678595862
 30
0.0
 41
20.0
 42
20.0
 43
20.0
 50
270.0
  0
INSERT
  5
B1FE
330
B1F5
100
AcDbEntity
  8
0
  6
ByBlock
 62
     0
440
 16777216
380
     1
100
AcDbBlockReference
  2
_OPEN
 10
6117.631001283267
 20
2333.207678595862
 30
0.0
 41
20.0
 42
20.0
 43
20.0
 50
90.0
  0
POINT
  5
B1FF
330
B1F5
100
AcDbEntity
  8
DEFPOINTS
  6
ByBlock
 62
     0
440
 16777216
380
     1
100
AcDbPoint
 10
6221.635590971087
 20
2363.207678595862
 30
0.0
  0
POINT
  5
B200
330
B1F5
100
AcDbEntity
  8
DEFPOINTS
  6
ByBlock
 62
     0
440
 16777216
380
     1
100
AcDbPoint
 10
6221.635590971087
 20
2333.207678595862
 30
0.0
  0
POINT
  5
B201
330
B1F5
100
AcDbEntity
  8
DEFPOINTS
  6
ByBlock
 62
     0
440
 16777216
380
     1
100
AcDbPoint
 10
6117.631001283267
 20
2333.207678595862
 30
0.0
  0
ENDBLK
  5
B203
330
B1F5
100
AcDbEntity
  8
0
100
AcDbBlockEnd
  0
BLOCK
  5
B20E
330
B204
100
AcDbEntity
  8
0
100
AcDbBlockBegin
  2
*D38
 70
     1
 10
0.0
 20
0.0
 30
0.0
  3
*D38
  1

  0
LINE
  5
B205
330
B204
100
AcDbEntity
  8
0
  6
ByBlock
 62
     0
440
 16777216
380
     1
100
AcDbLine
 10
6201.635590971087
 20
2363.207678595862
 30
0.0
 11
6107.631001283267
 21
2363.207678595862
 31
0.0
  0
LINE
  5
B206
330
B204
100
AcDbEntity
  8
0
  6
ByBlock
 62
     0
440
 16777216
380
     1
100
AcDbLine
 10
6201.635590971087
 20
2488.207678595862
 30
0.0
 11
6107.631001283267
 21
2488.207678595862
 31
0.0
  0
LINE
  5
B207
330
B204
100
AcDbEntity
  8
0
  6
ByBlock
 62
     0
440
 16777216
380
     1
100
AcDbLine
 10
6117.631001283267
 20
2383.207678595862
 30
0.0
 11
6117.631001283267
 21
2468.207678595862
 31
0.0
  0
INSERT
  5
B208
330
B204
100
AcDbEntity
  8
0
  6
ByBlock
 62
     0
440
 16777216
380
     1
100
AcDbBlockReference
  2
_OPEN
 10
6117.631001283267
 20
2363.207678595862
 30
0.0
 41
20.0
 42
20.0
 43
20.0
 50
270.0
  0
INSERT
  5
B209
330
B204
100
AcDbEntity
  8
0
  6
ByBlock
 62
     0
440
 16777216
380
     1
100
AcDbBlockReference
  2
_OPEN
 10
6117.631001283267
 20
2488.207678595862
 30
0.0
 41
20.0
 42
20.0
 43
20.0
 50
90.0
  0
MTEXT
  5
B20A
330
B204
100
AcDbEntity
  8
0
  6
ByBlock
 62
     0
440
 16777216
380
     1
100
AcDbMText
 10
6080.131001283267
 20
2425.707678595862
 30
0.0
 40
50.0
 41
0.0
 71
     5
 72
     1
  1
\A1;50
  7
DIM
 11
6.123031769111886E-17
 21
1.0
 31
0.0
 73
     1
 44
1.0
  0
POINT
  5
B20B
330
B204
100
AcDbEntity
  8
DEFPOINTS
  6
ByBlock
 62
     0
440
 16777216
380
     1
100
AcDbPoint
 10
6221.635590971087
 20
2363.207678595862
 30
0.0
  0
POINT
  5
B20C
330
B204
100
AcDbEntity
  8
DEFPOINTS
  6
ByBlock
 62
     0
440
 16777216
380
     1
100
AcDbPoint
 10
6221.635590971087
 20
2488.207678595862
 30
0.0
  0
POINT
  5
B20D
330
B204
100
AcDbEntity
  8
DEFPOINTS
  6
ByBlock
 62
     0
440
 16777216
380
     1
100
AcDbPoint
 10
6117.631001283267
 20
2488.207678595862
 30
0.0
  0
ENDBLK
  5
B20F
330
B204
100
AcDbEntity
  8
0
100
AcDbBlockEnd
  0
BLOCK
  5
B21A
330
B210
100
AcDbEntity
  8
0
100
AcDbBlockBegin
  2
*D39
 70
     1
 10
0.0
 20
0.0
 30
0.0
  3
*D39
  1

  0
LINE
  5
B211
330
B210
100
AcDbEntity
  8
0
  6
ByBlock
 62
     0
440
 16777216
380
     1
100
AcDbLine
 10
6884.128793559717
 20
2313.207678595862
 30
0.0
 11
6884.128793559717
 21
2089.612510043049
 31
0.0
  0
LINE
  5
B212
330
B210
100
AcDbEntity
  8
0
  6
ByBlock
 62
     0
440
 16777216
380
     1
100
AcDbLine
 10
6704.128793559717
 20
2373.207678595862
 30
0.0
 11
6704.128793559717
 21
2089.612510043049
 31
0.0
  0
LINE
  5
B213
330
B210
100
AcDbEntity
  8
0
  6
ByBlock
 62
     0
440
 16777216
380
     1
100
AcDbLine
 10
6864.128793559717
 20
2099.612510043049
 30
0.0
 11
6724.128793559717
 21
2099.612510043049
 31
0.0
  0
INSERT
  5
B214
330
B210
100
AcDbEntity
  8
0
  6
ByBlock
 62
     0
440
 16777216
380
     1
100
AcDbBlockReference
  2
_OPEN
 10
6884.128793559717
 20
2099.612510043049
 30
0.0
 41
20.0
 42
20.0
 43
20.0
  0
INSERT
  5
B215
330
B210
100
AcDbEntity
  8
0
  6
ByBlock
 62
     0
440
 16777216
380
     1
100
AcDbBlockReference
  2
_OPEN
 10
6704.128793559717
 20
2099.612510043049
 30
0.0
 41
20.0
 42
20.0
 43
20.0
 50
180.0
  0
MTEXT
  5
B216
330
B210
100
AcDbEntity
  8
0
  6
ByBlock
 62
     0
440
 16777216
380
     1
100
AcDbMText
 10
6794.128793559717
 20
2137.112510043049
 30
0.0
 40
50.0
 41
0.0
 71
     5
 72
     1
  1
\A1;72
  7
DIM
 73
     1
 44
1.0
  0
POINT
  5
B217
330
B210
100
AcDbEntity
  8
DEFPOINTS
  6
ByBlock
 62
     0
440
 16777216
380
     1
100
AcDbPoint
 10
6884.128793559717
 20
2333.207678595862
 30
0.0
  0
POINT
  5
B218
330
B210
100
AcDbEntity
  8
DEFPOINTS
  6
ByBlock
 62
     0
440
 16777216
380
     1
100
AcDbPoint
 10
6704.128793559717
 20
2393.207678595862
 30
0.0
  0
POINT
  5
B219
330
B210
100
AcDbEntity
  8
DEFPOINTS
  6
ByBlock
 62
     0
440
 16777216
380
     1
100
AcDbPoint
 10
6704.128793559717
 20
2099.612510043049
 30
0.0
  0
ENDBLK
  5
B21B
330
B210
100
AcDbEntity
  8
0
100
AcDbBlockEnd
  0
BLOCK
  5
B229
330
B21C
100
AcDbEntity
  8
0
100
AcDbBlockBegin
  2
*D40
 70
     1
 10
0.0
 20
0.0
 30
0.0
  3
*D40
  1

  0
LINE
  5
B21D
330
B21C
100
AcDbEntity
  8
0
  6
ByBlock
 62
     0
440
 16777216
380
     1
100
AcDbLine
 10
6744.128793559717
 20
2273.207678595862
 30
0.0
 11
6744.128793559717
 21
2185.587177203055
 31
0.0
  0
LINE
  5
B21E
330
B21C
100
AcDbEntity
  8
0
  6
ByBlock
 62
     0
440
 16777216
380
     1
100
AcDbLine
 10
6704.128793559717
 20
2373.207678595862
 30
0.0
 11
6704.128793559717
 21
2185.587177203055
 31
0.0
  0
LINE
  5
B21F
330
B21C
100
AcDbEntity
  8
0
  6
ByBlock
 62
     0
440
 16777216
380
     1
100
AcDbLine
 10
6764.128793559717
 20
2195.587177203055
 30
0.0
 11
6784.128793559717
 21
2195.587177203055
 31
0.0
  0
LINE
  5
B220
330
B21C
100
AcDbEntity
  8
0
  6
ByBlock
 62
     0
440
 16777216
380
     1
100
AcDbLine
 10
6684.128793559717
 20
2195.587177203055
 30
0.0
 11
6664.128793559717
 21
2195.587177203055
 31
0.0
  0
MTEXT
  5
B221
330
B21C
100
AcDbEntity
  8
0
  6
ByBlock
 62
     0
440
 16777216
380
     1
100
AcDbMText
 10
6643.045002329589
 20
2234.681804995129
 30
0.0
 40
50.0
 41
0.0
 71
     5
 72
     1
  1
\A1;16
  7
DIM
 73
     1
 44
1.0
  0
LINE
  5
B222
330
B21C
100
AcDbEntity
  8
0
  6
ByBlock
 62
     0
440
 16777216
380
     1
100
AcDbLine
 10
6744.128793559717
 20
2195.587177203055
 30
0.0
 11
6704.128793559717
 21
2195.587177203055
 31
0.0
  0
LINE
  5
B223
330
B21C
100
AcDbEntity
  8
0
  6
ByBlock
 62
     0
440
 16777216
380
     1
100
AcDbLine
 10
6744.128793559717
 20
2195.587177203055
 30
0.0
 11
6704.128793559717
 21
2195.587177203055
 31
0.0
  0
INSERT
  5
B224
330
B21C
100
AcDbEntity
  8
0
  6
ByBlock
 62
     0
440
 16777216
380
     1
100
AcDbBlockReference
  2
_OPEN
 10
6744.128793559717
 20
2195.587177203055
 30
0.0
 41
20.0
 42
20.0
 43
20.0
 50
180.0
  0
INSERT
  5
B225
330
B21C
100
AcDbEntity
  8
0
  6
ByBlock
 62
     0
440
 16777216
380
     1
100
AcDbBlockReference
  2
_OPEN
 10
6704.128793559717
 20
2195.587177203055
 30
0.0
 41
20.0
 42
20.0
 43
20.0
  0
POINT
  5
B226
330
B21C
100
AcDbEntity
  8
DEFPOINTS
  6
ByBlock
 62
     0
440
 16777216
380
     1
100
AcDbPoint
 10
6744.128793559717
 20
2293.207678595862
 30
0.0
  0
POINT
  5
B227
330
B21C
100
AcDbEntity
  8
DEFPOINTS
  6
ByBlock
 62
     0
440
 16777216
380
     1
100
AcDbPoint
 10
6704.128793559717
 20
2393.207678595862
 30
0.0
  0
POINT
  5
B228
330
B21C
100
AcDbEntity
  8
DEFPOINTS
  6
ByBlock
 62
     0
440
 16777216
380
     1
100
AcDbPoint
 10
6704.128793559717
 20
2195.587177203055
 30
0.0
  0
ENDBLK
  5
B22A
330
B21C
100
AcDbEntity
  8
0
100
AcDbBlockEnd
  0
BLOCK
  5
B235
330
B22B
100
AcDbEntity
  8
0
100
AcDbBlockBegin
  2
*D41
 70
     1
 10
0.0
 20
0.0
 30
0.0
  3
*D41
  1

  0
LINE
  5
B22C
330
B22B
100
AcDbEntity
  8
0
  6
ByBlock
 62
     0
440
 16777216
380
     1
100
AcDbLine
 10
6744.128793559717
 20
2273.207678595862
 30
0.0
 11
6744.128793559717
 21
2185.587177203055
 31
0.0
  0
LINE
  5
B22D
330
B22B
100
AcDbEntity
  8
0
  6
ByBlock
 62
     0
440
 16777216
380
     1
100
AcDbLine
 10
6884.128793559717
 20
2273.207678595862
 30
0.0
 11
6884.128793559717
 21
2185.587177203055
 31
0.0
  0
LINE
  5
B22E
330
B22B
100
AcDbEntity
  8
0
  6
ByBlock
 62
     0
440
 16777216
380
     1
100
AcDbLine
 10
6764.128793559717
 20
2195.587177203055
 30
0.0
 11
6864.128793559717
 21
2195.587177203055
 31
0.0
  0
INSERT
  5
B22F
330
B22B
100
AcDbEntity
  8
0
  6
ByBlock
 62
     0
440
 16777216
380
     1
100
AcDbBlockReference
  2
_OPEN
 10
6744.128793559717
 20
2195.587177203055
 30
0.0
 41
20.0
 42
20.0
 43
20.0
 50
180.0
  0
INSERT
  5
B230
330
B22B
100
AcDbEntity
  8
0
  6
ByBlock
 62
     0
440
 16777216
380
     1
100
AcDbBlockReference
  2
_OPEN
 10
6884.128793559717
 20
2195.587177203055
 30
0.0
 41
20.0
 42
20.0
 43
20.0
  0
MTEXT
  5
B231
330
B22B
100
AcDbEntity
  8
0
  6
ByBlock
 62
     0
440
 16777216
380
     1
100
AcDbMText
 10
6814.128793559717
 20
2233.087177203055
 30
0.0
 40
50.0
 41
0.0
 71
     5
 72
     1
  1
\A1;56
  7
DIM
 73
     1
 44
1.0
  0
POINT
  5
B232
330
B22B
100
AcDbEntity
  8
DEFPOINTS
  6
ByBlock
 62
     0
440
 16777216
380
     1
100
AcDbPoint
 10
6744.128793559717
 20
2293.207678595862
 30
0.0
  0
POINT
  5
B233
330
B22B
100
AcDbEntity
  8
DEFPOINTS
  6
ByBlock
 62
     0
440
 16777216
380
     1
100
AcDbPoint
 10
6884.128793559717
 20
2293.207678595862
 30
0.0
  0
POINT
  5
B234
330
B22B
100
AcDbEntity
  8
DEFPOINTS
  6
ByBlock
 62
     0
440
 16777216
380
     1
100
AcDbPoint
 10
6884.128793559717
 20
2195.587177203055
 30
0.0
  0
ENDBLK
  5
B236
330
B22B
100
AcDbEntity
  8
0
100
AcDbBlockEnd
  0
BLOCK
  5
B241
330
B237
100
AcDbEntity
  8
0
100
AcDbBlockBegin
  2
*D42
 70
     1
 10
0.0
 20
0.0
 30
0.0
  3
*D42
  1

  0
LINE
  5
B238
330
B237
100
AcDbEntity
  8
0
  6
ByBlock
 62
     0
440
 16777216
380
     1
100
AcDbLine
 10
7369.128793559717
 20
2703.207678595862
 30
0.0
 11
7369.128793559717
 21
2762.048394051606
 31
0.0
  0
LINE
  5
B239
330
B237
100
AcDbEntity
  8
0
  6
ByBlock
 62
     0
440
 16777216
380
     1
100
AcDbLine
 10
6744.128793559717
 20
2703.207678595862
 30
0.0
 11
6744.128793559717
 21
2762.048394051606
 31
0.0
  0
LINE
  5
B23A
330
B237
100
AcDbEntity
  8
0
  6
ByBlock
 62
     0
440
 16777216
380
     1
100
AcDbLine
 10
7349.128793559717
 20
2752.048394051606
 30
0.0
 11
6764.128793559717
 21
2752.048394051606
 31
0.0
  0
INSERT
  5
B23B
330
B237
100
AcDbEntity
  8
0
  6
ByBlock
 62
     0
440
 16777216
380
     1
100
AcDbBlockReference
  2
_OPEN
 10
7369.128793559717
 20
2752.048394051606
 30
0.0
 41
20.0
 42
20.0
 43
20.0
  0
INSERT
  5
B23C
330
B237
100
AcDbEntity
  8
0
  6
ByBlock
 62
     0
440
 16777216
380
     1
100
AcDbBlockReference
  2
_OPEN
 10
6744.128793559717
 20
2752.048394051606
 30
0.0
 41
20.0
 42
20.0
 43
20.0
 50
180.0
  0
MTEXT
  5
B23D
330
B237
100
AcDbEntity
  8
0
  6
ByBlock
 62
     0
440
 16777216
380
     1
100
AcDbMText
 10
7056.628793559717
 20
2789.548394051606
 30
0.0
 40
50.0
 41
0.0
 71
     5
 72
     1
  1
\A1;250
  7
DIM
 73
     1
 44
1.0
  0
POINT
  5
B23E
330
B237
100
AcDbEntity
  8
DEFPOINTS
  6
ByBlock
 62
     0
440
 16777216
380
     1
100
AcDbPoint
 10
7369.128793559717
 20
2683.207678595862
 30
0.0
  0
POINT
  5
B23F
330
B237
100
AcDbEntity
  8
DEFPOINTS
  6
ByBlock
 62
     0
440
 16777216
380
     1
100
AcDbPoint
 10
6744.128793559717
 20
2683.207678595862
 30
0.0
  0
POINT
  5
B240
330
B237
100
AcDbEntity
  8
DEFPOINTS
  6
ByBlock
 62
     0
440
 16777216
380
     1
100
AcDbPoint
 10
6744.128793559717
 20
2752.048394051606
 30
0.0
  0
ENDBLK
  5
B242
330
B237
100
AcDbEntity
  8
0
100
AcDbBlockEnd
  0
BLOCK
  5
B24D
330
B243
100
AcDbEntity
  8
0
100
AcDbBlockBegin
  2
*D43
 70
     1
 10
0.0
 20
0.0
 30
0.0
  3
*D43
  1

  0
LINE
  5
B244
330
B243
100
AcDbEntity
  8
0
  6
ByBlock
 62
     0
440
 16777216
380
     1
100
AcDbLine
 10
7369.128793559717
 20
2703.207678595862
 30
0.0
 11
7369.128793559717
 21
2849.467785143464
 31
0.0
  0
LINE
  5
B245
330
B243
100
AcDbEntity
  8
0
  6
ByBlock
 62
     0
440
 16777216
380
     1
100
AcDbLine
 10
6704.128793559717
 20
2603.207678595862
 30
0.0
 11
6704.128793559717
 21
2849.467785143464
 31
0.0
  0
LINE
  5
B246
330
B243
100
AcDbEntity
  8
0
  6
ByBlock
 62
     0
440
 16777216
380
     1
100
AcDbLine
 10
7349.128793559717
 20
2839.467785143464
 30
0.0
 11
6724.128793559717
 21
2839.467785143464
 31
0.0
  0
INSERT
  5
B247
330
B243
100
AcDbEntity
  8
0
  6
ByBlock
 62
     0
440
 16777216
380
     1
100
AcDbBlockReference
  2
_OPEN
 10
7369.128793559717
 20
2839.467785143464
 30
0.0
 41
20.0
 42
20.0
 43
20.0
  0
INSERT
  5
B248
330
B243
100
AcDbEntity
  8
0
  6
ByBlock
 62
     0
440
 16777216
380
     1
100
AcDbBlockReference
  2
_OPEN
 10
6704.128793559717
 20
2839.467785143464
 30
0.0
 41
20.0
 42
20.0
 43
20.0
 50
180.0
  0
MTEXT
  5
B249
330
B243
100
AcDbEntity
  8
0
  6
ByBlock
 62
     0
440
 16777216
380
     1
100
AcDbMText
 10
7036.628793559717
 20
2876.967785143464
 30
0.0
 40
50.0
 41
0.0
 71
     5
 72
     1
  1
\A1;266
  7
DIM
 73
     1
 44
1.0
  0
POINT
  5
B24A
330
B243
100
AcDbEntity
  8
DEFPOINTS
  6
ByBlock
 62
     0
440
 16777216
380
     1
100
AcDbPoint
 10
7369.128793559717
 20
2683.207678595862
 30
0.0
  0
POINT
  5
B24B
330
B243
100
AcDbEntity
  8
DEFPOINTS
  6
ByBlock
 62
     0
440
 16777216
380
     1
100
AcDbPoint
 10
6704.128793559717
 20
2583.207678595862
 30
0.0
  0
POINT
  5
B24C
330
B243
100
AcDbEntity
  8
DEFPOINTS
  6
ByBlock
 62
     0
440
 16777216
380
     1
100
AcDbPoint
 10
6704.128793559717
 20
2839.467785143464
 30
0.0
  0
ENDBLK
  5
B24E
330
B243
100
AcDbEntity
  8
0
100
AcDbBlockEnd
  0
BLOCK
  5
B259
330
B24F
100
AcDbEntity
  8
0
100
AcDbBlockBegin
  2
*D44
 70
     1
 10
0.0
 20
0.0
 30
0.0
  3
*D44
  1

  0
LINE
  5
B250
330
B24F
100
AcDbEntity
  8
0
  6
ByBlock
 62
     0
440
 16777216
380
     1
100
AcDbLine
 10
6221.635590971087
 20
2663.207678595862
 30
0.0
 11
6221.635590971087
 21
2762.048394051606
 31
0.0
  0
LINE
  5
B251
330
B24F
100
AcDbEntity
  8
0
  6
ByBlock
 62
     0
440
 16777216
380
     1
100
AcDbLine
 10
6302.885590971087
 20
2663.207678595862
 30
0.0
 11
6302.885590971087
 21
2762.048394051606
 31
0.0
  0
LINE
  5
B252
330
B24F
100
AcDbEntity
  8
0
  6
ByBlock
 62
     0
440
 16777216
380
     1
100
AcDbLine
 10
6241.635590971087
 20
2752.048394051606
 30
0.0
 11
6282.885590971087
 21
2752.048394051606
 31
0.0
  0
MTEXT
  5
B253
330
B24F
100
AcDbEntity
  8
0
  6
ByBlock
 62
     0
440
 16777216
380
     1
100
AcDbMText
 10
6194.967612062552
 20
2805.798394051606
 30
0.0
 40
50.0
 41
0.0
 71
     5
 72
     1
  1
\A1;32.5
  7
DIM
 73
     1
 44
1.0
  0
INSERT
  5
B254
330
B24F
100
AcDbEntity
  8
0
  6
ByBlock
 62
     0
440
 16777216
380
     1
100
AcDbBlockReference
  2
_OPEN
 10
6221.635590971087
 20
2752.048394051606
 30
0.0
 41
20.0
 42
20.0
 43
20.0
 50
180.0
  0
INSERT
  5
B255
330
B24F
100
AcDbEntity
  8
0
  6
ByBlock
 62
     0
440
 16777216
380
     1
100
AcDbBlockReference
  2
_OPEN
 10
6302.885590971087
 20
2752.048394051606
 30
0.0
 41
20.0
 42
20.0
 43
20.0
  0
POINT
  5
B256
330
B24F
100
AcDbEntity
  8
DEFPOINTS
  6
ByBlock
 62
     0
440
 16777216
380
     1
100
AcDbPoint
 10
6221.635590971087
 20
2643.207678595862
 30
0.0
  0
POINT
  5
B257
330
B24F
100
AcDbEntity
  8
DEFPOINTS
  6
ByBlock
 62
     0
440
 16777216
380
     1
100
AcDbPoint
 10
6302.885590971087
 20
2643.207678595862
 30
0.0
  0
POINT
  5
B258
330
B24F
100
AcDbEntity
  8
DEFPOINTS
  6
ByBlock
 62
     0
440
 16777216
380
     1
100
AcDbPoint
 10
6302.885590971087
 20
2752.048394051606
 30
0.0
  0
ENDBLK
  5
B25A
330
B24F
100
AcDbEntity
  8
0
100
AcDbBlockEnd
  0
BLOCK
  5
B265
330
B25B
100
AcDbEntity
  8
0
100
AcDbBlockBegin
  2
*D45
 70
     1
 10
0.0
 20
0.0
 30
0.0
  3
*D45
  1

  0
LINE
  5
B25C
330
B25B
100
AcDbEntity
  8
0
  6
ByBlock
 62
     0
440
 16777216
380
     1
100
AcDbLine
 10
6384.135590971087
 20
2663.207678595862
 30
0.0
 11
6384.135590971087
 21
2762.048394051606
 31
0.0
  0
LINE
  5
B25D
330
B25B
100
AcDbEntity
  8
0
  6
ByBlock
 62
     0
440
 16777216
380
     1
100
AcDbLine
 10
6302.885590971087
 20
2663.207678595862
 30
0.0
 11
6302.885590971087
 21
2762.048394051606
 31
0.0
  0
LINE
  5
B25E
330
B25B
100
AcDbEntity
  8
0
  6
ByBlock
 62
     0
440
 16777216
380
     1
100
AcDbLine
 10
6364.135590971087
 20
2752.048394051606
 30
0.0
 11
6322.885590971087
 21
2752.048394051606
 31
0.0
  0
MTEXT
  5
B25F
330
B25B
100
AcDbEntity
  8
0
  6
ByBlock
 62
     0
440
 16777216
380
     1
100
AcDbMText
 10
6415.978956712632
 20
2805.798394051606
 30
0.0
 40
50.0
 41
0.0
 71
     5
 72
     1
  1
\A1;32.5
  7
DIM
 73
     1
 44
1.0
  0
INSERT
  5
B260
330
B25B
100
AcDbEntity
  8
0
  6
ByBlock
 62
     0
440
 16777216
380
     1
100
AcDbBlockReference
  2
_OPEN
 10
6384.135590971087
 20
2752.048394051606
 30
0.0
 41
20.0
 42
20.0
 43
20.0
  0
INSERT
  5
B261
330
B25B
100
AcDbEntity
  8
0
  6
ByBlock
 62
     0
440
 16777216
380
     1
100
AcDbBlockReference
  2
_OPEN
 10
6302.885590971087
 20
2752.048394051606
 30
0.0
 41
20.0
 42
20.0
 43
20.0
 50
180.0
  0
POINT
  5
B262
330
B25B
100
AcDbEntity
  8
DEFPOINTS
  6
ByBlock
 62
     0
440
 16777216
380
     1
100
AcDbPoint
 10
6384.135590971087
 20
2643.207678595862
 30
0.0
  0
POINT
  5
B263
330
B25B
100
AcDbEntity
  8
DEFPOINTS
  6
ByBlock
 62
     0
440
 16777216
380
     1
100
AcDbPoint
 10
6302.885590971087
 20
2643.207678595862
 30
0.0
  0
POINT
  5
B264
330
B25B
100
AcDbEntity
  8
DEFPOINTS
  6
ByBlock
 62
     0
440
 16777216
380
     1
100
AcDbPoint
 10
6302.885590971087
 20
2752.048394051606
 30
0.0
  0
ENDBLK
  5
B266
330
B25B
100
AcDbEntity
  8
0
100
AcDbBlockEnd
  0
BLOCK
  5
B2AB
330
B267
100
AcDbEntity
  8
0
100
AcDbBlockBegin
  2
A$C7C337783
 70
     0
 10
0.0
 20
0.0
 30
0.0
  3
A$C7C337783
  1

  0
MTEXT
  5
B268
102
{ACAD_REACTORS
330
B269
102
}
330
B267
100
AcDbEntity
  8
寸法
100
AcDbMText
 10
885.5911111216028
 20
388.8365417191244
 30
0.0
 40
50.0
 41
0.0
 71
     4
 72
     1
  1
\A1;R12
  7
DIM
 73
     1
 44
1.0
  0
LEADER
  5
B269
330
B267
100
AcDbEntity
  8
寸法
100
AcDbLeader
  3
STANDARD_WS
 73
     0
 74
     0
 75
     1
 40
50.00000000000001
 41
72.85714285714286
 76
     3
 10
790.276216150356
 20
282.3819676372032
 30
0.0
 10
872.0911111216028
 20
351.3365417191244
 30
0.0
 10
873.0911111216028
 20
351.3365417191244
 30
0.0
340
B268
1001
ACAD
1000
DSTYLE
1002
{
1070
     6
1000
OPEN
1002
}
  0
LINE
  5
B26A
330
B267
100
AcDbEntity
  8
実線1
100
AcDbLine
 10
811.4894195859524
 20
523.5951710727995
 30
0.0
 11
931.4894195859524
 21
523.5951710727995
 31
0.0
  0
DIMENSION
  5
B26B
330
B267
100
AcDbEntity
  8
寸法
100
AcDbDimension
  2
*D43
 10
751.4894195859524
 20
749.8552776204015
 30
0.0
 11
1083.989419585952
 21
787.3552776204015
 31
0.0
 12
-5952.639373973765
 22
-2089.612507523063
 32
0.0
  1
266
 71
     5
 42
-1.0
  3
STANDARD_WS
100
AcDbAlignedDimension
 13
1416.489419585952
 23
593.5951710727995
 33
0.0
 14
751.4894195859524
 24
493.5951710727995
 34
0.0
100
AcDbRotatedDimension
  0
DIMENSION
  5
B26C
330
B267
100
AcDbEntity
  8
寸法
100
AcDbDimension
  2
*D42
 10
791.4894195859524
 20
662.435886528543
 30
0.0
 11
1103.989419585952
 21
699.935886528543
 31
0.0
 12
-5952.639373973765
 22
-2089.612507523063
 32
0.0
  1
250
 71
     5
 42
-1.0
  3
STANDARD_WS
100
AcDbAlignedDimension
 13
1416.489419585952
 23
593.5951710727995
 33
0.0
 14
791.4894195859524
 24
593.5951710727995
 34
0.0
100
AcDbRotatedDimension
  0
DIMENSION
  5
B26D
330
B267
100
AcDbEntity
  8
寸法
100
AcDbDimension
  2
*D41
 10
931.4894195859524
 20
105.9746696799921
 30
0.0
 11
861.4894195859524
 21
143.4746696799921
 31
0.0
 12
-5952.639373973765
 22
-2089.612507523063
 32
0.0
  1
56
 71
     5
 42
-1.0
  3
STANDARD_WS
100
AcDbAlignedDimension
 13
791.4894195859524
 23
203.5951710727995
 33
0.0
 14
931.4894195859524
 24
203.5951710727995
 34
0.0
100
AcDbRotatedDimension
  0
DIMENSION
  5
B26E
330
B267
100
AcDbEntity
  8
寸法
100
AcDbDimension
  2
*D39
 10
751.4894195859524
 20
10.00000251998608
 30
0.0
 11
841.4894195859524
 21
47.50000251998608
 31
0.0
 12
-5952.639373973765
 22
-2089.612507523063
 32
0.0
  1
72
 71
     5
 42
-1.0
  3
STANDARD_WS
100
AcDbAlignedDimension
 13
931.4894195859524
 23
243.5951710727995
 33
0.0
 14
751.4894195859524
 24
303.5951710727995
 34
0.0
100
AcDbRotatedDimension
  0
LINE
  5
B26F
330
B267
100
AcDbEntity
  8
実線1
100
AcDbLine
 10
811.4894195859524
 20
243.5951710727995
 30
0.0
 11
931.4894195859524
 21
243.5951710727995
 31
0.0
  0
LINE
  5
B270
330
B267
100
AcDbEntity
  8
実線1
100
AcDbLine
 10
791.4894195859524
 20
233.5951710727995
 30
0.0
 11
931.4894195859524
 21
233.5951710727995
 31
0.0
  0
LINE
  5
B271
330
B267
100
AcDbEntity
  8
実線1
100
AcDbLine
 10
791.4894195859524
 20
563.5951710727995
 30
0.0
 11
931.4894195859524
 21
563.5951710727995
 31
0.0
  0
LINE
  5
B272
330
B267
100
AcDbEntity
  8
実線1
100
AcDbLine
 10
791.4894195859524
 20
203.5951710727995
 30
0.0
 11
1416.489419585952
 21
203.5951710727995
 31
0.0
  0
LINE
  5
B273
330
B267
100
AcDbEntity
  8
実線1
100
AcDbLine
 10
791.4894195859524
 20
593.5951710727995
 30
0.0
 11
1416.489419585952
 21
593.5951710727995
 31
0.0
  0
LINE
  5
B274
330
B267
100
AcDbEntity
  8
実線1
100
AcDbLine
 10
821.4894195859524
 20
243.5951710727995
 30
0.0
 11
931.4894195859524
 21
243.5951710727995
 31
0.0
  0
LINE
  5
B275
330
B267
100
AcDbEntity
  8
実線1
100
AcDbLine
 10
811.4894195859524
 20
273.5951710727995
 30
0.0
 11
931.4894195859524
 21
273.5951710727995
 31
0.0
  0
LINE
  5
B276
330
B267
100
AcDbEntity
  8
実線1
100
AcDbLine
 10
811.4894195859524
 20
553.5951710727995
 30
0.0
 11
931.4894195859524
 21
553.5951710727995
 31
0.0
  0
DIMENSION
  5
B277
330
B267
100
AcDbEntity
  8
寸法
100
AcDbDimension
  2
*D44
 10
350.2462169973223
 20
662.435886528543
 30
0.0
 11
242.3282380887867
 21
716.185886528543
 31
0.0
 12
-5952.639373973765
 22
-2089.612507523063
 32
0.0
 70
   128
  1
32.5
 71
     5
 42
-1.0
  3
STANDARD_WS
100
AcDbAlignedDimension
 13
268.9962169973223
 23
553.5951710727995
 33
0.0
 14
350.2462169973223
 24
553.5951710727995
 34
0.0
100
AcDbRotatedDimension
  0
DIMENSION
  5
B278
330
B267
100
AcDbEntity
  8
寸法
100
AcDbDimension
  2
*D37
 10
164.9916273095023
 20
243.5951710727995
 30
0.0
 11
111.2416273095023
 21
213.9206825265028
 31
0.0
 12
-5952.639373973765
 22
-2089.612507523063
 32
0.0
 70
   128
  1
12
 71
     5
 42
-1.0
  3
STANDARD_WS
100
AcDbAlignedDimension
 13
268.9962169973223
 23
273.5951710727995
 33
0.0
 14
268.9962169973223
 24
243.5951710727995
 34
0.0
 50
90.0
100
AcDbRotatedDimension
  0
DIMENSION
  5
B279
330
B267
100
AcDbEntity
  8
寸法
100
AcDbDimension
  2
*D38
 10
164.9916273095023
 20
398.5951710727995
 30
0.0
 11
127.4916273095023
 21
336.0951710727995
 31
0.0
 12
-5952.639373973765
 22
-2089.612507523063
 32
0.0
  1
50
 71
     5
 42
-1.0
  3
STANDARD_WS
100
AcDbAlignedDimension
 13
268.9962169973223
 23
273.5951710727995
 33
0.0
 14
268.9962169973223
 24
398.5951710727995
 34
0.0
 50
90.0
100
AcDbRotatedDimension
  0
DIMENSION
  5
B27A
330
B267
100
AcDbEntity
  8
寸法
100
AcDbDimension
  2
*D36
 10
164.9916273095023
 20
398.5951710727995
 30
0.0
 11
127.4916273095023
 21
461.0951710727995
 31
0.0
 12
-5952.639373973765
 22
-2089.612507523063
 32
0.0
  1
50
 71
     5
 42
-1.0
  3
STANDARD_WS
100
AcDbAlignedDimension
 13
268.9962169973223
 23
523.5951710727995
 33
0.0
 14
268.9962169973223
 24
398.5951710727995
 34
0.0
 50
90.0
100
AcDbRotatedDimension
  0
DIMENSION
  5
B27B
330
B267
100
AcDbEntity
  8
寸法
100
AcDbDimension
  2
*D35
 10
164.9916273095023
 20
553.5951710727995
 30
0.0
 11
111.2416273095023
 21
583.2696596190963
 31
0.0
 12
-5952.639373973765
 22
-2089.612507523063
 32
0.0
 70
   128
  1
12
 71
     5
 42
-1.0
  3
STANDARD_WS
100
AcDbAlignedDimension
 13
268.9962169973223
 23
523.5951710727995
 33
0.0
 14
268.9962169973223
 24
553.5951710727995
 34
0.0
 50
90.0
100
AcDbRotatedDimension
  0
DIMENSION
  5
B27C
330
B267
100
AcDbEntity
  8
寸法
100
AcDbDimension
  2
*D34
 10
62.50000669976725
 20
243.5951710727995
 30
0.0
 11
25.00000669976725
 21
398.5951710727995
 31
0.0
 12
-5952.639373973765
 22
-2089.612507523063
 32
0.0
  1
124
 71
     5
 42
-1.0
  3
STANDARD_WS
100
AcDbAlignedDimension
 13
268.9962169973223
 23
553.5951710727995
 33
0.0
 14
268.9962169973223
 24
243.5951710727995
 34
0.0
 50
90.0
100
AcDbRotatedDimension
  0
LINE
  5
B27D
330
B267
100
AcDbEntity
  8
実線1
100
AcDbLine
 10
781.4894195859524
 20
493.5951710727995
 30
0.0
 11
781.4894195859524
 21
303.5951710727995
 31
0.0
  0
LINE
  5
B27E
330
B267
100
AcDbEntity
  8
実線1
100
AcDbLine
 10
751.4894195859524
 20
493.5951710727995
 30
0.0
 11
751.4894195859524
 21
303.5951710727995
 31
0.0
  0
LINE
  5
B27F
330
B267
100
AcDbEntity
  8
中心線
100
AcDbLine
 10
350.2462169973205
 20
332.7120436171431
 30
0.0
 11
350.2462169973205
 21
464.478298528456
 31
0.0
  0
CIRCLE
  5
B280
330
B267
100
AcDbEntity
  8
実線1
100
AcDbCircle
 10
350.2462169973223
 20
398.5951710727995
 30
0.0
 40
26.25
  0
LINE
  5
B281
330
B267
100
AcDbEntity
  8
実線1
100
AcDbLine
 10
431.4962169973223
 20
553.5951710727995
 30
0.0
 11
431.4962169973223
 21
243.5951710727995
 31
0.0
  0
LINE
  5
B282
330
B267
100
AcDbEntity
  8
実線1
100
AcDbLine
 10
268.9962169973223
 20
553.5951710727995
 30
0.0
 11
268.9962169973223
 21
243.5951710727995
 31
0.0
  0
DIMENSION
  5
B283
330
B267
100
AcDbEntity
  8
寸法
100
AcDbDimension
  2
*D33
 10
431.4962169973223
 20
10.00000251998608
 30
0.0
 11
350.2462169973223
 21
47.50000251998608
 31
0.0
 12
-5952.639373973765
 22
-2089.612507523063
 32
0.0
  1
65
 71
     5
 42
-1.0
  3
STANDARD_WS
100
AcDbAlignedDimension
 13
268.9962169973223
 23
243.5951710727995
 33
0.0
 14
431.4962169973223
 24
243.5951710727995
 34
0.0
100
AcDbRotatedDimension
  0
DIMENSION
  5
B284
330
B267
100
AcDbEntity
  8
寸法
100
AcDbDimension
  2
*D32
 10
431.4962169973223
 20
105.9746696799921
 30
0.0
 11
474.7179381963542
 21
139.9438205844144
 31
0.0
 12
-5952.639373973765
 22
-2089.612507523063
 32
0.0
 70
   128
  1
16
 71
     5
 42
-1.0
  3
STANDARD_WS
100
AcDbAlignedDimension
 13
391.4962169973223
 23
243.5951710727995
 33
0.0
 14
431.4962169973223
 24
243.5951710727995
 34
0.0
100
AcDbRotatedDimension
  0
DIMENSION
  5
B285
330
B267
100
AcDbEntity
  8
寸法
100
AcDbDimension
  2
*D31
 10
268.9962169973223
 20
105.9746696799921
 30
0.0
 11
330.2462169973223
 21
143.4746696799921
 31
0.0
 12
-5952.639373973765
 22
-2089.612507523063
 32
0.0
  1
49
 71
     5
 42
-1.0
  3
STANDARD_WS
100
AcDbAlignedDimension
 13
391.4962169973223
 23
243.5951710727995
 33
0.0
 14
268.9962169973223
 24
243.5951710727995
 34
0.0
100
AcDbRotatedDimension
  0
LINE
  5
B286
330
B267
100
AcDbEntity
  8
実線1
100
AcDbLine
 10
374.1757089216335
 20
233.5951710727995
 30
0.0
 11
408.8167250730112
 21
233.5951710727995
 31
0.0
  0
ARC
  5
B287
330
B267
100
AcDbEntity
  8
実線1
100
AcDbCircle
 10
391.4962169973223
 20
223.5951710727995
 30
0.0
 40
20.0
100
AcDbArc
 50
149.9999999999995
 51
30.00000000000054
  0
LINE
  5
B288
330
B267
100
AcDbEntity
  8
中心線
100
AcDbLine
 10
284.3630895416663
 20
398.5951710727995
 30
0.0
 11
416.1293444529783
 21
398.5951710727995
 31
0.0
  0
LINE
  5
B289
330
B267
100
AcDbEntity
  8
かくれ線
100
AcDbLine
 10
268.9962169973223
 20
273.5951710727995
 30
0.0
 11
431.4962169973223
 21
273.5951710727995
 31
0.0
  0
LINE
  5
B28A
330
B267
100
AcDbEntity
  8
実線1
100
AcDbLine
 10
268.9962169973223
 20
243.5951710727995
 30
0.0
 11
431.4962169973223
 21
243.5951710727995
 31
0.0
  0
ARC
  5
B28B
330
B267
100
AcDbEntity
  8
実線1
100
AcDbCircle
 10
385.4460338648842
 20
247.5922491623301
 30
0.0
 40
17.97048745501534
100
AcDbArc
 50
192.8514801569142
 51
231.1592862592546
  0
ARC
  5
B28C
330
B267
100
AcDbEntity
  8
実線1
100
AcDbCircle
 10
397.5464001297605
 20
247.5922491623301
 30
0.0
 40
17.97048745501534
100
AcDbArc
 50
308.8407137407455
 51
347.1485198430858
  0
DIMENSION
  5
B28D
330
B267
100
AcDbEntity
  8
寸法
100
AcDbDimension
  2
*D40
 10
751.4894195859524
 20
105.9746696799921
 30
0.0
 11
690.4056283558239
 21
145.069297472066
 31
0.0
 12
-5952.639373973765
 22
-2089.612507523063
 32
0.0
 70
   128
  1
16
 71
     5
 42
-1.0
  3
STANDARD_WS
100
AcDbAlignedDimension
 13
791.4894195859524
 23
203.5951710727995
 33
0.0
 14
751.4894195859524
 24
303.5951710727995
 34
0.0
100
AcDbRotatedDimension
  0
ARC
  5
B28E
330
B267
100
AcDbEntity
  8
実線1
100
AcDbCircle
 10
811.4894195859524
 20
303.5951710727995
 30
0.0
 40
60.0
100
AcDbArc
 50
180.0
 51
270.0
  0
ARC
  5
B28F
330
B267
100
AcDbEntity
  8
実線1
100
AcDbCircle
 10
811.4894195859524
 20
303.5951710727995
 30
0.0
 40
30.0
100
AcDbArc
 50
180.0
 51
270.0
  0
ARC
  5
B290
330
B267
100
AcDbEntity
  8
実線1
100
AcDbCircle
 10
791.4894195859524
 20
243.5951710727995
 30
0.0
 40
10.0
100
AcDbArc
 50
180.0
 51
270.0
  0
LINE
  5
B291
330
B267
100
AcDbEntity
  8
実線1
100
AcDbLine
 10
781.4894195859524
 20
243.5951710727995
 30
0.0
 11
781.4894195859524
 21
251.633646845733
 31
0.0
  0
LINE
  5
B292
330
B267
100
AcDbEntity
  8
実線1
100
AcDbLine
 10
791.4894195859524
 20
233.5951710727995
 30
0.0
 11
791.4894195859524
 21
203.5951710727995
 31
0.0
  0
MTEXT
  5
B293
102
{ACAD_REACTORS
330
B294
102
}
330
B267
100
AcDbEntity
  8
寸法
100
AcDbMText
 10
461.2448318504048
 20
533.8553184309349
 30
0.0
 40
50.0
 41
0.0
 71
     4
 72
     1
  1
\A1;D16:250-2
  7
DIM
 73
     1
 44
1.0
  0
LEADER
  5
B294
330
B267
100
AcDbEntity
  8
寸法
100
AcDbLeader
  3
STANDARD_WS
 73
     0
 74
     0
 75
     1
 40
50.00000000000001
 41
245.7142857142858
 76
     3
 10
393.6986344117868
 20
563.5951710728
 30
0.0
 10
447.7448318504048
 20
496.3553184309349
 30
0.0
 10
448.7448318504048
 20
496.3553184309349
 30
0.0
340
B293
1001
ACAD
1000
DSTYLE
1002
{
1070
     6
1000
OPEN
1002
}
  0
DIMENSION
  5
B295
330
B267
100
AcDbEntity
  8
寸法
100
AcDbDimension
  2
*D45
 10
350.2462169973223
 20
662.435886528543
 30
0.0
 11
463.3395827388667
 21
716.185886528543
 31
0.0
 12
-5952.639373973765
 22
-2089.612507523063
 32
0.0
 70
   128
  1
32.5
 71
     5
 42
-1.0
  3
STANDARD_WS
100
AcDbAlignedDimension
 13
431.4962169973223
 23
553.5951710727995
 33
0.0
 14
350.2462169973223
 24
553.5951710727995
 34
0.0
100
AcDbRotatedDimension
  0
LINE
  5
B296
330
B267
100
AcDbEntity
  8
実線1
100
AcDbLine
 10
374.1757089216335
 20
563.5951710727995
 30
0.0
 11
408.8167250730112
 21
563.5951710727995
 31
0.0
  0
ARC
  5
B297
330
B267
100
AcDbEntity
  8
実線1
100
AcDbCircle
 10
391.4962169973223
 20
573.5951710727995
 30
0.0
 40
20.0
100
AcDbArc
 50
329.9999999999981
 51
210.0000000000019
  0
LINE
  5
B298
330
B267
100
AcDbEntity
  8
かくれ線
100
AcDbLine
 10
268.9962169973223
 20
523.5951710727995
 30
0.0
 11
431.4962169973223
 21
523.5951710727995
 31
0.0
  0
LINE
  5
B299
330
B267
100
AcDbEntity
  8
実線1
100
AcDbLine
 10
268.9962169973223
 20
553.5951710727995
 30
0.0
 11
431.4962169973223
 21
553.5951710727995
 31
0.0
  0
ARC
  5
B29A
330
B267
100
AcDbEntity
  8
実線1
100
AcDbCircle
 10
385.4460338648842
 20
549.598092983269
 30
0.0
 40
17.97048745501534
100
AcDbArc
 50
128.8407137407454
 51
167.1485198430858
  0
ARC
  5
B29B
330
B267
100
AcDbEntity
  8
実線1
100
AcDbCircle
 10
397.5464001297605
 20
549.598092983269
 30
0.0
 40
17.97048745501534
100
AcDbArc
 50
12.85148015691419
 51
51.15928625925457
  0
ARC
  5
B29C
330
B267
100
AcDbEntity
  8
実線1
100
AcDbCircle
 10
811.4894195859524
 20
493.5951710727995
 30
0.0
 40
60.0
100
AcDbArc
 50
90.0
 51
180.0
  0
ARC
  5
B29D
330
B267
100
AcDbEntity
  8
実線1
100
AcDbCircle
 10
811.4894195859524
 20
493.5951710727995
 30
0.0
 40
30.0
100
AcDbArc
 50
90.00000000000001
 51
180.0
  0
ARC
  5
B29E
330
B267
100
AcDbEntity
  8
実線1
100
AcDbCircle
 10
791.4894195859524
 20
553.5951710727995
 30
0.0
 40
10.0
100
AcDbArc
 50
90.0
 51
180.0
  0
LINE
  5
B29F
330
B267
100
AcDbEntity
  8
実線1
100
AcDbLine
 10
781.4894195859524
 20
553.5951710727995
 30
0.0
 11
781.4894195859524
 21
545.5566952998661
 31
0.0
  0
LINE
  5
B2A0
330
B267
100
AcDbEntity
  8
実線1
100
AcDbLine
 10
791.4894195859524
 20
563.5951710727995
 30
0.0
 11
791.4894195859524
 21
593.5951710727995
 31
0.0
  0
LINE
  5
B2A1
330
B267
100
AcDbEntity
  8
実線1
100
AcDbLine
 10
1416.489419585952
 20
243.5951710727995
 30
0.0
 11
941.4894195859524
 21
243.5951710727995
 31
0.0
  0
ARC
  5
B2A2
330
B267
100
AcDbEntity
  8
実線1
100
AcDbCircle
 10
931.4894195859524
 20
243.5951710727995
 30
0.0
 40
10.0
100
AcDbArc
 50
270.0
 51
90.00000000000001
  0
LINE
  5
B2A3
330
B267
100
AcDbEntity
  8
実線1
100
AcDbLine
 10
931.4894195859533
 20
273.5951710727995
 30
0.0
 11
931.4894195859524
 21
243.5951710727995
 31
0.0
  0
LINE
  5
B2A4
330
B267
100
AcDbEntity
  8
実線1
100
AcDbLine
 10
1416.489419585952
 20
203.5951710727995
 30
0.0
 11
1416.489419585952
 21
243.5951710727995
 31
0.0
  0
LINE
  5
B2A5
330
B267
100
AcDbEntity
  8
実線1
100
AcDbLine
 10
1416.489419585952
 20
553.5951710727995
 30
0.0
 11
941.4894195859524
 21
553.5951710727995
 31
0.0
  0
MTEXT
  5
B2A6
102
{ACAD_REACTORS
330
B2A7
102
}
330
B267
100
AcDbEntity
  8
寸法
100
AcDbMText
 10
1004.564140381093
 20
474.1048303896787
 30
0.0
 40
50.0
 41
0.0
 71
     4
 72
     1
  1
\A1;全周溶接
  7
DIM
 73
     1
 44
1.0
  0
LEADER
  5
B2A7
330
B267
100
AcDbEntity
  8
寸法
100
AcDbLeader
  3
STANDARD_WS
 73
     0
 74
     0
 75
     1
 40
50.00000000000002
 41
136.0
 76
     3
 10
931.4894195859524
 20
551.3452688314783
 30
0.0
 10
991.0641403810932
 20
436.6048303896787
 30
0.0
 10
992.0641403810932
 20
436.6048303896787
 30
0.0
340
B2A6
1001
ACAD
1000
DSTYLE
1002
{
1070
     6
1000
OPEN
1002
}
  0
LINE
  5
B2A8
330
B267
100
AcDbEntity
  8
実線1
100
AcDbLine
 10
931.4894195859524
 20
553.5951710727995
 30
0.0
 11
931.4894195859524
 21
523.5951710727995
 31
0.0
  0
ARC
  5
B2A9
330
B267
100
AcDbEntity
  8
実線1
100
AcDbCircle
 10
931.4894195859524
 20
553.5951710727995
 30
0.0
 40
10.0
100
AcDbArc
 50
270.0
 51
90.0
  0
LINE
  5
B2AA
330
B267
100
AcDbEntity
  8
実線1
100
AcDbLine
 10
1416.489419585952
 20
593.5951710727995
 30
0.0
 11
1416.489419585952
 21
553.5951710727995
 31
0.0
  0
ENDBLK
  5
B2AC
330
B267
100
AcDbEntity
  8
0
100
AcDbBlockEnd
  0
BLOCK
  5
B2E0
330
B2DD
100
AcDbEntity
  8
0
100
AcDbBlockBegin
  2
A$C0FA13F9A
 70
     0
 10
0.0
 20
0.0
 30
0.0
  3
A$C0FA13F9A
  1

  0
LWPOLYLINE
  5
B2DE
330
B2DD
100
AcDbEntity
  8
文字
100
AcDbPolyline
 90
        4
 70
     1
 43
0.0
 10
-0.0000024408145691
 20
221.6091363200139
 10
610.6419141894949
 20
221.6091363200139
 10
610.6419141894949
 20
0.0000068334993557
 10
-0.0000024408145691
 20
0.0000068334993557
  0
TEXT
  5
B2DF
330
B2DD
100
AcDbEntity
  8
文字
 62
     7
100
AcDbText
 10
40.01533659331199
 20
47.19786139646476
 30
0.0
 40
120.0
  1
社外秘
  7
STYLE2
100
AcDbText
  0
ENDBLK
  5
B2E1
330
B2DD
100
AcDbEntity
  8
0
100
AcDbBlockEnd
  0
BLOCK
  5
B305
330
B2E2
100
AcDbEntity
  8
0
100
AcDbBlockBegin
  2
A$C5A273433
 70
     0
 10
0.0
 20
0.0
 30
0.0
  3
A$C5A273433
  1

  0
TEXT
  5
B2E3
330
B2E2
100
AcDbEntity
  8
文字
100
AcDbText
 10
761.2559607617077
 20
299.8556724153304
 30
0.0
 40
60.0
  1
       年　  月  　 日
  7
STYLE3
100
AcDbText
  0
TEXT
  5
B2E4
330
B2E2
100
AcDbEntity
  8
文字
100
AcDbText
 10
1074.703908221767
 20
622.4239586842939
 30
0.0
 40
60.0
  1
設　計
  7
STYLE3
100
AcDbText
  0
TEXT
  5
B2E5
330
B2E2
100
AcDbEntity
  8
文字
100
AcDbText
 10
761.2559607617077
 20
201.3879463327366
 30
0.0
 40
60.0
  1
       年　  月  　 日
  7
STYLE3
100
AcDbText
  0
TEXT
  5
B2E6
330
B2E2
100
AcDbEntity
  8
文字
100
AcDbText
 10
1041.535026078578
 20
461.4236184569797
 30
0.0
 40
60.0
  1
Kanemaru
 41
0.8
  7
STYLE3
100
AcDbText
  0
LINE
  5
B2E7
330
B2E2
100
AcDbEntity
  8
文字
100
AcDbLine
 10
1700.000002629629
 20
0.0000045209380914
 30
0.0
 11
0.0000026296293072
 21
0.0000045209380914
 31
0.0
  0
LINE
  5
B2E8
330
B2E2
100
AcDbEntity
  8
文字
100
AcDbLine
 10
0.0000026296293072
 20
720.0000045209379
 30
0.0
 11
1700.000002629629
 21
720.0000045209379
 31
0.0
  0
LINE
  5
B2E9
330
B2E2
100
AcDbEntity
  8
文字
100
AcDbLine
 10
0.0000026296293072
 20
578.4844394770641
 30
0.0
 11
1700.000002629629
 21
578.4844394770641
 31
0.0
  0
LINE
  5
B2EA
330
B2E2
100
AcDbEntity
  8
文字
100
AcDbLine
 10
0.0000026296293072
 20
398.4844394770644
 30
0.0
 11
1700.000002629629
 21
398.4844394770644
 31
0.0
  0
LINE
  5
B2EB
330
B2E2
100
AcDbEntity
  8
文字
100
AcDbLine
 10
0.0000026296293072
 20
180.000004520938
 30
0.0
 11
1700.000002629629
 21
180.000004520938
 31
0.0
  0
TEXT
  5
B2EC
330
B2E2
100
AcDbEntity
  8
文字
100
AcDbText
 10
178.5374457738726
 20
46.51038148044074
 30
0.0
 40
70.0
  1
和光コンクリート工業株式会社
  7
STYLE3
100
AcDbText
  0
LINE
  5
B2ED
330
B2E2
100
AcDbEntity
  8
文字
100
AcDbLine
 10
1700.000002629629
 20
0.0000045209380914
 30
0.0
 11
0.0000026296293072
 21
0.0000045209380914
 31
0.0
  0
LINE
  5
B2EE
330
B2E2
100
AcDbEntity
  8
文字
100
AcDbLine
 10
680.0000026296293
 20
720.0000045209379
 30
0.0
 11
680.0000026296311
 21
398.4844394770644
 31
0.0
  0
LINE
  5
B2EF
330
B2E2
100
AcDbEntity
  8
文字
100
AcDbLine
 10
1020.000002629629
 20
720.0000045209379
 30
0.0
 11
1020.000002629631
 21
398.4844394770644
 31
0.0
  0
TEXT
  5
B2F0
330
B2E2
100
AcDbEntity
  8
文字
100
AcDbText
 10
399.9941907128596
 20
623.1704627362358
 30
0.0
 40
60.0
  1
承　認
  7
STYLE3
100
AcDbText
  0
TEXT
  5
B2F1
330
B2E2
100
AcDbEntity
  8
文字
100
AcDbText
 10
363.9855542508694
 20
461.4236184569797
 30
0.0
 40
60.0
  1
Kanemaru
 41
0.8
  7
STYLE3
100
AcDbText
  0
TEXT
  5
B2F2
330
B2E2
100
AcDbEntity
  8
文字
100
AcDbText
 10
100.2373044856504
 20
205.4521649388679
 30
0.0
 40
60.0
  1
改　正　日
  7
STYLE3
100
AcDbText
  0
TEXT
  5
B2F3
330
B2E2
100
AcDbEntity
  8
文字
100
AcDbText
 10
100.2373044856504
 20
305.4140890509368
 30
0.0
 40
60.0
  1
制　定　日
  7
STYLE3
100
AcDbText
  0
TEXT
  5
B2F4
330
B2E2
100
AcDbEntity
  8
文字
100
AcDbText
 10
64.1142420064898
 20
621.5362570436753
 30
0.0
 40
60.0
  1
縮　尺
  7
STYLE3
100
AcDbText
  0
TEXT
  5
B2F5
330
B2E2
100
AcDbEntity
  8
文字
100
AcDbText
 10
92.91805392982133
 20
461.4236184569797
 30
0.0
 40
60.0
  1
1/20
  7
STYLE3
100
AcDbText
  0
TEXT
  5
B2F6
330
B2E2
100
AcDbEntity
  8
文字
100
AcDbText
 10
731.5325830704969
 20
625.4405544074996
 30
0.0
 40
60.0
  1
検　図
  7
STYLE3
100
AcDbText
  0
TEXT
  5
B2F7
330
B2E2
100
AcDbEntity
  8
文字
100
AcDbText
 10
765.2487103810381
 20
461.4236184569797
 30
0.0
 40
60.0
  1
Zhang
 41
0.8
  7
STYLE3
100
AcDbText
  0
TEXT
  5
B2F8
330
B2E2
100
AcDbEntity
  8
文字
100
AcDbText
 10
673.1366576921428
 20
301.2601433478429
 30
0.0
 40
60.0
  1
2003
  7
STYLE3
100
AcDbText
  0
TEXT
  5
B2F9
330
B2E2
100
AcDbEntity
  8
文字
100
AcDbText
 10
1075.844119371191
 20
301.2601433478429
 30
0.0
 40
60.0
  1
6
  7
STYLE3
100
AcDbText
  0
LINE
  5
B2FA
330
B2E2
100
AcDbEntity
  8
文字
100
AcDbLine
 10
1360.000002629629
 20
720.0000045209379
 30
0.0
 11
1360.000002629631
 21
398.4844394770644
 31
0.0
  0
TEXT
  5
B2FB
330
B2E2
100
AcDbEntity
  8
文字
100
AcDbText
 10
1415.936424058149
 20
624.4663204355509
 30
0.0
 40
60.0
  1
製　図
  7
STYLE3
100
AcDbText
  0
TEXT
  5
B2FC
330
B2E2
100
AcDbEntity
  8
文字
100
AcDbText
 10
1376.633969733997
 20
461.4236184569797
 30
0.0
 40
60.0
  1
Takahashi
 41
0.8
  7
STYLE3
100
AcDbText
  0
TEXT
  5
B2FD
330
B2E2
100
AcDbEntity
  8
文字
100
AcDbText
 10
1308.359737699891
 20
301.2601433478429
 30
0.0
 40
60.0
  1
10
  7
STYLE3
100
AcDbText
  0
LINE
  5
B2FE
330
B2E2
100
AcDbEntity
  8
文字
100
AcDbLine
 10
0.0000026296293072
 20
900.0000045209381
 30
0.0
 11
1700.000002629629
 21
900.0000045209381
 31
0.0
  0
LINE
  5
B2FF
330
B2E2
100
AcDbEntity
  8
文字
100
AcDbLine
 10
0.0000026296293072
 20
900.0000045209381
 30
0.0
 11
0.0000026296293072
 21
0.0000045209380914
 31
0.0
  0
TEXT
  5
B300
330
B2E2
100
AcDbEntity
  8
文字
100
AcDbText
 10
62.57636057510535
 20
759.7056661532968
 30
0.0
 40
60.0
  1
図　名
  7
STYLE3
100
AcDbText
  0
LINE
  5
B301
330
B2E2
100
AcDbEntity
  8
文字
100
AcDbLine
 10
340.0000026296293
 20
900.0000045209381
 30
0.0
 11
340.0000026296293
 21
398.4844394770644
 31
0.0
  0
INSERT
  5
B302
330
B2E2
100
AcDbEntity
  8
寸法
100
AcDbBlockReference
  2
A$C0FA13F9A
 10
971.8601216478382
 20
4658.48544744327
 30
0.0
  0
TEXT
  5
B303
330
B2E2
100
AcDbEntity
  8
文字
100
AcDbText
 10
949.610107833716
 20
4516.233263878391
 30
-0.0000000000006063
 40
55.0
  1
配布番号　
  7
STYLE3
100
AcDbText
  0
TEXT
  5
B304
330
B2E2
100
AcDbEntity
  8
文字
100
AcDbText
 10
1465.522710878002
 20
4516.233263878391
 30
-0.0000000000006063
 40
55.0
  1
001
  7
STYLE3
100
AcDbText
  0
ENDBLK
  5
B306
330
B2E2
100
AcDbEntity
  8
0
100
AcDbBlockEnd
  0
ENDSEC
  0
SECTION
  2
ENTITIES
  0
LINE
  5
3E
330
18
100
AcDbEntity
  8
外枠
100
AcDbLine
 10
7312.796081
 20
5415.067432
 30
0.0
 11
0.0
 21
5415.067432
 31
0.0
  0
LINE
  5
3F
330
18
100
AcDbEntity
  8
外枠
100
AcDbLine
 10
0.0
 20
5415.067432
 30
0.0
 11
0.0
 21
400.0
 31
0.0
  0
LINE
  5
5B2
330
18
100
AcDbEntity
  8
外枠
100
AcDbLine
 10
0.0
 20
400.0
 30
0.0
 11
7312.796081
 21
400.0
 31
0.0
  0
LINE
  5
5B3
330
18
100
AcDbEntity
  8
外枠
100
AcDbLine
 10
7312.796081
 20
400.0
 30
0.0
 11
7312.796081
 21
5415.067432
 31
0.0
  0
TEXT
  5
4244
330
18
100
AcDbEntity
  8
実線1
 62
     5
100
AcDbText
 10
785.939183339159
 20
4875.735981
 30
0.0
 40
60.0
  1
背　面
  7
STYLE2
100
AcDbText
  0
TEXT
  5
4245
330
18
100
AcDbEntity
  8
実線1
 62
     5
100
AcDbText
 10
744.7791833391589
 20
5011.875981
 30
0.0
 40
60.0
  1
縦　　壁
  7
STYLE2
100
AcDbText
  0
TEXT
  5
4435
330
18
100
AcDbEntity
  8
実線1
 62
     5
100
AcDbText
 10
3351.152198855541
 20
5011.87458
 30
0.0
 40
60.0
  1
側　面
  7
STYLE2
100
AcDbText
  0
LINE
  5
9B04
330
18
100
AcDbEntity
  8
実線
 62
     7
100
AcDbLine
 10
2444.125197949915
 20
4299.814416414281
 30
0.0
 11
1644.125197949915
 21
4299.814416414281
 31
0.0
  0
LINE
  5
9B0A
330
18
100
AcDbEntity
  8
実線
 62
     7
100
AcDbLine
 10
2444.125197949915
 20
4110.814416414281
 30
0.0
 11
1694.125197949915
 21
4110.814416414281
 31
0.0
  0
LINE
  5
9B0B
330
18
100
AcDbEntity
  8
実線
 62
     7
100
AcDbLine
 10
2444.125197949915
 20
4036.814416414281
 30
0.0
 11
1678.961666949915
 21
4036.814416414281
 31
0.0
  0
LINE
  5
9B0C
330
18
100
AcDbEntity
  8
実線
 62
     7
100
AcDbLine
 10
2444.125197949915
 20
4209.814416414281
 30
0.0
 11
1694.125197949915
 21
4209.814416414281
 31
0.0
  0
LINE
  5
9B0D
330
18
100
AcDbEntity
  8
実線
 62
     7
100
AcDbLine
 10
1444.125197949915
 20
3919.814416414281
 30
0.0
 11
2444.125197949915
 21
3919.814416414281
 31
0.0
  0
LINE
  5
9B0E
330
18
100
AcDbEntity
  8
実線
 62
     7
100
AcDbLine
 10
2444.125197949915
 20
4419.814416414281
 30
0.0
 11
1594.125197949915
 21
4419.814416414281
 31
0.0
  0
LINE
  5
9B23
330
18
100
AcDbEntity
  8
実線
 62
     7
100
AcDbLine
 10
3840.554378179822
 20
4036.81441641428
 30
0.0
 11
4971.554378179823
 21
3989.81441641428
 31
0.0
  0
LINE
  5
9B24
330
18
100
AcDbEntity
  8
実線
 62
     7
100
AcDbLine
 10
3680.554378179822
 20
3919.81441641428
 30
0.0
 11
4971.554378179823
 21
3919.814416414281
 31
0.0
  0
LINE
  5
9B30
330
18
100
AcDbEntity
  8
中心線
 62
     1
100
AcDbLine
 10
4370.770566452105
 20
3960.856394181911
 30
0.0
 11
4372.2967796842
 21
3997.582908762386
 31
0.0
  0
CIRCLE
  5
9B31
330
18
100
AcDbEntity
  8
実線1
 62
    13
100
AcDbCircle
 10
4371.554378179823
 20
3979.717895472148
 30
0.0
 40
13.5
  0
LINE
  5
9B38
330
18
100
AcDbEntity
  8
実線
 62
     7
100
AcDbLine
 10
3671.554378179822
 20
3928.81441641428
 30
0.0
 11
3671.554378179822
 21
4430.81441641428
 31
0.0
  0
LINE
  5
9B3C
330
18
100
AcDbEntity
  8
実線
 62
     7
100
AcDbLine
 10
3671.554378179822
 20
3928.81441641428
 30
0.0
 11
3680.554378179822
 21
3919.81441641428
 31
0.0
  0
LINE
  5
9B42
330
18
100
AcDbEntity
  8
実線
 62
     7
100
AcDbLine
 10
444.1251979499148
 20
4299.814416414281
 30
0.0
 11
1244.125197949915
 21
4299.814416414281
 31
0.0
  0
LINE
  5
9B46
330
18
100
AcDbEntity
  8
実線
 62
     7
100
AcDbLine
 10
444.1251979499148
 20
4110.814416414281
 30
0.0
 11
1194.125197949915
 21
4110.814416414281
 31
0.0
  0
LINE
  5
9B47
330
18
100
AcDbEntity
  8
実線
 62
     7
100
AcDbLine
 10
444.1251979499148
 20
4036.814416414281
 30
0.0
 11
1209.288729949914
 21
4036.814416414281
 31
0.0
  0
LINE
  5
9B48
330
18
100
AcDbEntity
  8
実線
 62
     7
100
AcDbLine
 10
444.1251979499148
 20
4209.814416414281
 30
0.0
 11
1194.125197949915
 21
4209.814416414281
 31
0.0
  0
LINE
  5
9B49
330
18
100
AcDbEntity
  8
実線
 62
     7
100
AcDbLine
 10
1444.125197949915
 20
3919.814416414281
 30
0.0
 11
444.1251979499148
 21
3919.814416414281
 31
0.0
  0
LINE
  5
9B4A
330
18
100
AcDbEntity
  8
実線
 62
     7
100
AcDbLine
 10
444.1251979499148
 20
4419.814416414281
 30
0.0
 11
1294.125197949915
 21
4419.814416414281
 31
0.0
  0
LINE
  5
9B6A
330
18
100
AcDbEntity
  8
実線
 62
     7
100
AcDbLine
 10
444.1251979499148
 20
3919.81441641428
 30
0.0
 11
444.1251979499148
 21
4419.814416414281
 31
0.0
  0
LINE
  5
9B6E
330
18
100
AcDbEntity
  8
実線
 62
     7
100
AcDbLine
 10
3983.554378179823
 20
4299.81441641428
 30
0.0
 11
3766.554378179822
 21
4209.81441641428
 31
0.0
  0
LINE
  5
9B70
330
18
100
AcDbEntity
  8
かくれ線
100
AcDbLine
 10
3781.554378179822
 20
4019.81441641428
 30
0.0
 11
3901.554378179823
 21
4019.81441641428
 31
0.0
  0
LINE
  5
9B75
330
18
100
AcDbEntity
  8
実線
 62
     7
100
AcDbLine
 10
3766.554378179822
 20
4110.81441641428
 30
0.0
 11
3840.554378179822
 21
4036.81441641428
 31
0.0
  0
LINE
  5
9B76
330
18
100
AcDbEntity
  8
実線
 62
     7
100
AcDbLine
 10
3680.554378179822
 20
4419.81441641428
 30
0.0
 11
3971.554378179823
 21
4419.81441641428
 31
0.0
  0
LINE
  5
9B77
330
18
100
AcDbEntity
  8
実線
 62
     7
100
AcDbLine
 10
3680.554378179822
 20
4439.81441641428
 30
0.0
 11
3969.554378179823
 21
4439.81441641428
 31
0.0
  0
LINE
  5
9B78
330
18
100
AcDbEntity
  8
かくれ線
100
AcDbLine
 10
3781.554378179822
 20
4019.81441641428
 30
0.0
 11
3761.554378179823
 21
4439.81441641428
 31
0.0
  0
LINE
  5
9B7A
330
18
100
AcDbEntity
  8
実線
 62
     7
100
AcDbLine
 10
3766.554378179822
 20
4209.81441641428
 30
0.0
 11
3766.554378179822
 21
4110.81441641428
 31
0.0
  0
LINE
  5
9B7D
330
18
100
AcDbEntity
  8
中心線
 62
     1
100
AcDbLine
 10
3778.805640838293
 20
4029.065679072752
 30
0.0
 11
3778.805640838293
 21
4069.065679072752
 31
0.0
  0
CIRCLE
  5
9B7E
330
18
100
AcDbEntity
  8
実線1
 62
    13
100
AcDbCircle
 10
3778.805640838293
 20
4049.065679072752
 30
0.0
 40
13.5
  0
LINE
  5
9B7F
330
18
100
AcDbEntity
  8
中心線
 62
     1
100
AcDbLine
 10
3758.805640838293
 20
4049.065679072752
 30
0.0
 11
3798.805640838293
 21
4049.065679072752
 31
0.0
  0
LINE
  5
9B84
330
18
100
AcDbEntity
  8
実線
 62
     7
100
AcDbLine
 10
3680.554378179822
 20
4419.81441641428
 30
0.0
 11
3671.554378179822
 21
4410.81441641428
 31
0.0
  0
LINE
  5
9B86
330
18
100
AcDbEntity
  8
実線
 62
     7
100
AcDbLine
 10
3680.554378179822
 20
4439.81441641428
 30
0.0
 11
3671.554378179822
 21
4430.81441641428
 31
0.0
  0
LINE
  5
9B88
330
18
100
AcDbEntity
  8
かくれ線
100
AcDbLine
 10
3901.554378179823
 20
4019.81441641428
 30
0.0
 11
3921.554378179823
 21
4439.81441641428
 31
0.0
  0
LINE
  5
9B89
330
18
100
AcDbEntity
  8
実線
 62
     7
100
AcDbLine
 10
4010.560859179824
 20
4029.749602414281
 30
0.0
 11
3969.554378179823
 21
4439.81441641428
 31
0.0
  0
POINT
  5
9B8A
330
18
100
AcDbEntity
  8
実線1
 62
     5
100
AcDbPoint
 10
3803.554378179822
 20
4073.81441641428
 30
0.0
  0
LINE
  5
9BA4
330
18
100
AcDbEntity
  8
かくれ線
100
AcDbLine
 10
1349.125197949915
 20
4439.814416414281
 30
0.0
 11
1369.125197949915
 21
4019.814416414281
 31
0.0
  0
LINE
  5
9BA6
330
18
100
AcDbEntity
  8
実線
 62
     7
100
AcDbLine
 10
1244.125197949915
 20
4029.749602414281
 30
0.0
 11
1644.125197949915
 21
4029.749602414281
 31
0.0
  0
LINE
  5
9BA7
330
18
100
AcDbEntity
  8
実線
 62
     7
100
AcDbLine
 10
1319.125197949915
 20
4439.814416414281
 30
0.0
 11
1444.125197949915
 21
4439.814416414281
 31
0.0
  0
LINE
  5
9BA8
330
18
100
AcDbEntity
  8
実線
 62
     7
100
AcDbLine
 10
1194.125197949915
 20
4209.814416414281
 30
0.0
 11
1244.125197949915
 21
4299.814416414281
 31
0.0
  0
LINE
  5
9BA9
330
18
100
AcDbEntity
  8
実線
 62
     7
100
AcDbLine
 10
1244.125197949915
 20
4029.749602414281
 30
0.0
 11
1244.125197949915
 21
4299.814416414281
 31
0.0
  0
LINE
  5
9BAA
330
18
100
AcDbEntity
  8
実線
 62
     7
100
AcDbLine
 10
1194.125197949915
 20
4110.814416414281
 30
0.0
 11
1209.288729949914
 21
4036.814416414281
 31
0.0
  0
LINE
  5
9BAB
330
18
100
AcDbEntity
  8
実線
 62
     7
100
AcDbLine
 10
1209.288729949914
 20
4036.814416414281
 30
0.0
 11
1244.125197949915
 21
4029.749602414281
 31
0.0
  0
LINE
  5
9BAC
330
18
100
AcDbEntity
  8
実線
 62
     7
100
AcDbLine
 10
1194.125197949915
 20
4110.814416414281
 30
0.0
 11
1194.125197949915
 21
4209.814416414281
 31
0.0
  0
LINE
  5
9BB0
330
18
100
AcDbEntity
  8
実線
 62
     7
100
AcDbLine
 10
1294.125197949915
 20
4419.814416414281
 30
0.0
 11
1319.125197949915
 21
4439.814416414281
 31
0.0
  0
LINE
  5
9BB1
330
18
100
AcDbEntity
  8
実線
 62
     7
100
AcDbLine
 10
1694.125197949915
 20
4209.814416414281
 30
0.0
 11
1644.125197949915
 21
4299.814416414281
 31
0.0
  0
LINE
  5
9BB2
330
18
100
AcDbEntity
  8
実線
 62
     7
100
AcDbLine
 10
1644.125197949915
 20
4029.749602414281
 30
0.0
 11
1644.125197949915
 21
4299.814416414281
 31
0.0
  0
LINE
  5
9BB3
330
18
100
AcDbEntity
  8
かくれ線
100
AcDbLine
 10
1519.125197949915
 20
4019.814416414281
 30
0.0
 11
1539.125197949915
 21
4439.814416414281
 31
0.0
  0
LINE
  5
9BB4
330
18
100
AcDbEntity
  8
実線
 62
     7
100
AcDbLine
 10
1678.961666949915
 20
4036.814416414281
 30
0.0
 11
1644.125197949915
 21
4029.749602414281
 31
0.0
  0
LINE
  5
9BB6
330
18
100
AcDbEntity
  8
かくれ線
100
AcDbLine
 10
1519.125197949915
 20
4019.814416414281
 30
0.0
 11
1369.125197949915
 21
4019.814416414281
 31
0.0
  0
LINE
  5
9BB7
330
18
100
AcDbEntity
  8
実線
 62
     7
100
AcDbLine
 10
1694.125197949915
 20
4110.814416414281
 30
0.0
 11
1678.961666949915
 21
4036.814416414281
 31
0.0
  0
LINE
  5
9BB8
330
18
100
AcDbEntity
  8
実線
 62
     7
100
AcDbLine
 10
1694.125197949915
 20
4110.814416414281
 30
0.0
 11
1694.125197949915
 21
4209.814416414281
 31
0.0
  0
LINE
  5
9BBA
330
18
100
AcDbEntity
  8
実線
 62
     7
100
AcDbLine
 10
1569.125197949915
 20
4439.814416414281
 30
0.0
 11
1444.125197949915
 21
4439.814416414281
 31
0.0
  0
LINE
  5
9BBC
330
18
100
AcDbEntity
  8
実線
 62
     7
100
AcDbLine
 10
1594.125197949915
 20
4419.814416414281
 30
0.0
 11
1569.125197949915
 21
4439.814416414281
 31
0.0
  0
LINE
  5
9BDF
330
18
100
AcDbEntity
  8
実線
 62
     7
100
AcDbLine
 10
4971.554378179823
 20
3919.814416414281
 30
0.0
 11
4971.554378179823
 21
3989.81441641428
 31
0.0
  0
LINE
  5
9C1A
330
18
100
AcDbEntity
  8
実線
 62
     7
100
AcDbLine
 10
2444.125197949915
 20
3919.81441641428
 30
0.0
 11
2444.125197949915
 21
4419.814416414281
 31
0.0
  0
DIMENSION
  5
9E92
330
18
100
AcDbEntity
  8
寸法
100
AcDbDimension
  2
*D6
 10
2444.125197949915
 20
3699.413709457527
 30
0.0
 11
1444.125197949915
 21
3736.913709457527
 31
0.0
 70
    32
 71
     5
 42
2000.0
  3
STANDARD_WS
100
AcDbAlignedDimension
 13
444.1251979499148
 23
3919.81441641428
 33
0.0
 14
2444.125197949915
 24
3919.814416414281
 34
0.0
100
AcDbRotatedDimension
  0
DIMENSION
  5
9E9F
330
18
100
AcDbEntity
  8
寸法
100
AcDbDimension
  2
*D7
 10
325.8495203157181
 20
3919.81441641428
 30
0.0
 11
288.3495203157175
 21
4169.814416414281
 31
0.0
 70
    32
 71
     5
 42
500.0000000000009
  3
STANDARD_WS
100
AcDbAlignedDimension
 13
444.1251979499148
 23
4419.814416414281
 33
0.0
 14
444.1251979499148
 24
3919.81441641428
 34
0.0
 50
90.0
100
AcDbRotatedDimension
  0
DIMENSION
  5
9EB8
330
18
100
AcDbEntity
  8
寸法
100
AcDbDimension
  2
*D8
 10
4971.554378179823
 20
3586.224752023394
 30
0.0
 11
4321.554378179822
 21
3623.724752023394
 31
0.0
 70
    32
 71
     5
 42
-1.0
  3
STANDARD_WS
100
AcDbAlignedDimension
 13
3671.554378179822
 23
3928.81441641428
 33
0.0
 14
4971.554378179823
 24
3919.814416414281
 34
0.0
100
AcDbRotatedDimension
  0
DIMENSION
  5
A115
330
18
100
AcDbEntity
  8
寸法
100
AcDbDimension
  2
*D9
 10
5105.814904248022
 20
3919.814416414281
 30
0.0
 11
5159.564904248022
 21
3954.814416414281
 31
0.0
 70
    32
 71
     5
 42
-1.0
  3
STANDARD_WS
100
AcDbAlignedDimension
 13
4971.554378179823
 23
3989.81441641428
 33
0.0
 14
4971.554378179823
 24
3919.814416414281
 34
0.0
 50
90.0
100
AcDbRotatedDimension
  0
DIMENSION
  5
A134
330
18
100
AcDbEntity
  8
寸法
100
AcDbDimension
  2
*D10
 10
3671.554378179822
 20
4613.773123774055
 30
0.0
 11
3821.554378179823
 21
4651.273123774055
 31
0.0
 70
    32
 71
     5
 42
-1.0
  3
STANDARD_WS
100
AcDbAlignedDimension
 13
3971.554378179823
 23
4419.81441641428
 33
0.0
 14
3671.554378179822
 24
4430.81441641428
 34
0.0
100
AcDbRotatedDimension
  0
DIMENSION
  5
A141
330
18
100
AcDbEntity
  8
寸法
100
AcDbDimension
  2
*D11
 10
4222.733316304366
 20
4029.749602438253
 30
0.0
 11
4185.233316304366
 21
4224.782009426267
 31
0.0
 70
    32
 71
     5
 42
-1.0
  3
STANDARD_WS
100
AcDbAlignedDimension
 13
3971.554378179823
 23
4419.81441641428
 33
0.0
 14
4010.560859177427
 24
4029.749602438253
 34
0.0
 50
90.0
100
AcDbRotatedDimension
  0
DIMENSION
  5
A14E
330
18
100
AcDbEntity
  8
寸法
100
AcDbDimension
  2
*D12
 10
3478.635510960739
 20
3919.81441641428
 30
0.0
 11
3441.135510960739
 21
4179.81441641428
 31
0.0
 70
    32
 71
     5
 42
-1.0
  3
STANDARD_WS
100
AcDbAlignedDimension
 13
3680.554378179822
 23
4439.81441641428
 33
0.0
 14
3680.554378179822
 24
3919.81441641428
 34
0.0
 50
90.0
100
AcDbRotatedDimension
  0
DIMENSION
  5
A15B
330
18
100
AcDbEntity
  8
寸法
100
AcDbDimension
  2
*D13
 10
3577.140094402755
 20
3919.81441641428
 30
0.0
 11
3539.640094402755
 21
4169.81441641428
 31
0.0
 70
    32
 71
     5
 42
-1.0
  3
STANDARD_WS
100
AcDbAlignedDimension
 13
3680.554378179822
 23
4419.81441641428
 33
0.0
 14
3680.554378179822
 24
3919.81441641428
 34
0.0
 50
90.0
100
AcDbRotatedDimension
  0
DIMENSION
  5
A181
330
18
100
AcDbEntity
  8
寸法
100
AcDbDimension
  2
*D14
 10
3577.140094402755
 20
4439.81441641428
 30
0.0
 11
3523.390094402755
 21
4475.454972314736
 31
0.0
 70
   160
 71
     5
 42
-1.0
  3
STANDARD_WS
100
AcDbAlignedDimension
 13
3680.554378179822
 23
4419.81441641428
 33
0.0
 14
3680.554378179822
 24
4439.81441641428
 34
0.0
 50
90.0
100
AcDbRotatedDimension
  0
DIMENSION
  5
A1A9
330
18
100
AcDbEntity
  8
寸法
100
AcDbDimension
  2
*D16
 10
1539.125197949915
 20
4515.142183497137
 30
0.0
 11
1444.125197949915
 21
4552.642183497137
 31
0.0
 70
    32
 71
     5
 42
-1.0
  3
STANDARD_WS
100
AcDbAlignedDimension
 13
1349.125197949915
 23
4439.814416414281
 33
0.0
 14
1539.125197949915
 24
4439.814416414281
 34
0.0
100
AcDbRotatedDimension
  0
DIMENSION
  5
A1B6
330
18
100
AcDbEntity
  8
寸法
100
AcDbDimension
  2
*D17
 10
4099.275509416286
 20
4299.81441641428
 30
0.0
 11
4061.775509416286
 21
4359.81441641428
 31
0.0
 70
    32
 71
     5
 42
-1.0
  3
STANDARD_WS
100
AcDbAlignedDimension
 13
3971.554378179823
 23
4419.81441641428
 33
0.0
 14
3983.554378179823
 24
4299.81441641428
 34
0.0
 50
90.0
100
AcDbRotatedDimension
  0
DIMENSION
  5
A1C3
330
18
100
AcDbEntity
  8
寸法
100
AcDbDimension
  2
*D18
 10
4099.275509416286
 20
4209.81441641428
 30
0.0
 11
4061.775509416286
 21
4254.81441641428
 31
0.0
 70
    32
 71
     5
 42
-1.0
  3
STANDARD_WS
100
AcDbAlignedDimension
 13
3983.554378179823
 23
4299.81441641428
 33
0.0
 14
3766.554378179822
 24
4209.81441641428
 34
0.0
 50
90.0
100
AcDbRotatedDimension
  0
DIMENSION
  5
A20B
330
18
100
AcDbEntity
  8
寸法
100
AcDbDimension
  2
*D19
 10
3921.554378179823
 20
4515.142183497137
 30
0.0
 11
3841.554378179823
 21
4552.642183497137
 31
0.0
 70
    32
 71
     5
 42
-1.0
  3
STANDARD_WS
100
AcDbAlignedDimension
 13
3761.554378179823
 23
4439.81441641428
 33
0.0
 14
3921.554378179823
 24
4439.81441641428
 34
0.0
100
AcDbRotatedDimension
  0
DIMENSION
  5
A21B
330
18
100
AcDbEntity
  8
寸法
100
AcDbDimension
  2
*D20
 10
3971.554378179823
 20
4515.142183497137
 30
0.0
 11
3939.462807201169
 21
4568.892183497137
 31
0.0
 70
   160
 71
     5
 42
-1.0
  3
STANDARD_WS
100
AcDbAlignedDimension
 13
3921.554378179823
 23
4439.81441641428
 33
0.0
 14
3971.554378179823
 24
4419.81441641428
 34
0.0
100
AcDbRotatedDimension
  0
DIMENSION
  5
A241
330
18
100
AcDbEntity
  8
寸法
100
AcDbDimension
  2
*D21
 10
3671.554378179822
 20
4515.142183497137
 30
0.0
 11
3716.554378179822
 21
4552.642183497137
 31
0.0
 70
    32
 71
     5
 42
-1.0
  3
STANDARD_WS
100
AcDbAlignedDimension
 13
3761.554378179823
 23
4439.81441641428
 33
0.0
 14
3671.554378179822
 24
4430.81441641428
 34
0.0
100
AcDbRotatedDimension
  0
LINE
  5
A7EE
330
18
100
AcDbEntity
  8
実線1
 62
     5
100
AcDbLine
 10
4312.955528629944
 20
4014.681087995578
 30
0.0
 11
4310.256708513485
 21
3949.737140086793
 31
0.0
  0
LINE
  5
A80B
330
18
100
AcDbEntity
  8
実線1
 62
     5
100
AcDbLine
 10
4310.256708513485
 20
3949.737140086793
 30
0.0
 11
4430.153227729705
 21
3944.754702948718
 31
0.0
  0
LINE
  5
A824
330
18
100
AcDbEntity
  8
実線1
 62
     5
100
AcDbLine
 10
4432.852047846161
 20
4009.698650857504
 30
0.0
 11
4430.153227729705
 21
3944.754702948718
 31
0.0
  0
LINE
  5
A827
330
18
100
AcDbEntity
  8
中心線
 62
     1
100
AcDbLine
 10
4352.692876889587
 20
3980.501707199865
 30
0.0
 11
4389.419391470061
 21
3978.97549396777
 31
0.0
  0
LINE
  5
A82A
330
18
100
AcDbEntity
  8
実線1
 62
     5
100
AcDbLine
 10
4312.955528629942
 20
4014.681087995578
 30
0.0
 11
4432.852047846161
 21
4009.698650857503
 31
0.0
  0
LINE
  5
A82C
330
18
100
AcDbEntity
  8
実線1
 62
     5
100
AcDbLine
 10
3759.360204355663
 20
4114.473056332507
 30
0.0
 11
3844.213018098048
 21
4029.620242590121
 31
0.0
  0
LINE
  5
A82D
330
18
100
AcDbEntity
  8
実線1
 62
     5
100
AcDbLine
 10
3759.360204355663
 20
4114.473056332507
 30
0.0
 11
3713.398263578538
 21
4068.511115555381
 31
0.0
  0
LINE
  5
A82E
330
18
100
AcDbEntity
  8
実線1
 62
     5
100
AcDbLine
 10
3844.213018098049
 20
4029.620242590121
 30
0.0
 11
3798.251077320923
 21
3983.658301812995
 31
0.0
  0
LINE
  5
A830
330
18
100
AcDbEntity
  8
実線1
 62
     5
100
AcDbLine
 10
3713.398263578538
 20
4068.511115555381
 30
0.0
 11
3798.251077320923
 21
3983.658301812995
 31
0.0
  0
LINE
  5
A910
330
18
100
AcDbEntity
  8
中心線
  6
CENTER2
100
AcDbLine
 10
3841.554378179823
 20
4045.488852991289
 30
0.0
 11
3841.554378179823
 21
3899.074260591035
 31
0.0
  0
LINE
  5
A911
330
18
100
AcDbEntity
  8
かくれ線
100
AcDbLine
 10
3851.554378179823
 20
3919.81441641428
 30
0.0
 11
3861.554378179823
 21
4019.814416414281
 31
0.0
  0
LINE
  5
A912
330
18
100
AcDbEntity
  8
かくれ線
100
AcDbLine
 10
3821.554378179823
 20
4019.814416414281
 30
0.0
 11
3831.554378179823
 21
3919.81441641428
 31
0.0
  0
DIMENSION
  5
AA6B
330
18
100
AcDbEntity
  8
寸法
100
AcDbDimension
  2
*D22
 10
4971.554378179823
 20
3699.413709457527
 30
0.0
 11
4375.180009509058
 21
3736.913709457527
 31
0.0
 70
    32
 71
     5
 42
-1.0
  3
STANDARD_WS
100
AcDbAlignedDimension
 13
3778.805640838293
 23
4049.065679072752
 33
0.0
 14
4971.554378179823
 24
3919.814416414281
 34
0.0
100
AcDbRotatedDimension
  0
LINE
  5
AA6C
330
18
100
AcDbEntity
  8
かくれ線
100
AcDbLine
 10
1454.125197949915
 20
3919.814416414281
 30
0.0
 11
1464.125197949915
 21
4019.814416414281
 31
0.0
  0
LINE
  5
AA6D
330
18
100
AcDbEntity
  8
かくれ線
100
AcDbLine
 10
1424.125197949915
 20
4019.814416414281
 30
0.0
 11
1434.125197949915
 21
3919.814416414281
 31
0.0
  0
LINE
  5
AA6E
330
18
100
AcDbEntity
  8
中心線
  6
CENTER2
100
AcDbLine
 10
1444.125197949915
 20
4045.48885299129
 30
0.0
 11
1444.125197949915
 21
3899.074260591035
 31
0.0
  0
DIMENSION
  5
AA7E
330
18
100
AcDbEntity
  8
寸法
100
AcDbDimension
  2
*D23
 10
3901.554378179823
 20
3802.712290249256
 30
0.0
 11
3841.554378179823
 21
3840.212290249256
 31
0.0
 70
    32
 71
     5
 42
-1.0
  3
STANDARD_WS
100
AcDbAlignedDimension
 13
3781.554378179822
 23
4019.81441641428
 33
0.0
 14
3901.554378179823
 24
4019.81441641428
 34
0.0
100
AcDbRotatedDimension
  0
DIMENSION
  5
AA9B
330
18
100
AcDbEntity
  8
寸法
100
AcDbDimension
  2
*D24
 10
1464.125197949915
 20
4096.128625834594
 30
0.0
 11
1444.125197949915
 21
4149.878625834594
 31
0.0
 70
    32
  1
φ40
 71
     5
 42
-1.0
  3
STANDARD_WS
100
AcDbAlignedDimension
 13
1424.125197949915
 23
4019.814416414281
 33
0.0
 14
1464.125197949915
 24
4019.814416414281
 34
0.0
100
AcDbRotatedDimension
  0
DIMENSION
  5
AAAB
330
18
100
AcDbEntity
  8
寸法
100
AcDbDimension
  2
*D25
 10
1454.125197949915
 20
3807.47461949398
 30
0.0
 11
1513.425750918366
 21
3847.655597011733
 31
0.0
 70
   160
  1
φ20
 71
     5
 42
-1.0
  3
STANDARD_WS
100
AcDbAlignedDimension
 13
1434.125197949915
 23
3919.814416414281
 33
0.0
 14
1454.125197949915
 24
3919.814416414281
 34
0.0
100
AcDbRotatedDimension
  0
LINE
  5
ACE1
330
18
100
AcDbEntity
  8
実線
 62
     7
100
AcDbLine
 10
2444.125197949915
 20
3989.81441641428
 30
0.0
 11
444.1251979499148
 21
3989.814416414281
 31
0.0
  0
ELLIPSE
  5
AD19
330
18
100
AcDbEntity
  8
実線1
100
AcDbEllipse
 10
2378.125197949915
 20
4073.814416414281
 30
0.0
 11
0.0
 21
37.0
 31
0.0
210
0.0
220
0.0
230
1.0
 40
0.918918918918919
 41
0.0
 42
3.141592653589793
  0
ELLIPSE
  5
AD1A
330
18
100
AcDbEntity
  8
実線1
100
AcDbEllipse
 10
510.1251979499148
 20
4073.814416414281
 30
0.0
 11
0.0
 21
37.0
 31
0.0
210
0.0
220
0.0
230
-1.0
 40
0.918918918918919
 41
0.0
 42
3.141592653589793
  0
DIMENSION
  5
AEA8
330
18
100
AcDbEntity
  8
寸法
100
AcDbDimension
  2
*D27
 10
325.8495203157182
 20
4419.814416414281
 30
0.0
 11
272.0995203157175
 21
4429.814416414281
 31
0.0
 70
    32
 71
     5
 42
20.0
  3
STANDARD_WS
100
AcDbAlignedDimension
 13
1319.125197949915
 23
4439.814416414281
 33
0.0
 14
444.1251979499148
 24
4419.814416414281
 34
0.0
 50
90.0
100
AcDbRotatedDimension
  0
DIMENSION
  5
B176
330
18
100
AcDbEntity
  8
寸法
100
AcDbDimension
  2
*D28
 10
1569.125197949915
 20
4602.708209637674
 30
0.0
 11
1444.125197949915
 21
4640.208209637674
 31
0.0
 70
    32
 71
     5
 42
-1.0
  3
STANDARD_WS
100
AcDbAlignedDimension
 13
1319.125197949915
 23
4439.814416414281
 33
0.0
 14
1569.125197949915
 24
4439.814416414281
 34
0.0
100
AcDbRotatedDimension
  0
DIMENSION
  5
B183
330
18
100
AcDbEntity
  8
寸法
100
AcDbDimension
  2
*D29
 10
1594.125197949915
 20
4682.728475992222
 30
0.0
 11
1444.125197949915
 21
4720.228475992222
 31
0.0
 70
    32
 71
     5
 42
-1.0
  3
STANDARD_WS
100
AcDbAlignedDimension
 13
1294.125197949915
 23
4419.814416414281
 33
0.0
 14
1594.125197949915
 24
4419.814416414281
 34
0.0
100
AcDbRotatedDimension
  0
DIMENSION
  5
B190
330
18
100
AcDbEntity
  8
寸法
100
AcDbDimension
  2
*D30
 10
3671.554378179822
 20
3700.421115285548
 30
0.0
 11
3719.054378179822
 21
3737.921115285548
 31
0.0
 70
    32
 71
     5
 42
-1.0
  3
STANDARD_WS
100
AcDbAlignedDimension
 13
3766.554378179822
 23
4110.81441641428
 33
0.0
 14
3671.554378179822
 24
3928.81441641428
 34
0.0
100
AcDbRotatedDimension
  0
ENDSEC
  0
SECTION
  2
OBJECTS
  0
DICTIONARY
  5
C
330
0
100
AcDbDictionary
281
     1
  3
ACAD_CIP_PREVIOUS_PRODUCT_INFO
350
B4A5
  3
ACAD_COLOR
350
B484
  3
ACAD_DETAILVIEWSTYLE
350
B49D
  3
ACAD_GROUP
350
D
  3
ACAD_LAYOUT
350
B361
  3
ACAD_MATERIAL
350
B452
  3
ACAD_MLEADERSTYLE
350
B499
  3
ACAD_MLINESTYLE
350
1B
  3
ACAD_PLOTSETTINGS
350
B362
  3
ACAD_PLOTSTYLENAME
350
B35F
  3
ACAD_SCALELIST
350
B487
  3
ACAD_SECTIONVIEWSTYLE
350
B49B
  3
ACAD_TABLESTYLE
350
B485
  3
ACAD_VISUALSTYLE
350
B46B
  3
ACDB_RECOMPOSE_DATA
350
B5B7
  3
ACDBVARIABLEDICTIONARY
350
33
  3
AcDsDecomposeData
350
B572
  3
CONTENTDICTIONARY
350
23
  3
DRAWINGVARIABLESDICT
350
A2
  0
DICTIONARY
  5
B5AC
330
8
100
AcDbDictionary
280
     1
281
     1
  3
ACAD_XREC_ROUNDTRIP
360
B5AD
  0
DICTIONARY
  5
B4B9
330
2
100
AcDbDictionary
280
     1
281
     1
  3
ACAD_LAYERSTATES
360
B4BA
  0
DICTIONARY
  5
B4A6
330
E
100
AcDbDictionary
280
     1
281
     1
  3
ADSK_XREC_LAYER_RECONCILED
360
B4A7
  0
DICTIONARY
  5
B4A8
330
38
100
AcDbDictionary
280
     1
281
     1
  3
ADSK_XREC_LAYER_RECONCILED
360
B4A9
  0
DICTIONARY
  5
B4AA
330
39
100
AcDbDictionary
280
     1
281
     1
  3
ADSK_XREC_LAYER_RECONCILED
360
B4AB
  0
DICTIONARY
  5
B4AC
330
3B
100
AcDbDictionary
280
     1
281
     1
  3
ADSK_XREC_LAYER_RECONCILED
360
B4AD
  0
DICTIONARY
  5
B4AE
330
42
100
AcDbDictionary
280
     1
281
     1
  3
ADSK_XREC_LAYER_RECONCILED
360
B4AF
  0
DICTIONARY
  5
B4B0
330
5281
100
AcDbDictionary
280
     1
281
     1
  3
ADSK_XREC_LAYER_RECONCILED
360
B4B1
  0
DICTIONARY
  5
B4B2
330
69B4
100
AcDbDictionary
280
     1
281
     1
  3
ADSK_XREC_LAYER_RECONCILED
360
B4B3
  0
DICTIONARY
  5
B4B4
330
69B5
100
AcDbDictionary
280
     1
281
     1
  3
ADSK_XREC_LAYER_RECONCILED
360
B4B5
  0
XRECORD
  5
B4A5
102
{ACAD_REACTORS
330
C
102
}
330
C
100
AcDbXrecord
280
     1
300
ACD
300
2014
300
ACD_F_S
  0
DICTIONARY
  5
B484
102
{ACAD_REACTORS
330
C
102
}
330
C
100
AcDbDictionary
281
     1
  0
DICTIONARY
  5
B49D
102
{ACAD_REACTORS
330
C
102
}
330
C
100
AcDbDictionary
281
     1
  3
Metric50
350
B49E
  0
DICTIONARY
  5
D
102
{ACAD_REACTORS
330
C
102
}
330
C
100
AcDbDictionary
281
     1
  0
DICTIONARY
  5
B361
102
{ACAD_REACTORS
330
C
102
}
330
C
100
AcDbDictionary
281
     1
  3
Model
350
B363
  3
ﾚｲｱｳﾄ1
350
B364
  0
DICTIONARY
  5
B452
102
{ACAD_REACTORS
330
C
102
}
330
C
100
AcDbDictionary
281
     1
  3
ByBlock
350
B45B
  3
ByLayer
350
B453
  3
Global
350
B463
  0
DICTIONARY
  5
B499
102
{ACAD_REACTORS
330
C
102
}
330
C
100
AcDbDictionary
281
     1
  3
Standard
350
B49A
  0
DICTIONARY
  5
1B
102
{ACAD_REACTORS
330
C
102
}
330
C
100
AcDbDictionary
281
     1
  3
STANDARD
350
1C
  0
DICTIONARY
  5
B362
102
{ACAD_REACTORS
330
C
102
}
330
C
100
AcDbDictionary
281
     1
  0
ACDBDICTIONARYWDFLT
  5
B35F
102
{ACAD_REACTORS
330
C
102
}
330
C
100
AcDbDictionary
281
     1
  3
Normal
350
B360
100
AcDbDictionaryWithDefault
340
B360
  0
DICTIONARY
  5
B487
102
{ACAD_REACTORS
330
C
102
}
330
C
100
AcDbDictionary
281
     1
  3
A0
350
B488
  3
A1
350
B489
  3
A2
350
B48A
  3
A3
350
B48B
  3
A4
350
B48C
  3
A5
350
B48D
  3
A6
350
B48E
  3
A7
350
B48F
  3
A8
350
B490
  3
A9
350
B491
  3
B0
350
B492
  3
B1
350
B493
  3
B2
350
B494
  3
B3
350
B495
  3
B4
350
B496
  3
B5
350
B497
  3
B6
350
B498
  0
DICTIONARY
  5
B49B
102
{ACAD_REACTORS
330
C
102
}
330
C
100
AcDbDictionary
281
     1
  3
Metric50
350
B49C
  0
DICTIONARY
  5
B485
102
{ACAD_REACTORS
330
C
102
}
330
C
100
AcDbDictionary
281
     1
  3
Standard
350
B486
  0
DICTIONARY
  5
B46B
102
{ACAD_REACTORS
330
C
102
}
330
C
100
AcDbDictionary
281
     1
  3
2dWireframe
350
B471
  3
Basic
350
B470
  3
Brighten
350
B477
  3
ColorChange
350
B47B
  3
Conceptual
350
B474
  3
Dim
350
B476
  3
EdgeColorOff
350
B483
  3
Facepattern
350
B47A
  3
Flat
350
B46C
  3
FlatWithEdges
350
B46D
  3
Gouraud
350
B46E
  3
GouraudWithEdges
350
B46F
  3
Hidden
350
B473
  3
JitterOff
350
B481
  3
Linepattern
350
B479
  3
OverhangOff
350
B482
  3
Realistic
350
B475
  3
Shaded
350
B480
  3
Shaded with edges
350
B47F
  3
Shades of Gray
350
B47C
  3
Sketchy
350
B47D
  3
Thicken
350
B478
  3
Wireframe
350
B472
  3
X-Ray
350
B47E
  0
XRECORD
  5
B5B7
102
{ACAD_REACTORS
330
C
102
}
330
C
100
AcDbXrecord
280
     1
 90
        1
330
B486
  0
DICTIONARY
  5
33
102
{ACAD_REACTORS
330
C
102
}
330
C
100
AcDbDictionary
281
     1
  3
CANNOSCALE
350
B509
  3
CMLEADERSTYLE
350
B505
  3
CTABLESTYLE
350
B504
  3
CVIEWDETAILSTYLE
350
B506
  3
CVIEWSECTIONSTYLE
350
B507
  3
DIMADEC
350
34
  3
DIMASSOC
350
B36B
  3
LAYEREVAL
350
B50B
  3
LAYERNOTIFY
350
B50C
  3
LIGHTINGUNITS
350
B50A
  3
MSLTSCALE
350
B508
  3
XCLIPFRAME
350
B5AB
  0
DICTIONARY
  5
B572
102
{ACAD_REACTORS
330
C
102
}
330
C
100
AcDbDictionary
281
     1
  3
AcDsRecords
350
B574
  3
AcDsSchemas
350
B573
1001
ACAD
1070
     2
  0
DICTIONARY
  5
23
102
{ACAD_REACTORS
330
C
102
}
330
C
100
AcDbDictionary
281
     1
  0
DICTIONARY
  5
A2
102
{ACAD_REACTORS
330
C
102
}
330
C
100
AcDbDictionary
281
     1
1001
DRAWINGVARIABLESXDATA
1000
POLARMODE
1000
0
1000
POLARANG
1000
0.785398
  0
XRECORD
  5
B5AD
102
{ACAD_REACTORS
330
B5AC
102
}
330
B5AC
100
AcDbXrecord
280
     1
102
VTR_0.000_0.000_1.000_1.000_VISUALSTYLE
340
B471
102
VTR_0.000_0.000_1.000_1.000_GRIDDISPLAY
 70
     3
102
VTR_0.000_0.000_1.000_1.000_GRIDMAJOR
 70
     5
102
VTR_0.000_0.000_1.000_1.000_DEFAULTLIGHTING
280
     1
102
VTR_0.000_0.000_1.000_1.000_DEFAULTLIGHTINGTYPE
 70
     1
102
VTR_0.000_0.000_1.000_1.000_BRIGHTNESS
141
0.0
102
VTR_0.000_0.000_1.000_1.000_CONTRAST
142
0.0
  0
DICTIONARY
  5
B4BA
102
{ACAD_REACTORS
330
B4B9
102
}
330
B4B9
100
AcDbDictionary
281
     1
  0
XRECORD
  5
B4A7
102
{ACAD_REACTORS
330
B4A6
102
}
330
B4A6
100
AcDbXrecord
280
     1
290
     1
  0
XRECORD
  5
B4A9
102
{ACAD_REACTORS
330
B4A8
102
}
330
B4A8
100
AcDbXrecord
280
     1
290
     1
  0
XRECORD
  5
B4AB
102
{ACAD_REACTORS
330
B4AA
102
}
330
B4AA
100
AcDbXrecord
280
     1
290
     1
  0
XRECORD
  5
B4AD
102
{ACAD_REACTORS
330
B4AC
102
}
330
B4AC
100
AcDbXrecord
280
     1
290
     1
  0
XRECORD
  5
B4AF
102
{ACAD_REACTORS
330
B4AE
102
}
330
B4AE
100
AcDbXrecord
280
     1
290
     1
  0
XRECORD
  5
B4B1
102
{ACAD_REACTORS
330
B4B0
102
}
330
B4B0
100
AcDbXrecord
280
     1
290
     1
  0
XRECORD
  5
B4B3
102
{ACAD_REACTORS
330
B4B2
102
}
330
B4B2
100
AcDbXrecord
280
     1
290
     1
  0
XRECORD
  5
B4B5
102
{ACAD_REACTORS
330
B4B4
102
}
330
B4B4
100
AcDbXrecord
280
     1
290
     1
  0
ACAD_PROXY_OBJECT
  5
B49E
102
{ACAD_REACTORS
330
B49D
102
}
102
{ACAD_XDICTIONARY
360
B5A9
102
}
330
B49D
100
AcDbProxyObject
 90
      499
 91
      516
 95
  3276827
 70
     0
 93
     1650
310
9207000000180000000000000000A20403000000180000000000000000A2023300000018001000000180000000000000000A20400000000000017202028CC0000006000233000000180000084268032803A003900348031801A80180049B92801E002E00208031802B003080390010002B00348032803B80220032803A0030
310
8034803600248032001F0012801000140012801E002E00208031802B003080390010002B00348032803B802980318030803600328010002E0033001000110012803980370011001F0012801480030241
340
F
340
0
340
14
340
F
340
14
340
14
 94
        0
  0
LAYOUT
  5
B363
102
{ACAD_REACTORS
330
B361
102
}
102
{ACAD_XDICTIONARY
360
B4CB
102
}
330
B361
100
AcDbPlotSettings
  1

  2
none_device
  4
Letter_(8.50_x_11.00_Inches)
  6

 40
6.349999904632568
 41
6.349999904632568
 42
6.350006103515625
 43
6.350006103515625
 44
215.8999938964844
 45
279.3999938964844
 46
0.0
 47
0.0
 48
0.0
 49
0.0
140
0.0
141
0.0
142
1.0
143
1.0
 70
 11952
 72
     1
 73
     1
 74
     0
  7

 75
     0
 76
     0
 77
     2
 78
   300
147
1.0
148
-1120.318296625907
149
-371.4312887159695
100
AcDbLayout
  1
Model
 70
     1
 71
     0
 10
0.0
 20
0.0
 11
12.0
 21
9.0
 12
0.0
 22
0.0
 32
0.0
 14
0.0
 24
0.0
 34
0.0
 15
0.0
 25
0.0
 35
0.0
146
0.0
 13
0.0
 23
0.0
 33
0.0
 16
1.0
 26
0.0
 36
0.0
 17
0.0
 27
1.0
 37
0.0
 76
     0
330
18
331
B450
  0
LAYOUT
  5
B364
102
{ACAD_REACTORS
330
B361
102
}
330
B361
100
AcDbPlotSettings
  1

  2
Fax
  4

  6

 40
0.0
 41
0.0
 42
0.0
 43
0.0
 44
0.0
 45
0.0
 46
0.0
 47
0.0
 48
0.0
 49
0.0
140
0.0
141
0.0
142
1.0
143
1.0
 70
   688
 72
     0
 73
     0
 74
     5
  7

 75
    16
 76
     0
 77
     2
 78
   300
147
1.0
148
0.0
149
0.0
100
AcDbLayout
  1
ﾚｲｱｳﾄ1
 70
     1
 71
     1
 10
0.0
 20
0.0
 11
420.0
 21
297.0
 12
0.0
 22
0.0
 32
0.0
 14
1.000000000000000E+20
 24
1.000000000000000E+20
 34
1.000000000000000E+20
 15
-1.000000000000000E+20
 25
-1.000000000000000E+20
 35
-1.000000000000000E+20
146
0.0
 13
0.0
 23
0.0
 33
0.0
 16
1.0
 26
0.0
 36
0.0
 17
0.0
 27
1.0
 37
0.0
 76
     0
330
15
  0
MATERIAL
  5
B45B
102
{ACAD_REACTORS
330
B452
102
}
102
{ACAD_XDICTIONARY
360
B5AE
102
}
330
B452
100
AcDbMaterial
  1
ByBlock
 72
     0
 73
     2
 43
0.0208333333333333
 43
0.0
 43
0.0
 43
0.0
 43
0.0
 43
0.0208333333333333
 43
0.0
 43
0.0
 43
0.0
 43
0.0
 43
1.0
 43
0.0
 43
0.0
 43
0.0
 43
0.0
 43
1.0
 77
     0
 78
     2
 47
0.0208333333333333
 47
0.0
 47
0.0
 47
0.0
 47
0.0
 47
0.0208333333333333
 47
0.0
 47
0.0
 47
0.0
 47
0.0
 47
1.0
 47
0.0
 47
0.0
 47
0.0
 47
0.0
 47
1.0
171
     0
172
     2
 49
0.0208333333333333
 49
0.0
 49
0.0
 49
0.0
 49
0.0
 49
0.0208333333333333
 49
0.0
 49
0.0
 49
0.0
 49
0.0
 49
1.0
 49
0.0
 49
0.0
 49
0.0
 49
0.0
 49
1.0
175
     0
176
     2
142
0.0208333333333333
142
0.0
142
0.0
142
0.0
142
0.0
142
0.0208333333333333
142
0.0
142
0.0
142
0.0
142
0.0
142
1.0
142
0.0
142
0.0
142
0.0
142
0.0
142
1.0
179
     0
270
     2
144
0.0208333333333333
144
0.0
144
0.0
144
0.0
144
0.0
144
0.0208333333333333
144
0.0
144
0.0
144
0.0
144
0.0
144
1.0
144
0.0
144
0.0
144
0.0
144
0.0
144
1.0
274
     2
147
0.0208333333333333
147
0.0
147
0.0
147
0.0
147
0.0
147
0.0208333333333333
147
0.0
147
0.0
147
0.0
147
0.0
147
1.0
147
0.0
147
0.0
147
0.0
147
0.0
147
1.0
  0
MATERIAL
  5
B453
102
{ACAD_REACTORS
330
B452
102
}
102
{ACAD_XDICTIONARY
360
B5B0
102
}
330
B452
100
AcDbMaterial
  1
ByLayer
 72
     0
 73
     2
 43
0.0208333333333333
 43
0.0
 43
0.0
 43
0.0
 43
0.0
 43
0.0208333333333333
 43
0.0
 43
0.0
 43
0.0
 43
0.0
 43
1.0
 43
0.0
 43
0.0
 43
0.0
 43
0.0
 43
1.0
 77
     0
 78
     2
 47
0.0208333333333333
 47
0.0
 47
0.0
 47
0.0
 47
0.0
 47
0.0208333333333333
 47
0.0
 47
0.0
 47
0.0
 47
0.0
 47
1.0
 47
0.0
 47
0.0
 47
0.0
 47
0.0
 47
1.0
171
     0
172
     2
 49
0.0208333333333333
 49
0.0
 49
0.0
 49
0.0
 49
0.0
 49
0.0208333333333333
 49
0.0
 49
0.0
 49
0.0
 49
0.0
 49
1.0
 49
0.0
 49
0.0
 49
0.0
 49
0.0
 49
1.0
175
     0
176
     2
142
0.0208333333333333
142
0.0
142
0.0
142
0.0
142
0.0
142
0.0208333333333333
142
0.0
142
0.0
142
0.0
142
0.0
142
1.0
142
0.0
142
0.0
142
0.0
142
0.0
142
1.0
179
     0
270
     2
144
0.0208333333333333
144
0.0
144
0.0
144
0.0
144
0.0
144
0.0208333333333333
144
0.0
144
0.0
144
0.0
144
0.0
144
1.0
144
0.0
144
0.0
144
0.0
144
0.0
144
1.0
274
     2
147
0.0208333333333333
147
0.0
147
0.0
147
0.0
147
0.0
147
0.0208333333333333
147
0.0
147
0.0
147
0.0
147
0.0
147
1.0
147
0.0
147
0.0
147
0.0
147
0.0
147
1.0
  0
MATERIAL
  5
B463
102
{ACAD_REACTORS
330
B452
102
}
102
{ACAD_XDICTIONARY
360
B5B2
102
}
330
B452
100
AcDbMaterial
  1
Global
 72
     0
 73
     2
 43
0.0208333333333333
 43
0.0
 43
0.0
 43
0.0
 43
0.0
 43
0.0208333333333333
 43
0.0
 43
0.0
 43
0.0
 43
0.0
 43
1.0
 43
0.0
 43
0.0
 43
0.0
 43
0.0
 43
1.0
 77
     0
 78
     2
 47
0.0208333333333333
 47
0.0
 47
0.0
 47
0.0
 47
0.0
 47
0.0208333333333333
 47
0.0
 47
0.0
 47
0.0
 47
0.0
 47
1.0
 47
0.0
 47
0.0
 47
0.0
 47
0.0
 47
1.0
171
     0
172
     2
 49
0.0208333333333333
 49
0.0
 49
0.0
 49
0.0
 49
0.0
 49
0.0208333333333333
 49
0.0
 49
0.0
 49
0.0
 49
0.0
 49
1.0
 49
0.0
 49
0.0
 49
0.0
 49
0.0
 49
1.0
175
     0
176
     2
142
0.0208333333333333
142
0.0
142
0.0
142
0.0
142
0.0
142
0.0208333333333333
142
0.0
142
0.0
142
0.0
142
0.0
142
1.0
142
0.0
142
0.0
142
0.0
142
0.0
142
1.0
179
     0
270
     2
144
0.0208333333333333
144
0.0
144
0.0
144
0.0
144
0.0
144
0.0208333333333333
144
0.0
144
0.0
144
0.0
144
0.0
144
1.0
144
0.0
144
0.0
144
0.0
144
0.0
144
1.0
274
     2
147
0.0208333333333333
147
0.0
147
0.0
147
0.0
147
0.0
147
0.0208333333333333
147
0.0
147
0.0
147
0.0
147
0.0
147
1.0
147
0.0
147
0.0
147
0.0
147
0.0
147
1.0
  0
MLEADERSTYLE
  5
B49A
102
{ACAD_REACTORS
330
B499
102
}
330
B499
100
AcDbMLeaderStyle
170
     2
171
     1
172
     0
 90
        2
 40
0.0
 41
0.0
173
     1
 91
-1056964608
340
12
 92
       -2
290
     1
 42
2.0
291
     1
 43
0.36
  3
Standard
341
0
 44
4.0
300

342
F
174
     1
178
     6
175
     1
176
     0
 93
-1056964608
 45
4.0
292
     0
297
     0
 46
4.0
343
0
 94
-1056964608
 47
1.0
 49
1.0
140
1.0
293
     1
141
0.0
294
     1
177
     0
142
1.0
295
     0
296
     0
143
0.125
1001
ACAD_MLEADERVER
1070
     2
  0
MLINESTYLE
  5
1C
102
{ACAD_REACTORS
330
1B
102
}
330
1B
100
AcDbMlineStyle
  2
STANDARD
 70
     0
  3

 62
   256
 51
90.0
 52
90.0
 71
     2
 49
0.5
 62
   256
  6
BYLAYER
 49
-0.5
 62
   256
  6
BYLAYER
  0
ACDBPLACEHOLDER
  5
B360
102
{ACAD_REACTORS
330
B35F
102
}
330
B35F
  0
SCALE
  5
B488
102
{ACAD_REACTORS
330
B487
102
}
330
B487
100
AcDbScale
 70
     0
300
1:1
140
1.0
141
1.0
290
     1
  0
SCALE
  5
B489
102
{ACAD_REACTORS
330
B487
102
}
330
B487
100
AcDbScale
 70
     0
300
1:2
140
1.0
141
2.0
290
     0
  0
SCALE
  5
B48A
102
{ACAD_REACTORS
330
B487
102
}
330
B487
100
AcDbScale
 70
     0
300
1:4
140
1.0
141
4.0
290
     0
  0
SCALE
  5
B48B
102
{ACAD_REACTORS
330
B487
102
}
330
B487
100
AcDbScale
 70
     0
300
1:5
140
1.0
141
5.0
290
     0
  0
SCALE
  5
B48C
102
{ACAD_REACTORS
330
B487
102
}
330
B487
100
AcDbScale
 70
     0
300
1:8
140
1.0
141
8.0
290
     0
  0
SCALE
  5
B48D
102
{ACAD_REACTORS
330
B487
102
}
330
B487
100
AcDbScale
 70
     0
300
1:10
140
1.0
141
10.0
290
     0
  0
SCALE
  5
B48E
102
{ACAD_REACTORS
330
B487
102
}
330
B487
100
AcDbScale
 70
     0
300
1:16
140
1.0
141
16.0
290
     0
  0
SCALE
  5
B48F
102
{ACAD_REACTORS
330
B487
102
}
330
B487
100
AcDbScale
 70
     0
300
1:20
140
1.0
141
20.0
290
     0
  0
SCALE
  5
B490
102
{ACAD_REACTORS
330
B487
102
}
330
B487
100
AcDbScale
 70
     0
300
1:30
140
1.0
141
30.0
290
     0
  0
SCALE
  5
B491
102
{ACAD_REACTORS
330
B487
102
}
330
B487
100
AcDbScale
 70
     0
300
1:40
140
1.0
141
40.0
290
     0
  0
SCALE
  5
B492
102
{ACAD_REACTORS
330
B487
102
}
330
B487
100
AcDbScale
 70
     0
300
1:50
140
1.0
141
50.0
290
     0
  0
SCALE
  5
B493
102
{ACAD_REACTORS
330
B487
102
}
330
B487
100
AcDbScale
 70
     0
300
1:100
140
1.0
141
100.0
290
     0
  0
SCALE
  5
B494
102
{ACAD_REACTORS
330
B487
102
}
330
B487
100
AcDbScale
 70
     0
300
2:1
140
2.0
141
1.0
290
     0
  0
SCALE
  5
B495
102
{ACAD_REACTORS
330
B487
102
}
330
B487
100
AcDbScale
 70
     0
300
4:1
140
4.0
141
1.0
290
     0
  0
SCALE
  5
B496
102
{ACAD_REACTORS
330
B487
102
}
330
B487
100
AcDbScale
 70
     0
300
8:1
140
8.0
141
1.0
290
     0
  0
SCALE
  5
B497
102
{ACAD_REACTORS
330
B487
102
}
330
B487
100
AcDbScale
 70
     0
300
10:1
140
10.0
141
1.0
290
     0
  0
SCALE
  5
B498
102
{ACAD_REACTORS
330
B487
102
}
330
B487
100
AcDbScale
 70
     0
300
100:1
140
100.0
141
1.0
290
     0
  0
ACAD_PROXY_OBJECT
  5
B49C
102
{ACAD_REACTORS
330
B49B
102
}
102
{ACAD_XDICTIONARY
360
B5A7
102
}
330
B49B
100
AcDbProxyObject
 90
      499
 91
      515
 95
  3276827
 70
     0
 93
     3262
310
92CD000000180000000000000000A2040000006000000000000000028800000000000001220233000000180009940000006000000000000000028800000000000000A20400000060000000000000000288100000000000005C8080C0000006000400000064003100000000000000881000000000000008808340C16A22A7D9
310
0FC9F8CAE65A70A583A07E1FE81C635378FA1F8CAE65A70A583A17E7944A7F127A97E9FA109A00CA00E800E400D200C6006A006000882480160010002780160010002880160010002980160010002C00160010002D002B24A007800B8008200C600AC00C200E4004000AC00D200CA00EE00A600CA00C600E800D200DE00DC0
310
0A600E800C200E400E8009200C8007C004A005A004A007800B8008200C600AC00C200E4004000AC00D200CA00EE00A600CA00C600E800D200DE00DC008A00DC00C8009200C8007C004A00400050004A007800B8008200C600AC00C200E4004000AC00D200CA00EE00A600C600C200D800CA004000B800CC00400044004A00E
310
600DC0044007C004A005200832080270029802480198018804C03C
340
F
340
0
340
0
340
14
340
14
340
F
 94
        0
  0
TABLESTYLE
  5
B486
102
{ACAD_REACTORS
330
B485
102
}
102
{ACAD_XDICTIONARY
360
B5B4
102
}
330
B485
100
AcDbTableStyle
  3
Standard
 70
     0
 71
     0
 40
1.5
 41
1.5
280
     0
281
     0
  7
STANDARD
140
4.5
170
     2
 62
     0
 63
   257
283
     0
274
    -2
284
     1
 64
     0
275
    -2
285
     1
 65
     0
276
    -2
286
     1
 66
     0
277
    -2
287
     1
 67
     0
278
    -2
288
     1
 68
     0
279
    -2
289
     1
 69
     0
  7
STANDARD
140
6.0
170
     5
 62
     0
 63
   257
283
     0
274
    -2
284
     1
 64
     0
275
    -2
285
     1
 65
     0
276
    -2
286
     1
 66
     0
277
    -2
287
     1
 67
     0
278
    -2
288
     1
 68
     0
279
    -2
289
     1
 69
     0
  7
STANDARD
140
4.5
170
     5
 62
     0
 63
   257
283
     0
274
    -2
284
     1
 64
     0
275
    -2
285
     1
 65
     0
276
    -2
286
     1
 66
     0
277
    -2
287
     1
 67
     0
278
    -2
288
     1
 68
     0
279
    -2
289
     1
 69
     0
  0
VISUALSTYLE
  5
B471
102
{ACAD_REACTORS
330
B46B
102
}
102
{ACAD_XDICTIONARY
360
B5B8
102
}
330
B46B
100
AcDbVisualStyle
  2
2dWireframe
 70
     4
 71
     0
 72
     2
 73
     0
 90
        0
 40
-0.6
 41
-30.0
 62
     5
 63
     7
421
 16777215
 74
     1
 91
        4
 64
     7
 65
   257
 75
     1
175
     1
 42
1.0
 92
        0
 66
   257
 43
1.0
 76
     1
 77
     6
 78
     2
 67
     7
 79
     5
170
     0
171
     0
290
     0
174
     0
 93
        1
 44
0.0
173
     0
291
     0
 45
0.0
1001
ACAD
1000
AcDbSavedByObjectVersion
1070
     0
  0
VISUALSTYLE
  5
B470
102
{ACAD_REACTORS
330
B46B
102
}
102
{ACAD_XDICTIONARY
360
B5BA
102
}
330
B46B
100
AcDbVisualStyle
  2
Basic
 70
     7
 71
     1
 72
     0
 73
     1
 90
        0
 40
-0.6
 41
-30.0
 62
     5
 63
     7
421
 16777215
 74
     0
 91
        4
 64
     7
 65
   257
 75
     1
175
     1
 42
1.0
 92
        8
 66
     7
 43
1.0
 76
     1
 77
     6
 78
     2
 67
     7
 79
     5
170
     0
171
     0
290
     0
174
     0
 93
        1
 44
0.0
173
     0
291
     1
 45
0.0
1001
ACAD
1000
AcDbSavedByObjectVersion
1070
     0
  0
VISUALSTYLE
  5
B477
102
{ACAD_REACTORS
330
B46B
102
}
102
{ACAD_XDICTIONARY
360
B5BC
102
}
330
B46B
100
AcDbVisualStyle
  2
Brighten
 70
    12
 71
     2
 72
     2
 73
     0
 90
        0
 40
-0.6
 41
-30.0
 62
     5
 63
     7
421
 16777215
 74
     1
 91
        4
 64
     7
 65
   257
 75
     1
175
     1
 42
1.0
 92
        8
 66
     7
 43
1.0
 76
     1
 77
     6
 78
     2
 67
     7
 79
     5
170
     0
171
     0
290
     0
174
     0
 93
        1
 44
50.0
173
     0
291
     1
 45
0.0
1001
ACAD
1000
AcDbSavedByObjectVersion
1070
     0
  0
VISUALSTYLE
  5
B47B
102
{ACAD_REACTORS
330
B46B
102
}
102
{ACAD_XDICTIONARY
360
B5BE
102
}
330
B46B
100
AcDbVisualStyle
  2
ColorChange
 70
    16
 71
     2
 72
     2
 73
     3
 90
        0
 40
-0.6
 41
-30.0
 62
     5
 63
     8
421
  8421504
 74
     1
 91
        4
 64
     7
 65
   257
 75
     1
175
     1
 42
1.0
 92
        8
 66
     8
424
  8421504
 43
1.0
 76
     1
 77
     6
 78
     2
 67
     7
 79
     5
170
     0
171
     0
290
     0
174
     0
 93
        1
 44
0.0
173
     0
291
     1
 45
0.0
1001
ACAD
1000
AcDbSavedByObjectVersion
1070
     0
  0
VISUALSTYLE
  5
B474
102
{ACAD_REACTORS
330
B46B
102
}
102
{ACAD_XDICTIONARY
360
B5C0
102
}
330
B46B
100
AcDbVisualStyle
  2
Conceptual
 70
     9
 71
     3
 72
     2
 73
     0
 90
        0
 40
-0.6
 41
-30.0
 62
     5
 63
     7
421
 16777215
 74
     2
 91
        2
 64
     7
 65
   257
 75
     1
175
     1
 42
179.0
 92
        8
 66
     7
 43
1.0
 76
     1
 77
     6
 78
     2
 67
     7
 79
     3
170
     0
171
     0
290
     0
174
     0
 93
        1
 44
0.0
173
     0
291
     0
 45
0.0
1001
ACAD
1000
AcDbSavedByObjectVersion
1070
     0
  0
VISUALSTYLE
  5
B476
102
{ACAD_REACTORS
330
B46B
102
}
102
{ACAD_XDICTIONARY
360
B5C2
102
}
330
B46B
100
AcDbVisualStyle
  2
Dim
 70
    11
 71
     2
 72
     2
 73
     0
 90
        0
 40
-0.6
 41
-30.0
 62
     5
 63
     7
421
 16777215
 74
     1
 91
        4
 64
     7
 65
   257
 75
     1
175
     1
 42
1.0
 92
        8
 66
     7
 43
1.0
 76
     1
 77
     6
 78
     2
 67
     7
 79
     5
170
     0
171
     0
290
     0
174
     0
 93
        1
 44
-50.0
173
     0
291
     1
 45
0.0
1001
ACAD
1000
AcDbSavedByObjectVersion
1070
     0
  0
VISUALSTYLE
  5
B483
102
{ACAD_REACTORS
330
B46B
102
}
102
{ACAD_XDICTIONARY
360
B5C4
102
}
330
B46B
100
AcDbVisualStyle
  2
EdgeColorOff
 70
    22
 71
     2
 72
     2
 73
     0
 90
        0
 40
-0.6
 41
-30.0
 62
     5
 63
     7
421
 16777215
 74
     1
 91
        4
 64
     7
 65
   257
 75
     1
175
     1
 42
1.0
 92
        8
 66
     7
 43
1.0
 76
     1
 77
     6
 78
     2
 67
     7
 79
     5
170
     0
171
     0
290
     0
174
     0
 93
        1
 44
0.0
173
     0
291
     1
 45
0.0
1001
ACAD
1000
AcDbSavedByObjectVersion
1070
     0
  0
VISUALSTYLE
  5
B47A
102
{ACAD_REACTORS
330
B46B
102
}
102
{ACAD_XDICTIONARY
360
B5C6
102
}
330
B46B
100
AcDbVisualStyle
  2
Facepattern
 70
    15
 71
     2
 72
     2
 73
     0
 90
        0
 40
-0.6
 41
-30.0
 62
     5
 63
     7
421
 16777215
 74
     1
 91
        4
 64
     7
 65
   257
 75
     1
175
     1
 42
1.0
 92
        8
 66
     7
 43
1.0
 76
     1
 77
     6
 78
     2
 67
     7
 79
     5
170
     0
171
     0
290
     0
174
     0
 93
        1
 44
0.0
173
     0
291
     1
 45
0.0
1001
ACAD
1000
AcDbSavedByObjectVersion
1070
     0
  0
VISUALSTYLE
  5
B46C
102
{ACAD_REACTORS
330
B46B
102
}
102
{ACAD_XDICTIONARY
360
B5C8
102
}
330
B46B
100
AcDbVisualStyle
  2
Flat
 70
     0
 71
     2
 72
     1
 73
     1
 90
        2
 40
-0.6
 41
30.0
 62
     5
 63
     7
421
 16777215
 74
     0
 91
        0
 64
     7
 65
   257
 75
     1
175
     1
 42
1.0
 92
        8
 66
     7
 43
1.0
 76
     1
 77
     6
 78
     2
 67
     7
 79
     5
170
     0
171
     0
290
     0
174
     0
 93
       13
 44
0.0
173
     0
291
     1
 45
0.0
1001
ACAD
1000
AcDbSavedByObjectVersion
1070
     0
  0
VISUALSTYLE
  5
B46D
102
{ACAD_REACTORS
330
B46B
102
}
102
{ACAD_XDICTIONARY
360
B5CA
102
}
330
B46B
100
AcDbVisualStyle
  2
FlatWithEdges
 70
     1
 71
     2
 72
     1
 73
     1
 90
        2
 40
-0.6
 41
30.0
 62
     5
 63
     7
421
 16777215
 74
     1
 91
        0
 64
     7
 65
   257
 75
     1
175
     1
 42
1.0
 92
        0
 66
   257
 43
1.0
 76
     1
 77
     6
 78
     2
 67
     7
 79
     5
170
     0
171
     0
290
     0
174
     0
 93
       13
 44
0.0
173
     0
291
     1
 45
0.0
1001
ACAD
1000
AcDbSavedByObjectVersion
1070
     0
  0
VISUALSTYLE
  5
B46E
102
{ACAD_REACTORS
330
B46B
102
}
102
{ACAD_XDICTIONARY
360
B5CC
102
}
330
B46B
100
AcDbVisualStyle
  2
Gouraud
 70
     2
 71
     2
 72
     2
 73
     1
 90
        2
 40
-0.6
 41
30.0
 62
     5
 63
     7
421
 16777215
 74
     0
 91
        0
 64
     7
 65
   257
 75
     1
175
     1
 42
1.0
 92
        0
 66
     7
 43
1.0
 76
     1
 77
     6
 78
     2
 67
     7
 79
     5
170
     0
171
     0
290
     0
174
     0
 93
       13
 44
0.0
173
     0
291
     1
 45
0.0
1001
ACAD
1000
AcDbSavedByObjectVersion
1070
     0
  0
VISUALSTYLE
  5
B46F
102
{ACAD_REACTORS
330
B46B
102
}
102
{ACAD_XDICTIONARY
360
B5CE
102
}
330
B46B
100
AcDbVisualStyle
  2
GouraudWithEdges
 70
     3
 71
     2
 72
     2
 73
     1
 90
        2
 40
-0.6
 41
30.0
 62
     5
 63
     7
421
 16777215
 74
     1
 91
        0
 64
     7
 65
   257
 75
     1
175
     1
 42
1.0
 92
        0
 66
   257
 43
1.0
 76
     1
 77
     6
 78
     2
 67
     7
 79
     5
170
     0
171
     0
290
     0
174
     0
 93
       13
 44
0.0
173
     0
291
     1
 45
0.0
1001
ACAD
1000
AcDbSavedByObjectVersion
1070
     0
  0
VISUALSTYLE
  5
B473
102
{ACAD_REACTORS
330
B46B
102
}
102
{ACAD_XDICTIONARY
360
B5D0
102
}
330
B46B
100
AcDbVisualStyle
  2
Hidden
 70
     6
 71
     1
 72
     2
 73
     2
 90
        0
 40
-0.6
 41
-30.0
 62
     5
 63
     7
421
 16777215
 74
     2
 91
        2
 64
     7
 65
   257
 75
     2
175
     1
 42
40.0
 92
        0
 66
   257
 43
1.0
 76
     1
 77
     6
 78
     2
 67
     7
 79
     3
170
     0
171
     0
290
     0
174
     0
 93
        1
 44
0.0
173
     0
291
     0
 45
0.0
1001
ACAD
1000
AcDbSavedByObjectVersion
1070
     0
  0
VISUALSTYLE
  5
B481
102
{ACAD_REACTORS
330
B46B
102
}
102
{ACAD_XDICTIONARY
360
B5D2
102
}
330
B46B
100
AcDbVisualStyle
  2
JitterOff
 70
    20
 71
     2
 72
     2
 73
     0
 90
        0
 40
-0.6
 41
-30.0
 62
     5
 63
     7
421
 16777215
 74
     1
 91
        4
 64
     7
 65
   257
 75
     1
175
     1
 42
1.0
 92
       10
 66
     7
 43
1.0
 76
     1
 77
     6
 78
     2
 67
     7
 79
     5
170
     0
171
     0
290
     0
174
     0
 93
        1
 44
0.0
173
     0
291
     1
 45
0.0
1001
ACAD
1000
AcDbSavedByObjectVersion
1070
     0
  0
VISUALSTYLE
  5
B479
102
{ACAD_REACTORS
330
B46B
102
}
102
{ACAD_XDICTIONARY
360
B5D4
102
}
330
B46B
100
AcDbVisualStyle
  2
Linepattern
 70
    14
 71
     2
 72
     2
 73
     0
 90
        0
 40
-0.6
 41
-30.0
 62
     5
 63
     7
421
 16777215
 74
     1
 91
        4
 64
     7
 65
   257
 75
     7
175
     7
 42
1.0
 92
        8
 66
     7
 43
1.0
 76
     1
 77
     6
 78
     2
 67
     7
 79
     5
170
     0
171
     0
290
     0
174
     0
 93
        1
 44
0.0
173
     0
291
     1
 45
0.0
1001
ACAD
1000
AcDbSavedByObjectVersion
1070
     0
  0
VISUALSTYLE
  5
B482
102
{ACAD_REACTORS
330
B46B
102
}
102
{ACAD_XDICTIONARY
360
B5D6
102
}
330
B46B
100
AcDbVisualStyle
  2
OverhangOff
 70
    21
 71
     2
 72
     2
 73
     0
 90
        0
 40
-0.6
 41
-30.0
 62
     5
 63
     7
421
 16777215
 74
     1
 91
        4
 64
     7
 65
   257
 75
     1
175
     1
 42
1.0
 92
        9
 66
     7
 43
1.0
 76
     1
 77
     6
 78
     2
 67
     7
 79
     5
170
     0
171
     0
290
     0
174
     0
 93
        1
 44
0.0
173
     0
291
     1
 45
0.0
1001
ACAD
1000
AcDbSavedByObjectVersion
1070
     0
  0
VISUALSTYLE
  5
B475
102
{ACAD_REACTORS
330
B46B
102
}
102
{ACAD_XDICTIONARY
360
B5D8
102
}
330
B46B
100
AcDbVisualStyle
  2
Realistic
 70
     8
 71
     2
 72
     2
 73
     0
 90
        2
 40
-0.6
 41
30.0
 62
     5
 63
     7
421
 16777215
 74
     0
 91
        0
 64
     7
 65
   257
 75
     1
175
     1
 42
1.0
 92
        8
 66
   257
 43
1.0
 76
     1
 77
     6
 78
     2
 67
     7
 79
     3
170
     0
171
     0
290
     0
174
     0
 93
       13
 44
0.0
173
     0
291
     0
 45
0.0
1001
ACAD
1000
AcDbSavedByObjectVersion
1070
     0
  0
VISUALSTYLE
  5
B480
102
{ACAD_REACTORS
330
B46B
102
}
102
{ACAD_XDICTIONARY
360
B5DA
102
}
330
B46B
100
AcDbVisualStyle
  2
Shaded
 70
    27
 71
     2
 72
     2
 73
     1
 90
        2
 40
-0.6
 41
30.0
 62
     5
 63
     7
421
 16777215
 74
     0
 91
        4
 64
     7
 65
   257
 75
     1
175
     1
 42
1.0
 92
        8
 66
   257
 43
1.0
 76
     1
 77
     6
 78
     2
 67
     8
425
  7895160
 79
     3
170
     0
171
     0
290
     0
174
     0
 93
        5
 44
0.0
173
     0
291
     0
 45
0.0
1001
ACAD
1000
AcDbSavedByObjectVersion
1070
     0
  0
VISUALSTYLE
  5
B47F
102
{ACAD_REACTORS
330
B46B
102
}
102
{ACAD_XDICTIONARY
360
B5DC
102
}
330
B46B
100
AcDbVisualStyle
  2
Shaded with edges
 70
    26
 71
     2
 72
     2
 73
     1
 90
        2
 40
-0.6
 41
30.0
 62
     5
 63
     7
421
 16777215
 74
     1
 91
       10
 64
     7
 65
   257
 75
     2
175
     1
 42
1.0
 92
        8
 66
   257
 43
1.0
 76
     1
 77
     6
 78
     2
 67
     7
 79
     3
170
     0
171
     0
290
     0
174
     0
 93
        5
 44
0.0
173
     0
291
     0
 45
0.0
1001
ACAD
1000
AcDbSavedByObjectVersion
1070
     0
  0
VISUALSTYLE
  5
B47C
102
{ACAD_REACTORS
330
B46B
102
}
102
{ACAD_XDICTIONARY
360
B5DE
102
}
330
B46B
100
AcDbVisualStyle
  2
Shades of Gray
 70
    23
 71
     2
 72
     2
 73
     3
 90
        0
 40
-0.6
 41
-30.0
 62
     5
 63
     7
421
 16777215
 74
     2
 91
        2
 64
     7
 65
     7
 75
     1
175
     1
 42
40.0
 92
        8
 66
     7
 43
1.0
 76
     1
 77
     6
 78
     2
 67
     7
 79
     3
170
     0
171
     0
290
     0
174
     0
 93
        1
 44
0.0
173
     0
291
     0
 45
0.0
1001
ACAD
1000
AcDbSavedByObjectVersion
1070
     0
  0
VISUALSTYLE
  5
B47D
102
{ACAD_REACTORS
330
B46B
102
}
102
{ACAD_XDICTIONARY
360
B5E0
102
}
330
B46B
100
AcDbVisualStyle
  2
Sketchy
 70
    24
 71
     1
 72
     2
 73
     2
 90
        0
 40
-0.6
 41
-30.0
 62
     5
 63
     7
421
 16777215
 74
     2
 91
        2
 64
     7
 65
     7
 75
     1
175
     1
 42
40.0
 92
       11
 66
     7
 43
1.0
 76
     1
 77
     6
 78
     2
 67
     7
 79
     6
170
     0
171
     0
290
     0
174
     0
 93
        1
 44
0.0
173
     0
291
     0
 45
0.0
1001
ACAD
1000
AcDbSavedByObjectVersion
1070
     0
  0
VISUALSTYLE
  5
B478
102
{ACAD_REACTORS
330
B46B
102
}
102
{ACAD_XDICTIONARY
360
B5E2
102
}
330
B46B
100
AcDbVisualStyle
  2
Thicken
 70
    13
 71
     2
 72
     2
 73
     0
 90
        0
 40
-0.6
 41
-30.0
 62
     5
 63
     7
421
 16777215
 74
     1
 91
        4
 64
     7
 65
   257
 75
     1
175
     1
 42
1.0
 92
       12
 66
     7
 43
1.0
 76
     1
 77
     6
 78
     2
 67
     7
 79
     5
170
     0
171
     0
290
     0
174
     0
 93
        1
 44
0.0
173
     0
291
     1
 45
0.0
1001
ACAD
1000
AcDbSavedByObjectVersion
1070
     0
  0
VISUALSTYLE
  5
B472
102
{ACAD_REACTORS
330
B46B
102
}
102
{ACAD_XDICTIONARY
360
B5E4
102
}
330
B46B
100
AcDbVisualStyle
  2
Wireframe
 70
     5
 71
     0
 72
     2
 73
     0
 90
        0
 40
-0.6
 41
-30.0
 62
     5
 63
     7
421
 16777215
 74
     1
 91
        4
 64
     7
 65
   257
 75
     1
175
     1
 42
1.0
 92
        0
 66
   257
 43
1.0
 76
     1
 77
     6
 78
     2
 67
     7
 79
     3
170
     0
171
     0
290
     0
174
     0
 93
        1
 44
0.0
173
     0
291
     0
 45
0.0
1001
ACAD
1000
AcDbSavedByObjectVersion
1070
     0
  0
VISUALSTYLE
  5
B47E
102
{ACAD_REACTORS
330
B46B
102
}
102
{ACAD_XDICTIONARY
360
B5E6
102
}
330
B46B
100
AcDbVisualStyle
  2
X-Ray
 70
    25
 71
     2
 72
     2
 73
     1
 90
        1
 40
0.5
 41
-30.0
 62
     5
 63
     7
421
 16777215
 74
     1
 91
        0
 64
     7
 65
   257
 75
     1
175
     1
 42
1.0
 92
        8
 66
     7
 43
1.0
 76
     1
 77
     6
 78
     2
 67
     7
 79
     3
170
     0
171
     0
290
     0
174
     0
 93
       13
 44
0.0
173
     0
291
     0
 45
0.0
1001
ACAD
1000
AcDbSavedByObjectVersion
1070
     0
  0
DICTIONARYVAR
  5
B509
102
{ACAD_REACTORS
330
33
102
}
330
33
100
DictionaryVariables
280
     0
  1
1:1
  0
DICTIONARYVAR
  5
B505
102
{ACAD_REACTORS
330
33
102
}
330
33
100
DictionaryVariables
280
     0
  1
Standard
  0
DICTIONARYVAR
  5
B504
102
{ACAD_REACTORS
330
33
102
}
330
33
100
DictionaryVariables
280
     0
  1
Standard
  0
DICTIONARYVAR
  5
B506
102
{ACAD_REACTORS
330
33
102
}
330
33
100
DictionaryVariables
280
     0
  1
Metric50
  0
DICTIONARYVAR
  5
B507
102
{ACAD_REACTORS
330
33
102
}
330
33
100
DictionaryVariables
280
     0
  1
Metric50
  0
DICTIONARYVAR
  5
34
102
{ACAD_REACTORS
330
33
102
}
330
33
100
DictionaryVariables
280
     0
  1
0
  0
DICTIONARYVAR
  5
B36B
102
{ACAD_REACTORS
330
33
102
}
330
33
100
DictionaryVariables
280
     0
  1
1
  0
DICTIONARYVAR
  5
B50B
102
{ACAD_REACTORS
330
33
102
}
330
33
100
DictionaryVariables
280
     0
  1
1
  0
DICTIONARYVAR
  5
B50C
102
{ACAD_REACTORS
330
33
102
}
330
33
100
DictionaryVariables
280
     0
  1
15
  0
DICTIONARYVAR
  5
B50A
102
{ACAD_REACTORS
330
33
102
}
330
33
100
DictionaryVariables
280
     0
  1
0
  0
DICTIONARYVAR
  5
B508
102
{ACAD_REACTORS
330
33
102
}
330
33
100
DictionaryVariables
280
     0
  1
0
  0
DICTIONARYVAR
  5
B5AB
102
{ACAD_REACTORS
330
33
102
}
330
33
100
DictionaryVariables
280
     0
  1
2
  0
DICTIONARY
  5
B574
102
{ACAD_REACTORS
330
B572
102
}
330
B572
100
AcDbDictionary
281
     1
  0
DICTIONARY
  5
B573
102
{ACAD_REACTORS
330
B572
102
}
330
B572
100
AcDbDictionary
281
     1
  3
2129782120
350
B56D
  3
2129782128
350
B56E
  3
2129782136
350
B56F
  3
2129782144
350
B570
  3
2129782152
350
B571
  0
DICTIONARY
  5
B5A9
330
B49E
100
AcDbDictionary
280
     1
281
     1
  3
ACAD_XREC_ROUNDTRIP
360
B5AA
  0
DICTIONARY
  5
B4CB
330
B363
100
AcDbDictionary
280
     1
281
     1
  3
ADSK_XREC_LAYOUTTHUMBNAIL
360
B4CC
  0
DICTIONARY
  5
B5AE
330
B45B
100
AcDbDictionary
280
     1
281
     1
  3
ACAD_XREC_ROUNDTRIP
360
B5AF
  0
DICTIONARY
  5
B5B0
330
B453
100
AcDbDictionary
280
     1
281
     1
  3
ACAD_XREC_ROUNDTRIP
360
B5B1
  0
DICTIONARY
  5
B5B2
330
B463
100
AcDbDictionary
280
     1
281
     1
  3
ACAD_XREC_ROUNDTRIP
360
B5B3
  0
DICTIONARY
  5
B5A7
330
B49C
100
AcDbDictionary
280
     1
281
     1
  3
ACAD_XREC_ROUNDTRIP
360
B5A8
  0
DICTIONARY
  5
B5B4
330
B486
100
AcDbDictionary
280
     1
281
     1
  3
ACAD_ROUNDTRIP_2008_TABLESTYLE_CELLSTYLEMAP
360
B5B6
  3
ACAD_XREC_ROUNDTRIP
360
B5B5
  0
DICTIONARY
  5
B5B8
330
B471
100
AcDbDictionary
280
     1
281
     1
  3
ACAD_XREC_ROUNDTRIP
360
B5B9
  0
DICTIONARY
  5
B5BA
330
B470
100
AcDbDictionary
280
     1
281
     1
  3
ACAD_XREC_ROUNDTRIP
360
B5BB
  0
DICTIONARY
  5
B5BC
330
B477
100
AcDbDictionary
280
     1
281
     1
  3
ACAD_XREC_ROUNDTRIP
360
B5BD
  0
DICTIONARY
  5
B5BE
330
B47B
100
AcDbDictionary
280
     1
281
     1
  3
ACAD_XREC_ROUNDTRIP
360
B5BF
  0
DICTIONARY
  5
B5C0
330
B474
100
AcDbDictionary
280
     1
281
     1
  3
ACAD_XREC_ROUNDTRIP
360
B5C1
  0
DICTIONARY
  5
B5C2
330
B476
100
AcDbDictionary
280
     1
281
     1
  3
ACAD_XREC_ROUNDTRIP
360
B5C3
  0
DICTIONARY
  5
B5C4
330
B483
100
AcDbDictionary
280
     1
281
     1
  3
ACAD_XREC_ROUNDTRIP
360
B5C5
  0
DICTIONARY
  5
B5C6
330
B47A
100
AcDbDictionary
280
     1
281
     1
  3
ACAD_XREC_ROUNDTRIP
360
B5C7
  0
DICTIONARY
  5
B5C8
330
B46C
100
AcDbDictionary
280
     1
281
     1
  3
ACAD_XREC_ROUNDTRIP
360
B5C9
  0
DICTIONARY
  5
B5CA
330
B46D
100
AcDbDictionary
280
     1
281
     1
  3
ACAD_XREC_ROUNDTRIP
360
B5CB
  0
DICTIONARY
  5
B5CC
330
B46E
100
AcDbDictionary
280
     1
281
     1
  3
ACAD_XREC_ROUNDTRIP
360
B5CD
  0
DICTIONARY
  5
B5CE
330
B46F
100
AcDbDictionary
280
     1
281
     1
  3
ACAD_XREC_ROUNDTRIP
360
B5CF
  0
DICTIONARY
  5
B5D0
330
B473
100
AcDbDictionary
280
     1
281
     1
  3
ACAD_XREC_ROUNDTRIP
360
B5D1
  0
DICTIONARY
  5
B5D2
330
B481
100
AcDbDictionary
280
     1
281
     1
  3
ACAD_XREC_ROUNDTRIP
360
B5D3
  0
DICTIONARY
  5
B5D4
330
B479
100
AcDbDictionary
280
     1
281
     1
  3
ACAD_XREC_ROUNDTRIP
360
B5D5
  0
DICTIONARY
  5
B5D6
330
B482
100
AcDbDictionary
280
     1
281
     1
  3
ACAD_XREC_ROUNDTRIP
360
B5D7
  0
DICTIONARY
  5
B5D8
330
B475
100
AcDbDictionary
280
     1
281
     1
  3
ACAD_XREC_ROUNDTRIP
360
B5D9
  0
DICTIONARY
  5
B5DA
330
B480
100
AcDbDictionary
280
     1
281
     1
  3
ACAD_XREC_ROUNDTRIP
360
B5DB
  0
DICTIONARY
  5
B5DC
330
B47F
100
AcDbDictionary
280
     1
281
     1
  3
ACAD_XREC_ROUNDTRIP
360
B5DD
  0
DICTIONARY
  5
B5DE
330
B47C
100
AcDbDictionary
280
     1
281
     1
  3
ACAD_XREC_ROUNDTRIP
360
B5DF
  0
DICTIONARY
  5
B5E0
330
B47D
100
AcDbDictionary
280
     1
281
     1
  3
ACAD_XREC_ROUNDTRIP
360
B5E1
  0
DICTIONARY
  5
B5E2
330
B478
100
AcDbDictionary
280
     1
281
     1
  3
ACAD_XREC_ROUNDTRIP
360
B5E3
  0
DICTIONARY
  5
B5E4
330
B472
100
AcDbDictionary
280
     1
281
     1
  3
ACAD_XREC_ROUNDTRIP
360
B5E5
  0
DICTIONARY
  5
B5E6
330
B47E
100
AcDbDictionary
280
     1
281
     1
  3
ACAD_XREC_ROUNDTRIP
360
B5E7
  0
XRECORD
  5
B56D
102
{ACAD_REACTORS
330
B573
102
}
330
B573
100
AcDbXrecord
280
     1
  1
AcDb_Thumbnail_Schema
102
{ATTRRECORD
341
B56E
  2
AcDbDs::TreatedAsObjectData
280
     1
291
     1
102
ATTRRECORD}
102
{ATTRRECORD
341
B56F
  2
AcDbDs::Legacy
280
     1
291
     1
102
ATTRRECORD}
  2
AcDbDs::ID
280
    10
 91
        8
102
{ATTRRECORD
341
B570
  2
AcDs:Indexable
280
     1
291
     1
102
ATTRRECORD}
102
{ATTRRECORD
341
B571
  2
AcDbDs::HandleAttribute
280
     7
282
     1
102
ATTRRECORD}
  2
Thumbnail_Data
280
    15
 91
        0
  0
XRECORD
  5
B56E
102
{ACAD_REACTORS
330
B573
102
}
330
B573
100
AcDbXrecord
280
     1
  1
AcDbDs::TreatedAsObjectDataSchema
  2
AcDbDs::TreatedAsObjectData
280
     1
 91
        0
  0
XRECORD
  5
B56F
102
{ACAD_REACTORS
330
B573
102
}
330
B573
100
AcDbXrecord
280
     1
  1
AcDbDs::LegacySchema
  2
AcDbDs::Legacy
280
     1
 91
        0
  0
XRECORD
  5
B570
102
{ACAD_REACTORS
330
B573
102
}
330
B573
100
AcDbXrecord
280
     1
  1
AcDbDs::IndexedPropertySchema
  2
AcDs:Indexable
280
     1
 91
        0
  0
XRECORD
  5
B571
102
{ACAD_REACTORS
330
B573
102
}
330
B573
100
AcDbXrecord
280
     1
  1
AcDbDs::HandleAttributeSchema
  2
AcDbDs::HandleAttribute
280
     7
 91
        1
284
     1
  0
XRECORD
  5
B5AA
102
{ACAD_REACTORS
330
B5A9
102
}
330
B5A9
100
AcDbXrecord
280
     1
102
DISPLAYNAME
  1
Metric50
102
FLAGS
 90
        0
  0
XRECORD
  5
B4CC
102
{ACAD_REACTORS
330
B4CB
102
}
330
B4CB
100
AcDbXrecord
280
     1
310
2800000000010000A4000000010008000000000000A4000001000000010000000001000000000000292929FF000000FFC8C8C8FF000000FF000000FF000000FF000000FF000000FF000000FF000000FF000000FF330000FF660000FF990000FFCC0000FFFF0000FF003300FF333300FF663300FF993300FFCC3300FFFF3300
310
FF006600FF336600FF666600FF996600FFCC6600FFFF6600FF009900FF339900FF669900FF999900FFCC9900FFFF9900FF00CC00FF33CC00FF66CC00FF99CC00FFCCCC00FFFFCC00FF00FF00FF33FF00FF66FF00FF99FF00FFCCFF00FFFFFF00FF000033FF330033FF660033FF990033FFCC0033FFFF0033FF003333FF3333
310
33FF663333FF993333FFCC3333FFFF3333FF006633FF336633FF666633FF996633FFCC6633FFFF6633FF009933FF339933FF669933FF999933FFCC9933FFFF9933FF00CC33FF33CC33FF66CC33FF99CC33FFCCCC33FFFFCC33FF00FF33FF33FF33FF66FF33FF99FF33FFCCFF33FFFFFF33FF000066FF330066FF660066FF99
310
0066FFCC0066FFFF0066FF003366FF333366FF663366FF993366FFCC3366FFFF3366FF006666FF336666FF666666FF996666FFCC6666FFFF6666FF009966FF339966FF669966FF999966FFCC9966FFFF9966FF00CC66FF33CC66FF66CC66FF99CC66FFCCCC66FFFFCC66FF00FF66FF33FF66FF66FF66FF99FF66FFCCFF66FF
310
FFFF66FF000099FF330099FF660099FF990099FFCC0099FFFF0099FF003399FF333399FF663399FF993399FFCC3399FFFF3399FF006699FF336699FF666699FF996699FFCC6699FFFF6699FF009999FF339999FF669999FF999999FFCC9999FFFF9999FF00CC99FF33CC99FF66CC99FF99CC99FFCCCC99FFFFCC99FF00FF99
310
FF33FF99FF66FF99FF99FF99FFCCFF99FFFFFF99FF0000CCFF3300CCFF6600CCFF9900CCFFCC00CCFFFF00CCFF0033CCFF3333CCFF6633CCFF9933CCFFCC33CCFFFF33CCFF0066CCFF3366CCFF6666CCFF9966CCFFCC66CCFFFF66CCFF0099CCFF3399CCFF6699CCFF9999CCFFCC99CCFFFF99CCFF00CCCCFF33CCCCFF66CC
310
CCFF99CCCCFFCCCCCCFFFFCCCCFF00FFCCFF33FFCCFF66FFCCFF99FFCCFFCCFFCCFFFFFFCCFF0000FFFF3300FFFF6600FFFF9900FFFFCC00FFFFFF00FFFF0033FFFF3333FFFF6633FFFF9933FFFFCC33FFFFFF33FFFF0066FFFF3366FFFF6666FFFF9966FFFFCC66FFFFFF66FFFF0099FFFF3399FFFF6699FFFF9999FFFFCC
310
99FFFFFF99FFFF00CCFFFF33CCFFFF66CCFFFF99CCFFFFCCCCFFFFFFCCFFFF00FFFFFF33FFFFFF66FFFFFF99FFFFFFCCFFFFFFFFFFFFFF000000FF0D0D0DFF1A1A1AFF282828FF353535FF434343FF505050FF5D5D5DFF6B6B6BFF787878FF868686FF939393FFA1A1A1FFAEAEAEFFBBBBBBFFC9C9C9FFD6D6D6FFE4E4E4FF
310
F1F1F1FFFFFFFFFF000000FF000000FF000000FF000000FF000000FF000000FF000000FF000000FF000000FF0000000000000000000000000000000000000000000000000000000000000000000000000000000000000000000000000000000000000000000000000000000000000000000000000000000000000000000000
310
00000000000000000000000000000000000000000000000000000000000000000000000000000000000000000000000000000000000000000000000000000000000000000000000000000000000000000000000000000000000000000000000000000000000000000000000000000000000000000000000000000000000000
310
00000000000000000000000000000000000000000000000000000000000000000000000000000000000000000000000000000000000000000000000000000000000000000000000000000000000000000000000000000000000000000000000000000000000000000000000000000000000000000000000000000000000000
310
00000000000000000000000000000000000000000000000000000000000000000000000000000000000000000000000000000000000000000000000000000000000000000000000000000000000000000000000000000000000000000000000000000000000000000000000000000000000000000000000000000000000000
310
00000000000000000000000000000000000000000000000000000000000000000000000000000000000000000000000000000000000000000000000000000000000000000000000000000000000000000000000000000000000000000000000000000000000000000000000000000000000000000000000000000000000000
310
00000000000000000000000000000000000000000000000000000000000000000000000000000000000000000000000000000000000000000000000000000000000000000000000000000000000000000000000000000000000000000000000000000000000000000000000000000000000000000000000000000000000000
310
00000000000000000000000000000000000000000000000000000000000000000000000000000000000000000000000000000000000000000000000000000000000000000000000000000000000000000000000000000000000000000000000000000000000000000000000000000000000000000000000000000000000000
310
00000000000000000000000000000000000000000000000000000000000000000000000000000000000000000000000000000000000000000000000000000000000000000000000000000000000000000000000000000000000000000000000000000000000000000000000000000000000000000000000000000000000000
310
00000000000000000000000000000000000000000000000000000000000000000000000000000000000000000000000000000000000000000000000000000000000000000000000000000000000000000000000000000000000000000000000000000000000000000000000000000000000000000000000000000000000000
310
00000000000000000000000000000000000000000000000000000000000000000000000000000000000000000000000000000000000000000000000000000000000000000000000000000000000000000000000000000000000000000000000000000000000000000000000000000000000000000000000000000000000000
310
00000000000000000000000000000000000000000000000000000000000000000000000000000000000000000000000000000000000000000000000000000000000000000000000000000000000000000000000000000000000000000000000000000000000000000000000000000000000000000000000000000000000000
310
00000000000000000000000000000000000000000000000000000000000000000000000000000000000000000000000000000000000000000000000000000000000000000000000000000000000000000000000000000000000000000000000000000000000000000000000000000000000000000000000000000000000000
310
00000000000000000000000000000000000000000000000000000000000000000000000000000000000000000000000000000000000000000000000000000000000000000000000000000000000000000000000000000000000000000000000000000000000000000000000000000000000000000000000000000000000000
310
00000000000000000000000000000000000000000000000000000000000000000000000000000000000000000000000000000000000000000000000000000000000000000000000000000000000000000000000000000000000000000000000000000000000000000000000000000000000000000000000000000000000000
310
00000000000000000000000000000000000000000000000000000000000000000000000000000000000000000000000000000000000000000000000000000000000000000000000000000000000000000000000000000000000000000000000000000000000000000000000000000000000000000000000000000000000000
310
00000000000000000000000000000000000000000000000000000000000000000000000000000000000000000000000000000000000000000000000000000000000000000000000000000000000000000000000000000000000000000000000000000000000000000000000000000000000000000000000000000000000000
310
00000000000000000000000000000000000000000000000000000000000000000000000000000000000000000000000000000000000000000000000000000000000000000000000000000000000000000000000000000000000000000000000000000000000000000000000000000000000000000000000000000000000000
310
00000000000000000000000000000000000000000000000000000000000000000000000000000000000000000000000000000000000000000000000000000000000000000000000000000000000000000000000000000000000000000000000000000000000000000000000000000000000000000000000000000000000000
310
00000000000000000000000000000000000000000000000000000000000000000000000000000000000000000000000000000000000000000000000000000000000000000000000000000000000000000000000000000000000000000000000000000000000000000000000000000000000000000000000000000000000000
310
00000000000000000000000000000000000000000000000000000000000000000000000000000000000000000000000000000000000000000000000000000000000000000000000000000000000000000000000000000000000000000000000000000000000000000000000000000000000000000000000000000000000000
310
00000000000000000000000000000000000000000000000000000000000000000000000000000000000000000000000000000000000000000000000000000000000000000000000000000000000000000000000000000000000000000000000000000000000000000000000000000000000000000000000000000000000000
310
00000000000000000000000000000000000000000000000000000000000000000000000000000000000000000000000000000000000000000000000000000000000000000000000000000000000000000000000000000000000000000000000000000000000000000000000000000000000000000000000000000000000000
310
00000000000000000000000000000000000000000000000000000000000000000000000000000000000000000000000000000000000000000000000000000000000000000000000000000000000000000000000000000000000000000000000000000000000000000000000000000000000000000000000000000000000000
310
00000000000000000000000000000000000000000000000000000000000000000000000000000000000000000000000000000000000000000000000000000000000000000000000000000000000000000000000000000000000000000000000000000000000000000000000000000000000000000000000000000000000000
310
00000000000000000000000000000000000000000000000000000000000000000000000000000000000000000000000000000000000000000000000000000000000000000000000000000000000000000000000000000000000000000000000000000000000000000000000000000000000000000000000000000000000000
310
00000000000000000000000000000000000000000000000000000000000000000000000000000000000000000000000000000000000000000000000000000000000000000000000000000000000000000000000000000000000000000000000000000000000000000000000000000000000000000000000000000000000000
310
00000000000000000000000000000000000000000000000000000000000000000000000000000000000000000000000000000000000000000000000000000000000000000000000000000000000000000000000000000000000000000000000000000000000000000000000000000000000000000000000000000000000000
310
00000000000000000000000000000000000000000000000000000000000000000000000000000000000000000000000000000000000000000000000000000000000000000000000000000000000000000000000000000000000000000000000000000000000000000000000000000000000000000000000000000000000000
310
00000000000000000000000000000000000000000000000000000000000000000000000000000000000000000000000000000000000000000000000000000000000000000000000000000000000000000000000000000000000000000000000000000000000000000000000000000000000000000000000000000000000000
310
00000000000000000000000000000000000000000000000000000000000000000000000000000000000000000000000000000000000000000000000000000000000000000000000000000000000000000000000000000000000000000000000000000000000000000000000000000000000000000000000000000000000000
310
00000000000000000000000000000000000000000000000000000000000000000000000000000000000000000000000000000000000000000000000000000000000000000000000000000000000000000000000000000000000000000000000000000000000000000000000000000000000000000000000000000000000000
310
00000000000000000000000000000000000000000000000000000000000000000000000000000000000000000000000000000000000000000000000000000000000000000000000000000000000000000000000000000000000000000000000000000000000000000000000000000000000000000000000000000000000000
310
00000000000000000000000000000000000000000000000000000000000000000000000000000000000000000000000000000000000000000000000000000000000000000000000000000000000000000000000000000000000000000000000000000000000000000000000000000000000000000000000000000000000000
310
00000000000000000000000000000000000000000000000000000000000000000000000000000000000000000000000000000000000000000000000000000000000000000000000000000000000000000000000000000000000000000000000000000000000000000000000000000000000000000000000000000000000000
310
00000000000000000000000000000000000000000000000000000000000000000000000000000000000000000000000000000000000000000000000000000000000000000000000000000000000000000000000000000000000000000000000000000000000000000000000000000000000000000000000000000000000000
310
00000000000000000000000000000000000000000000000000000000000000000000000000000000000000000000000000000000000000000000000000000000000000000000000000000000000000000000000000000000000000000000000000000000000000000000000000000000000000000000000000000000000000
310
00000000000000000000000000000000000000000000000000000000000000000000000000000000000000000000000000000000000000000000000000000000000000000000000000000000000000000000000000000000000000000000000000000000000000000000000000000000000000000000000000000000000000
310
00000000000000000000000000000000000000000000000000000000000000000000000000000000000000000000000000000000000000000000000000000000000000000000000000000000000000000000000000000000000000000000000000000000000000000000000000000000000000000000000000000000000000
310
00000000000000000000000000000000000000000000000000000000000000000000000000000000000000000000000000000000000000000000000000000000000000000000000000000000000000000000000000000000000000000000000000000000000000000000000000000000000000000000000000000000000000
310
00000000000000000000000000000000000000000000000000000000000000000000000000000000000000000000000000000000000000000000000000000000000000000000000000000000000000000000000000000000000000000000000000000000000000000000000000000000000000000000000000000000000000
310
00000000000000000000000000000000000000000000000000000000000000000000000000000000000000000000000000000000000000000000000000000000000000000000000000000000000000000000000000000000000000000000000000000000000000000000000000000000000000000000000000000000000000
310
00000000000000000000000000000000000000000000000000000000000000000000000000000000000000000000000000000000000000000000000000000000000000000000000000000000000000000000000000000000000000000000000000000000000000000000000000000000000000000000000000000000000000
310
00000000000000000000000000000000000000000000000000000000000000000000000000000000000000000000000000000000000000000000000000000000000000000000000000000000000000000000000000000000000000000000000000000000000000000000000000000000000000000000000000000000000000
310
00000000000000000000000000000000000000000000000000000000000000000000000000000000000000000000000000000000000000000000000000000000000000000000000000000000000000000000000000000000000000000000000000000000000000000000000000000000000000000000000000000000000000
310
00000000000000000000000000000000000000000000000000000000000000000000000000000000000000000000000000000000000000000000000000000000000000000000000000000000000000000000000000000000000000000000000000000000000000000000000000000000000000000000000000000000000000
310
00000000000000000000000000000000000000000000000000000000000000000000000000000000000000000000000000000000000000000000000000000000000000000000000000000000000000000000000000000000000000000000000000000000000000000000000000000000000000000000000000000000000000
310
00000000000000000000000000000000000000000000000000000000000000000000000000000000000000000000000000000000000000000000000000000000000000000000000000000000000000000000000000000000000000000000000000000000000000000000000000000000000000000000000000000000000000
310
00000000000000000000000000000000000000000000000000000000000000000000000000000000000000000000000000000000000000000000000000000000000000000000000000000000000000000000000000000000000000000000000000000000000000000000000000000000000000000000000000000000000000
310
00000000000000000000000000000000000000000000000000000000000000000000000000000000000000000000000000000000000000000000000000000000000000000000000000000000000000000000000000000000000000000000000000000000000000000000000000000000000000000000000000000000000000
310
00000000000000000000000000000000000000000000000000000000000000000000000000000000000000000000000000000000000000000000000000000000000000000000000000000000000000000000000000000000000000000000000000000000000000000000000000000000000000000000000000000000000000
310
00000000000000000000000000000000000000000000000000000000000000000000000000000000000000000000000000000000000000000000000000000000000000000000000000000000000000000000000000000000000000000000000000000000000000000000000000000000000000000000000000000000000000
310
00000000000000000000000000000000000000000000000000000000000000000000000000000000000000000000000000000000000000000000000000000000000000000000000000000000000000000000000000000000000000000000000000000000000000000000000000000000000000000000000000000000000000
310
00000000000000000000000000000000000000000000000000000000000000000000000000000000000000000000000000000000000000000000000000000000000000000000000000000000000000000000000000000000000000000000000000000000000000000000000000000000000000000000000000000000000000
310
00000000000000000000000000000000000000000000000000000000000000000000000000000000000000000000000000000000000000000000000000000000000000000000000000000000000000000000000000000000000000000000000000000000000000000000000000000000000000000000000000000000000000
310
00000000000000000000000000000000000000000000000000000000000000000000000000000000000000000000000000000000000000000000000000000000000000000000000000000000000000000000000000000000000000000000000000000000000000000000000000000000000000000000000000000000000000
310
00000000000000000000000000000000000000000000000000000000000000000000000000000000000000000000000000000000000000000000000000000000000000000000000000000000000000000000000000000000000000000000000000000000000000000000000000000000000000000000000000000000000000
310
00000000000000000000000000000000000000000000000000000000000000000000000000000000000000000000000000000000000000000000000000000000000000000000000000000000000000000000000000000000000000000000000000000000000000000000000000000000000000000000000000000000000000
310
00000000000000000000000000000000000000000000000000000000000000000000000000000000000000000000000000000000000000000000000000000000000000000000000000000000000000000000000000000000000000000000000000000000000000000000000000000000000000000000000000000000000000
310
00000000000000000000000000000000000000000000000000000000000000000000000000000000000000000000000000000000000000000000000000000000000000000000000000000000000000000000000000000000000000000000000000000000000000000000000000000000000000000000000000000000000000
310
00000000000000000000000000000000000000000000000000000000000000000000000000000000000000000000000000000000000000000000000000000000000000000000000000000000000000000000000000000000000000000000000000000000000000000000000000000000000000000000000000000000000000
310
00000000000000000000000000000000000000000000000000000000000000000000000000000000000000000000000000000000000000000000000000000000000000000000000000000000000000000000000000000000000000000000000000000000000000000000000000000000000000000000000000000000000000
310
00000000000000000000000000000000000000000000000000000000000000000000000000000000000000000000000000000000000000000000000000000000000000000000000000000000000000000000000000000000000000000000000000000000000000000000000000000000000000000000000000000000000000
310
00000000000000000000000000000000000000000000000000000000000000000000000000000000000000000000000000000000000000000000000000000000000000000000000000000000000000000000000000000000000000000000000000000000000000000000000000000000000000000000000000000000000000
310
00000000000000000000000000000000000000000000000000000000000000000000000000000000000000000000000000000000000000000000000000000000000000000000000000000000000000000000000000000000000000000000000000000000000000000000000000000000000000000000000000000000000000
310
00000000000000000000000000000000000000000000000000000000000000000000000000000000000000000000000000000000000000000000000000000000000000000000000000000000000000000000000000000000000000000000000000000000000000000000000000000000000000000000000000000000000000
310
00000000000000000000000000000000000000000000000000000000000000000000000000000000000000000000000000000000000000000000000000000000000000000000000000000000000000000000000000000000000000000000000000000000000000000000000000000000000000000000000000000000000000
310
00000000000000000000000000000000000000000000000000000000000000000000000000000000000000000000000000000000000000000000000000000000000000000000000000000000000000000000000000000000000000000000000000000000000000000000000000000000000000000000000000000000000000
310
00000000000000000000000000000000000000000000000000000000000000000000000000000000000000000000000000000000000000000000000000000000000000000000000000000000000000000000000000000000000000000000000000000000000000000000000000000000000000000000000000000000000000
310
00000000000000000000000000000000000000000000000000000000000000000000000000000000000000000000000000000000000000000000000000000000000000000000000000000000000000000000000000000000000000000000000000000000000000000000000000000000000000000000000000000000000000
310
00000000000000000000000000000000000000000000000000000000000000000000000000000000000000000000000000000000000000000000000000000000000000000000000000000000000000000000000000000000000000000000000000000000000000000000000000000000000000000000000000000000000000
310
00000000000000000000000000000000000000000000000000000000000000000000000000000000000000000000000000000000000000000000000000000000000000000000000000000000000000000000000000000000000000000000000000000000000000000000000000000000000000000000000000000000000000
310
00000000000000000000000000000000000000000000000000000000000000000000C3C3C3C3C3C3C3C3C3C3C3C3C3C3C3C3C3C3C3C3C3C3C3C3C3C3C3C3C3C3C3C3C3C3C3C3C3C3C3C3C3C3C3C3C3C3C3C3C3C3C3C3C3C3C3C3C3C3C3C3C3C3C3C3C3C3C3C3C3C3C3C3C3C3C3C3C3C3C3C3C3C3C3C3C3C3C3C3C3C3C3C3C3
310
C3C3C3C3C3C3C3C3C3C3C3C3C3C3C3C3C3C3C3C3C3C3C3C3C3C3C3C3C3C3C3C3C3C3C3C3C3C3C3C3C3C3C3C3C3C3C30000000000000000000000000000000000000000000000000000000000000000000000000000000000000000000000000000000000000000000000000000000000000000000000000000000000000000
310
000000000000000000000000000000000000000000000000000000000000000000000000C3000000000000000000000000000000000000000000000000000000000000000000000000000000000000000000000000000000000000000000000000000000000000000000000000000000000000000000000000000000000000
310
000000000000000000000000000000000000000000000000000000000000000000000000000000000000000000000000C3000000000000000000000000000000000000000000000000000000000000000000000000000000000000000000000000000000000000000000000000000000000000000000000000000000000000
310
0000000000000000000000000000000000000000000000000000000000000000000000000000C300000000000000000000000000000000000000000000000000000000000000000000000000000000000000000000000000000000000000000000000000000000000000000000000000000000000000000000000000000000
310
0000000000000000000000000000000000000000000000000000000000000000000000000000000000000000000000000000C300000000000000000000000000000000000000000000000000000000000000000000000000000000000000000000000000000000000000000000000000000000000000000000000000000000
310
00000000000000000000000000000000000000000000000000000000000000000000000000000000C30000000000000000000000000000000000000000000000000000000000000000000000000000000000000000000000000000000000000000000000000000000000000000000000000000000000000000000000000000
310
00000000000000000000000000000000000000000000000000000000000000000000000000000000000000000000000000000000C30000000000000000000000000000000000000000000000000000000000000000000000000000000000000000000000000000000000000000000000000000000000000000000000000000
310
000000000000000000000000000000000000000000000000000000000000000000000000000000000000C3000000000000000000000000000000000000000000000000000000000000000000000000000000000000000000000000000000000000000000000000000000000000000000000000000000000000000000000000
310
000000000000000000000000000000000000000000000000000000000000000000000000000000000000000000000000000000000000C3000000000000000000000000000000000000000000000000000000000000000000000000000000000000000000000000000000000000000000000000000000000000000000000000
310
0000000000000000000000000000000000000000000000000000000000000000000000000000000000000000C300000000000000000000000000000000000000000000000000000000000000000000000000000000000000000000000000000000000000000000000000000000000000000000000000000000000000000000
310
0000000000000000000000000000000000000000000000000000000000000000000000000000000000000000000000000000000000000000C300000000000000000000000000000000000000000000000000000000000000000000000000000000000000000000000000000000000000000000000000000000000000000000
310
00000000000000000000000000000000000000000000000000000000000000000000000000000000000000000000C30000000000000000000000000000000000000000000000000000000000000000000000000000000000000000000000000000000000000000000000000000000000000000000000000000000000000000
310
00000000000000000000000000000000000000000000000000000000000000000000000000000000000000000000000000000000000000000000C30000000000000000000000000000000000000000000000000000000000000000000000000000000000000000000000000000000000000000000000000000000000000000
310
000000000000000000000000000000000000000000000000000000000000000000000000000000000000000000000000C3000000000000000000000000000000000000000000000000000000000000000000000000000000000000000000000000000000000000000000000000000000000000000000000000000000000000
310
000000000000000000000000000000000000000000000000000000000000000000000000000000000000000000000000000000000000000000000000C3000000000000000000000000000000000000000000000000000000000000000000000000000000000000000000000000000000000000000000000000000000000000
310
0000000000000000000000000000000000000000000000000000000000000000000000000000000000000000000000000000C300000000000000000000000000000000000000000000000000000000000000000000000000000000000000000000000000000000000000000000000000000000000000000000000000000000
310
0000000000000000000000000000000000000000000000000000000000000000000000000000000000000000000000000000000000000000000000000000C300000000000000000000000000000000000000000000000000000000000000000000000000000000000000000000000000000000000000000000000000000000
310
00000000000000000000000000000000000000000000000000000000000000000000000000000000000000000000000000000000C30000000000000000000000000000000000000000000000000000000000000000000000000000000000000000000000000000000000000000000000000000000000000000000000000000
310
00000000000000000000000000000000000000000000000000000000000000000000000000000000000000000000000000000000000000000000000000000000C30000000000000000000000000000000000000000000000000000000000000000000000000000000000000000000000000000000000000000000000000000
310
000000000000000000000000000000000000000000000000000000000000000000000000000000000000000000000000000000000000C3000000000000000000000000000000000000000000000000000000000000000000000000000000000000000000000000000000000000000000000000000000000000000000000000
310
000000000000000000000000000000000000000000000000000000000000000000000000000000000000000000000000000000000000000000000000000000000000C3000000000000000000000000000000000000000000000000000000000000000000000000000000000000000000000000000000000000000000000000
310
0000000000000000000000000000000000000000000000000000000000000000000000000000000000000000000000000000000000000000C300000000000000000000000000000000000000000000000000000000000000000000000000000000000000000000000000000000000000000000000000000000000000000000
310
0000000000000000000000000000000000000000000000000000000000000000000000000000000000000000000000000000000000000000000000000000000000000000C300000000000000000000000000000000000000000000000000000000000000000000000000000000000000000000000000000000000000000000
310
00000000000000000000000000000000000000000000000000000000000000000000000000000000000000000000000000000000000000000000C30000000000000000000000000000000000000000000000000000000000000000000000000000000000000000000000000000000000000000000000000000000000000000
310
00000000000000000000000000000000000000000000000000000000000000000000000000000000000000000000000000000000000000000000000000000000000000000000C30000000000000000000000000000000000000000000000000000000000000000000000000000000000000000000000000000000000000000
310
000000000000000000000000000000000000000000000000000000000000000000000000000000000000000000000000000000000000000000000000C3000000000000000000000000000000000000000000000000000000000000000000000000000000000000000000000000000000000000000000000000000000000000
310
000000000000000000000000000000000000000000000000000000000000000000000000000000000000000000000000000000000000000000000000000000000000000000000000C3000000000000000000000000000000000000000000000000000000000000000000000000000000000000000000000000000000000000
310
0000000000000000000000000000000000000000000000000000000000000000000000000000000000000000000000000000000000000000000000000000C300000000000000000000000000000000000000000000000000000000000000000000000000000000000000000000000000000000000000000000000000000000
310
0000000000000000000000000000000000000000000000000000000000000000000000000000000000000000000000000000000000000000000000000000000000000000000000000000C300000000000000000000000000000000000000000000000000000000000000000000000000000000000000000000000000000000
310
00000000000000000000000000000000000000000000000000000000000000000000000000000000000000000000000000000000000000000000000000000000C30000000000000000000000000000000000000000000000000000000000000000000000000000000000000000000000000000000000000000000000000000
310
00000000000000000000000000000000000000000000000000000000000000000000000000000000000000000000000000000000000000000000000000000000000000000000000000000000C30000000000000000000000000000000000000000000000000000000000000000000000000000000000000000000000000000
310
000000000000000000000000000000000000000000000000000000000000000000000000000000000000000000000000000000000000000000000000000000000000C3000000000000000000000000000000000000000000000000000000000000000000000000000000000000000000000000000000000000000000000000
310
000000000000000000000000000000000000000000000000000000000000000000000000000000000000000000000000000000000000000000000000000000000000000000000000000000000000C3000000000000000000000000000000000000000000000000000000000000000000000000000000000000000000000000
310
0000000000000000000000000000000000000000000000000000000000000000000000000000000000000000000000000000000000000000000000000000000000000000C300000000000000000000000000000000000000000000000000000000000000000000000000000000000000000000000000000000000000000000
310
0000000000000000000000000000000000000000000000000000000000000000000000000000000000000000000000000000000000000000000000000000000000000000000000000000000000000000C300000000000000000000000000000000000000000000000000000000000000000000000000000000000000000000
310
00000000000000000000000000000000000000000000000000000000000000000000000000000000000000000000000000000000000000000000000000000000000000000000C30000000000000000000000000000000000000000000000000000000000000000000000000000000000000000000000000000000000000000
310
00000000000000000000000000000000000000000000000000000000000000000000000000000000000000000000000000000000000000000000000000000000000000000000000000000000000000000000C30000000000000000000000000000000000000000000000000000000000000000000000000000000000000000
310
000000000000000000000000000000000000000000000000000000000000000000000000000000000000000000000000000000000000000000000000000000000000000000000000C3000000000000000000000000000000000000000000000000000000000000000000000000000000000000000000000000000000000000
310
000000000000000000000000000000000000000000000000000000000000000000000000000000000000000000000000000000000000000000000000000000000000000000000000000000000000000000000000C3000000000000000000000000000000000000000000000000000000000000000000000000000000000000
310
0000000000000000000000000000000000000000000000000000000000000000000000000000000000000000000000000000000000000000000000000000000000000000000000000000C300000000000000000000000000000000000000000000000000000000000000000000000000000000000000000000000000000000
310
0000000000000000000000000000000000000000000000000000000000000000000000000000000000000000000000000000000000000000000000000000000000000000000000000000000000000000000000000000C300000000000000000000000000000000000000000000000000000000000000000000000000000000
310
00000000000000000000000000000000000000000000000000000000000000000000000000000000000000000000000000000000000000000000000000000000000000000000000000000000C30000000000000000000000000000000000000000000000000000000000000000000000000000000000000000000000000000
310
00000000000000000000000000000000000000000000000000000000000000000000000000000000000000000000000000000000000000000000000000000000000000000000000000000000000000000000000000000000C30000000000000000000000000000000000000000000000000000000000000000000000000000
310
000000000000000000000000000000000000000000000000000000000000000000000000000000000000000000000000000000000000000000000000000000000000000000000000000000000000C3000000000000000000000000000000000000000000000000000000000000000000000000000000000000000000000000
310
000000000000000000000000000000000000000000000000000000000000000000000000000000000000000000000000000000000000000000000000000000000000000000000000000000000000000000000000000000000000C3000000000000000000000000000000000000000000000000000000000000000000000000
310
0000000000000000000000000000000000000000000000000000000000000000000000000000000000000000000000000000000000000000000000000000000000000000000000000000000000000000C300000000000000000000000000000000000000000000000000000000000000000000000000000000000000000000
310
0000000000000000000000000000000000000000000000000000000000000000000000000000000000000000000000000000000000000000000000000000000000000000000000000000000000000000000000000000000000000000C300000000000000000000000000000000000000000000000000000000000000000000
310
00000000000000000000000000000000000000000000000000000000000000000000000000000000000000000000000000000000000000000000000000000000000000000000000000000000000000000000C30000000000000000000000000000000000000000000000000000000000000000000000000000000000000000
310
00000000000000000000000000000000000000000000000000000000000000000000000000000000000000000000000000000000000000000000000000000000000000000000000000000000000000000000000000000000000000000000C30000000000000000000000000000000000000000000000000000000000000000
310
000000000000000000000000000000000000000000000000000000000000000000000000000000000000000000000000000000000000000000000000000000000000000000000000000000000000000000000000C3000000000000000000000000000000000000000000000000000000000000000000000000000000000000
310
000000000000000000000000000000000000000000000000000000000000000000000000000000000000000000000000000000000000000000000000000000000000000000000000000000000000000000000000000000000000000000000000C3000000000000000000000000000000000000000000000000000000000000
310
0000000000000000000000000000000000000000000000000000000000000000000000000000000000000000000000000000000000000000000000000000000000000000000000000000000000000000000000000000C300000000000000000000000000000000000000000000000000000000000000000000000000000000
310
0000000000000000000000000000000000000000000000000000000000000000000000000000000000000000000000000000000000000000000000000000000000000000000000000000000000000000000000000000000000000000000000000000C300000000000000000000000000000000000000000000000000000000
310
00000000000000000000000000000000000000000000000000000000000000000000000000000000000000000000000000000000000000000000000000000000000000000000000000000000000000000000000000000000C30000000000000000000000000000000000000000000000000000000000000000000000000000
310
00000000000000000000000000000000000000000000000000000000000000000000000000000000000000000000000000000000000000000000000000000000000000000000000000000000000000000000000000000000000000000000000000000000C30000000000000000000000000000000000000000000000000000
310
000000000000000000000000000000000000000000000000000000000000000000000000000000000000000000000000000000000000000000000000000000000000000000000000000000000000000000000000000000000000C3000000000000000000000000000000000000000000000000000000000000000000000000
310
000000000000000000000000000000000000000000000000000000000000000000000000000000000000000000000000000000000000000000000000000000000000000000000000000000000000000000000000000000000000000000000000000000000000C3000000000000000000000000000000000000000000000000
310
0000000000000000000000000000000000000000000000000000000000000000000000000000000000000000000000000000000000000000000000000000000000000000000000000000000000000000000000000000000000000000C300000000000000000000000000000000000000000000000000000000000000000000
310
0000000000000000000000000000000000000000000000000000000000000000000000000000000000000000000000000000000000000000000000000000000000000000000000000000000000000000000000000000000000000000000000000000000000000000C300000000000000000000000000000000000000000000
310
00000000000000000000000000000000000000000000000000000000000000000000000000000000000000000000000000000000000000000000000000000000000000000000000000000000000000000000000000000000000000000000C30000000000000000000000000000000000000000000000000000000000000000
310
00000000000000000000000000000000000000000000000000000000000000000000000000000000000000000000000000000000000000000000000000000000000000000000000000000000000000000000000000000000000000000000000000000000000000000000C30000000000000000000000000000000000000000
310
000000000000000000000000000000000000000000000000000000000000000000000000000000000000000000000000000000000000000000000000000000000000000000000000000000000000000000000000000000000000000000000000C3000000000000000000000000000000000000000000000000000000000000
310
000000000000000000000000000000000000000000000000000000000000000000000000000000000000000000000000000000000000000000000000000000000000000000000000000000000000000000000000000000000000000000000000000000000000000000000000C3000000000000000000000000000000000000
310
0000000000000000000000000000000000000000000000000000000000000000000000000000000000000000000000000000000000000000000000000000000000000000000000000000000000000000000000000000000000000000000000000000C300000000000000000000000000000000000000000000000000000000
310
0000000000000000000000000000000000000000000000000000000000000000000000000000000000000000000000000000000000000000000000000000000000000000000000000000000000000000000000000000000000000000000000000000000000000000000000000000C300000000000000000000000000000000
310
00000000000000000000000000000000000000000000000000000000000000000000000000000000000000000000000000000000000000000000000000000000000000000000000000000000000000000000000000000000000000000000000000000000C30000000000000000000000000000000000000000000000000000
310
00000000000000000000000000000000000000000000000000000000000000000000000000000000000000000000000000000000000000000000000000000000000000000000000000000000000000000000000000000000000000000000000000000000000000000000000000000000C30000000000000000000000000000
310
000000000000000000000000000000000000000000000000000000000000000000000000000000000000000000000000000000000000000000000000000000000000000000000000000000000000000000000000000000000000000000000000000000000000C3000000000000000000000000000000000000000000000000
310
000000000000000000000000000000000000000000000000000000000000000000000000000000000000000000000000000000000000000000000000000000000000000000000000000000000000000000000000000000000000000000000000000000000000000000000000000000000000C3000000000000000000000000
310
0000000000000000000000000000000000000000000000000000000000000000000000000000000000000000000000000000000000000000000000000000000000000000000000000000000000000000000000000000000000000000000000000000000000000000C300000000000000000000000000000000000000000000
310
0000000000000000000000000000000000000000000000000000000000000000000000000000000000000000000000000000000000000000000000000000000000000000000000000000000000000000000000000000000000000000000000000000000000000000000000000000000000000000C300000000000000000000
310
00000000000000000000000000000000000000000000000000000000000000000000000000000000000000000000000000000000000000000000000000000000000000000000000000000000000000000000000000000000000000000000000000000000000000000000C30000000000000000000000000000000000000000
310
00000000000000000000000000000000000000000000000000000000000000000000000000000000000000000000000000000000000000000000000000000000000000000000000000000000000000000000000000000000000000000000000000000000000000000000000000000000000000000000C30000000000000000
310
000000000000000000000000000000000000000000000000000000000000000000000000000000000000000000000000000000000000000000000000000000000000000000000000000000000000000000000000000000000000000000000000000000000000000000000000C3000000000000000000000000000000000000
310
000000000000000000000000000000000000000000000000000000000000000000000000000000000000000000000000000000000000000000000000000000000000000000000000000000000000000000000000000000000000000000000000000000000000000000000000000000000000000000000000C3000000000000
310
0000000000000000000000000000000000000000000000000000000000000000000000000000000000000000000000000000000000000000000000000000000000000000000000000000000000000000000000000000000000000000000000000000000000000000000000000000C300000000000000000000000000000000
310
0000000000000000000000000000000000000000000000000000000000000000000000000000000000000000000000000000000000000000000000000000000000000000000000000000000000000000000000000000000000000000000000000000000000000000000000000000000000000000000000000000C300000000
310
00000000000000000000000000000000000000000000000000000000000000000000000000000000000000000000000000000000000000000000000000000000000000000000000000000000000000000000000000000000000000000000000000000000000000000000000000000000C30000000000000000000000000000
310
00000000000000000000000000000000000000000000000000000000000000000000000000000000000000000000000000000000000000000000000000000000000000000000000000000000000000000000000000000000000000000000000000000000000000000000000000000000000000000000000000000000C30000
310
000000000000000000000000000000000000000000000000000000000000000000000000000000000000000000000000000000000000000000000000000000000000000000000000000000000000000000000000000000000000000000000000000000000000000000000000000000000000C3000000000000000000000000
310
000000000000000000000000000000000000000000000000000000000000000000000000000000000000000000000000000000000000000000000000000000000000000000000000000000000000000000000000000000000000000000000000000000000000000000000000000000000000000000000000000000000000C3
310
0000000000000000000000000000000000000000000000000000000000000000000000000000000000000000000000000000000000000000000000000000000000000000000000000000000000000000000000000000000000000000000000000000000000000000000000000000000000000000C300000000000000000000
310
00000000000000000000000000000000000000000000000000000000000000000000000000000000000000000000000000000000000000000000000000000000000000000000000000000000000000000000000000000000000000000000000000000000000000000000000000000000000000000000000000000000000000
310
00C30000000000000000000000000000000000000000000000000000000000000000000000000000000000000000000000000000000000000000000000000000000000000000000000000000000000000000000000000000000000000000000000000000000000000000000000000000000000000000C30000000000000000
310
00000000000000000000000000000000000000000000000000000000000000000000000000000000000000000000000000000000000000000000000000000000000000000000000000000000000000000000000000000000000000000000000000000000000000000000000000000000000000000000000000000000000000
310
000000C30000000000000000000000000000000000000000000000000000000000000000000000000000000000000000000000000000000000000000000000000000000000000000000000000000000000000000000000000000000000000000000000000000000000000000000000000000000000000000C3000000000000
310
00000000000000000000000000000000000000000000000000000000000000000000000000000000000000000000000000000000000000000000000000000000000000000000000000000000000000000000000000000000000000000000000000000000000000000000000000000000000000000000000000000000000000
310
0000000000C30000000000000000000000000000000000000000000000000000000000000000000000000000000000000000000000000000000000000000000000000000000000000000000000000000000000000000000000000000000000000000000000000000000000000000000000000000000000000000C300000000
310
00000000000000000000000000000000000000000000000000000000000000000000000000000000000000000000000000000000000000000000000000000000000000000000000000000000000000000000000000000000000000000000000000000000000000000000000000000000000000000000000000000000000000
310
00000000000000C30000000000000000000000000000000000000000000000000000000000000000000000000000000000000000000000000000000000000000000000000000000000000000000000000000000000000000000000000000000000000000000000000000000000000000000000000000000000000000C30000
310
00000000000000000000000000000000000000000000000000000000000000000000000000000000000000000000000000000000000000000000000000000000000000000000000000000000000000000000000000000000000000000000000000000000000000000000000000000000000000000000000000000000000000
310
000000000000000000C30000000000000000000000000000000000000000000000000000000000000000000000000000000000000000000000000000000000000000000000000000000000000000000000000000000000000000000000000000000000000000000000000000000000000000000000000000000000000000C3
310
00000000000000000000000000000000000000000000000000000000000000000000000000000000000000000000000000000000000000000000000000000000000000000000000000000000000000000000000000000000000000000000000000000000000000000000000000000000000000000000000000000000000000
310
0000000000000000000000C300000000000000000000000000000000000000000000000000000000000000000000000000000000000000000000000000000000000000000000000000000000000000000000000000000000000000000000000000000000000000000000000000000000000000000000000000000000000000
310
00C30000000000000000000000000000000000000000000000000000000000000000000000000000000000000000000000000000000000000000000000000000000000000000000000000000000000000000000000000000000000000000000000000000000000000000000000000000000000000000000000000000000000
310
00000000000000000000000000C30000000000000000000000000000000000000000000000000000000000000000000000000000000000000000000000000000000000000000000000000000000000000000000000000000000000000000000000000000000000000000000000000000000000000000000000000000000000
310
000000C3000000000000000000000000000000000000000000000000000000000000000000000000000000000000000000000000000000000000000000000000000000000000000000000000000000000000000000000000000000000000000000000000000000000000000000000000000000000000000000000000000000
310
000000000000000000000000000000C3000000000000000000000000000000000000000000000000000000000000000000000000000000000000000000000000000000000000000000000000000000000000000000000000000000000000000000000000000000000000000000000000000000000000000000000000000000
310
0000000000C300000000000000000000000000000000000000000000000000000000000000000000000000000000000000000000000000000000000000000000000000000000000000000000000000000000000000000000000000000000000000000000000000000000000000000000000000000000000000000000000000
310
0000000000000000000000000000000000C300000000000000000000000000000000000000000000000000000000000000000000000000000000000000000000000000000000000000000000000000000000000000000000000000000000000000000000000000000000000000000000000000000000000000000000000000
310
00000000000000C30000000000000000000000000000000000000000000000000000000000000000000000000000000000000000000000000000000000000000000000000000000000000000000000000000000000000000000000000000000000000000000000000000000000000000000000000000000000000000000000
310
00000000000000000000000000000000000000C30000000000000000000000000000000000000000000000000000000000000000000000000000000000000000000000000000000000000000000000000000000000000000000000000000000000000000000000000000000000000000000000000000000000000000000000
310
000000000000000000C3000000000000000000000000000000000000000000000000000000000000000000000000000000000000000000000000000000000000000000000000000000000000000000000000000000000000000000000000000000000000000000000000000000000000000000000000000000000000000000
310
000000000000000000000000000000000000000000C3000000000000000000000000000000000000000000000000000000000000000000000000000000000000000000000000000000000000000000000000000000000000000000000000000000000000000000000000000000000000000000000000000000000000000000
310
0000000000000000000000C300000000000000000000000000000000000000000000000000000000000000000000000000000000000000000000000000000000000000000000000000000000000000000000000000000000000000000000000000000000000000000000000000000000000000000000000000000000000000
310
0000000000000000000000000000000000000000000000C300000000000000000000000000000000000000000000000000000000000000000000000000000000000000000000000000000000000000000000000000000000000000000000000000000000000000000000000000000000000000000000000000000000000000
310
00000000000000000000000000C30000000000000000000000000000000000000000000000000000000000000000000000000000000000000000000000000000000000000000000000000000000000000000000000000000000000000000000000000000000000000000000000000000000000000000000000000000000000
310
00000000000000000000000000000000000000000000000000C30000000000000000000000000000000000000000000000000000000000000000000000000000000000000000000000000000000000000000000000000000000000000000000000000000000000000000000000000000000000000000000000000000000000
310
000000000000000000000000000000C3000000000000000000000000000000000000000000000000000000000000000000000000000000000000000000000000000000000000000000000000000000000000000000000000000000000000000000000000000000000000000000000000000000000000000000000000000000
310
000000000000000000000000000000000000000000000000000000C3000000000000000000000000000000000000000000000000000000000000000000000000000000000000000000000000000000000000000000000000000000000000000000000000000000000000000000000000000000000000000000000000000000
310
0000000000000000000000000000000000C300000000000000000000000000000000000000000000000000000000000000000000000000000000000000000000000000000000000000000000000000000000000000000000000000000000000000000000000000000000000000000000000000000000000000000000000000
310
0000000000000000000000000000000000000000000000000000000000C300000000000000000000000000000000000000000000000000000000000000000000000000000000000000000000000000000000000000000000000000000000000000000000000000000000000000000000000000000000000000000000000000
310
00000000000000000000000000000000000000C30000000000000000000000000000000000000000000000000000000000000000000000000000000000000000000000000000000000000000000000000000000000000000000000000000000000000000000000000000000000000000000000000000000000000000000000
310
00000000000000000000000000000000000000000000000000000000000000C30000000000000000000000000000000000000000000000000000000000000000000000000000000000000000000000000000000000000000000000000000000000000000000000000000000000000000000000000000000000000000000000
310
000000000000000000000000000000000000000000C3000000000000000000000000000000000000000000000000000000000000000000000000000000000000000000000000000000000000000000000000000000000000000000000000000000000000000000000000000000000000000000000000000000000000000000
310
000000000000000000000000000000000000000000000000000000000000000000C3000000000000000000000000000000000000000000000000000000000000000000000000000000000000000000000000000000000000000000000000000000000000000000000000000000000000000000000000000000000000000000
310
0000000000000000000000000000000000000000000000C300000000000000000000000000000000000000000000000000000000000000000000000000000000000000000000000000000000000000000000000000000000000000000000000000000000000000000000000000000000000000000000000000000000000000
310
0000000000000000000000000000000000000000000000000000000000000000000000C300000000000000000000000000000000000000000000000000000000000000000000000000000000000000000000000000000000000000000000000000000000000000000000000000000000000000000000000000000000000000
310
00000000000000000000000000000000000000000000000000C30000000000000000000000000000000000000000000000000000000000000000000000000000000000000000000000000000000000000000000000000000000000000000000000000000000000000000000000000000000000000000000000000000000000
310
00000000000000000000000000000000000000000000000000000000000000000000000000C30000000000000000000000000000000000000000000000000000000000000000000000000000000000000000000000000000000000000000000000000000000000000000000000000000000000000000000000000000000000
310
000000000000000000000000000000000000000000000000000000C3000000000000000000000000000000000000000000000000000000000000000000000000000000000000000000000000000000000000000000000000000000000000000000282828282828282828282828282828282828282828282828282800000000
310
000000000000000000000000000000000000000000000000000000000000000000000000000000C3000000000000000000000000000000000000000000000000000000000000000000000000000000000000000000000000000000000000000000000000000000000000000000000000000000000000000000000000000000
310
0000000000000000000000000000000000000000000000000000000000C300000000000000000000000000000000000000000000000000000000000000000000000000000000000000000000000000000000000000000000000000000000000000000028000000000000000000000028280000000000000000000000280000
310
0000000000000000000000000000000000000000000000000000000000000000000000000000000000C300000000000000000000000000000000000000000000000000000000000000000000000000000000000000000000000000000000000000000000000000000000000000000000000000000000000000000000000000
310
00000000000000000000000000000000000000000000000000000000000000C30000000000000000282828282828282828282828282828282828282828282828282828282828282828282828282828000000000000000000000000000000000000000000002828282828282828282828282828282828282828282828282828
310
00000000000000000000000000000000000000000000000000000000000000000000000000000000000000C30000000000000000000000000000000000000000000000000000000000000000000000000000000000000000000000000000000000000000000000000000000000000000000000000000000000000000000000
310
000000000000000000000000000000000000000000000000000000000000000000C3000000000000000028000000000000000000000000000000000028282800000000000000000000000000000000282800000000000000000000000000000000000000000000282828280000000000000000002828000000000000000000
310
002800000000000000000000000000000000000000000000000000000000000000000000000000000000000000C3000000000000000000000000000000000000000000000000000000000000000000000000000000000000000000000000000000000000000000000000000000000000000000000000000000000000000000
310
0000000000000000000000000000000000000000000000000000000000000000000000C300000000000000002800000000000000000000000000000000002828280000000000000000000000000000000000280000000000000000000000000000000000000000000028282828282800000000000000282800000000000000
310
0000002800000000000000000000000000000000000000000000000000000000000000000000000000000000000000C300000000000000000000000000000000000000000000000000000000000000000000000000000000000000000000000000000000000000000000000000000000000000000000000000000000000000
310
00000000000000000000000000000000000000000000000000000000000000000000000000C30000000000000000280000000000000000000000000000000000282828280000000000000000000000000000000028000000000000000000000000000000000000000000002800282828280000000000000000000000000000
310
00000000002800000000000000000000000000000000000000000000000000000000000000000000000000000000000000C30000000000000000000000000000000000000000000000000000000000000000000000000000000000000000000000000000000000000000000000000000000000000000000000000000000000
310
000000000000000000000000000000000000000000000000000000000000000000000000000000C3000000000000000028000000000000000000000000000000000000282828000000000000000000000000000000002800000000000000000000000000000000000000000000280028282828000000000000000000000000
310
000000000000002800000000000000000000000000000000000000000000000000000000000000000000000000000000000000C3000000000000000000000000000000000000000000000000000000000000000000000000000000000000000000000000000000000000000000000000000000000000000000000000000000
310
0000000000000000000000000000000000000000000000000000000000000000000000000000000000C3000000000028282828F5F5F5F5F5F5F5F5F5F5F5F5F5F5F5F5F5F528F5F5F5F5F5F5F5F5F5F5F5F5F5F5F5F5F5F5280000000000000000000000000000000000002828282828F5282D2D28F5F5F5F5F5F50F0F0F0F
310
F5F5F5F5F5F5F5F5F52828282828000000000000000000000000000000000000000000000000000000000000000000000000000000C300000000000000000000000000000000000000000000000000000000000000000000000000000000000000000000000000000000000000000000000000000000000000000000000000
310
00000000000000000000000000000000000000000000000000000000000000000000000000000000000000C30000000000280000F5F5F5F5F5F5F5F5F5F5F5F5F5F5F5F5F5F5F5F5F5F5F5F5F5F5F5F5F5F5F5F5F5F5F5F5F5F5F500000000000000000000000000000000000028002800F500282D2D280000000000000F0F
310
0F0FF5F5F5F5F5F5F5F5F52828282828000000000000000000000000000000000000000000000000000000000000000000000000000000C30000000000000000000000000000000000000000000000000000000000000000000000000000000000000000000000000000000000000000000000000000000000000000000000
310
000000000000000000000000000000000000000000000000000000000000000000000000000000000000000000C30000000000280000F50F0FF5F5F5F5F5F5F5F5F5F5F5F5F5F52D28282DF5F5F5F5F5F5F5F5F5F5F5F5F5F5F50FF5F500000000000000000000000000000000000028002800F50F282D2D28F52828282828
310
F5F5F5000000000000000000000000000000000000000000000000000000000000000000000000000000000000000000000000000000000000C3000000000000000000000000000000000000000000000000000000000000000000000000000000000000000000000000000000000000000000000000000000000000000000
310
0000000000000000000000000000000000000000000000000000000000000000000000000000000000000000000000C30000000000280000F50F0FF5F5F5F5F5F5F5F5F5F5F5F5F5002D2828280000F5F5F5F5F5F5F5F5F5F5F5F5F50FF5F500000000000000000000000000000000000028002800F500280F002D00F50000
310
0028000000000000000000000000000000000000000000000000000000000000000000000000000000000000000000000000000000000000000000C300000000000000000000000000000000000000000000000000000000000000000000000000000000000000000000000000000000000000000000000000000000000000
310
00000000000000000000000000000000000000000000000000000000000000000000000000000000000000000000000000C30000000028280000F500000000000000000000000000F5F5002D28282D0000F50000000000000000000000000000F500000000000000000000000000000000002828282800F500F500002D00F5
310
00000028000000000000000000000000000000000000000000000000000000000000000000000000000000000000000000000000000000000000000000C30000000000000000000000000000000000000000000000000000000000000000000000000000000000000000000000000000000000000000000000000000000000
310
000000000000000000000000000000000000000000000000000000000000000000000000000000000000000000000000000000C30000000028280000F5F5F5F5F5F5F5F5F5F5F5F5F5F5F5F5002D00282D0000F5F5F5F5F5F5F5F5F5F5F5F5F5F5F5F500000000000000000000000000000000002828282800F50028282828
310
282828282828000000000000000000000000000000000000000000000000000000000000000000000000000000000000000000000000000000000000000000C3000000000000000000000000000000000000000000000000000000000000000000000000000000000000000000000000000000000000000000000000000000
310
0000000000000000000000000000000000000000000000000000000000000000000000000000000000000000000000000000000000C30000000000280000F50000000000000000000000000000F5002D0000002D00F50000000000000000000000000000F500000000000000000000000000000000000028002800F5002DF5
310
F52D002828282828000000000000000000000000000000000000000000000000000000000000000000000000000000000000000000000000000000000000000000C300000000000000000000000000000000000000000000000000000000000000000000000000000000000000000000000000000000000000000000000000
310
00000000000000000000000000000000000000000000000000000000000000000000000000000000000000000000000000000000000000C30000000000280000F5F5F5F5F5F5F5F5F5F5F5F5F5F5F5F5002D0000002D00F5F5F5F5F5F5F5F5F5F5F5F5F5F5F5F500000000000000000000000000000000000028002800F500
310
2D00002D282828000028000000000000000000000000000000000000000000000000000000000000000000000000000000000000000000000000000000000000000000C30000000000000000000000000000000000000000000000000000000000000000000000000000000000000000000000000000000000000000000000
310
000000000000000000000000000000000000000000000000000000000000000000000000000000000000000000000000000000000000000000C30000000000280000F5000000000000000000000000000000002D0000002D00000000000000000000000000000000F500000000000000000000000000000000000028002800
310
F5002D00002DF52828000028000000000000000000000000000000000000000000000000000000000000000000000000000000000000000000000000000000000000000000C3000000000000000000000000000000000000000000000000000000000000000000000000000000000000000000000000000000000000000000
310
0000000000000000000000000000000000000000000000000000000000000000000000000000000000000000000000000000000000000000000000C3000000002828282828F5F5F5F5F5F5F5F5F5F5F5F5F5F5F5282D0000002D28F5F5F5F5F5F5F5F5F5F5F5F5F5F5F5F50000000000000000000000000000000000002828
310
282828F52DF5F52D282828282828000000000000000000000000000000000000000000000000000000000000000000000000000000000000000000000000000000000000000000C300000000000000000000000000000000000000000000000000000000000000000000000000000000000000000000000000000000000000
310
00000000000000000000000000000000000000000000000000000000000000000000000000000000000000000000000000000000000000000000000000C30000000028282828282828282828282828282828282828282828F5F5F5282800000000000000000000000000000000000000000000000000000000000000000000
310
2828282828F528F5F528280000000000000000000000000000000000000000000000000000000000000000000000000000000000000000000000000000000000000000000000000000C30000000000000000000000000000000000000000000000000000000000000000000000000000000000000000000000000000000000
310
000000000000000000000000000000000000000000000000000000000000000000000000000000000000000000000000000000000000000000000000000000C3000000000000000000000000000000000000000000000000282828282828280000000000000000000000000000000000000000000000000000000000000000
310
000000282800282828282828282800000000000000000000000000000000000000000000000000000000000000000000000000000000000000000000000000000000000000000000000000C3000000000000000000000000000000000000000000000000000000000000000000000000000000000000000000000000000000
310
0000000000000000000000000000000000000000000000000000000000000000000000000000000000000000000000000000000000000000000000000000000000C300000000000000000000000000000000000000000000000028002828002828000000000000000000000000000000000000000000000000000000000000
310
0000000000000000282800282828280000000000000000000000000000000000000000000000000000000000000000000000000000000000000000000000000000000000000000000000000000C300000000000000000000000000000000000000000000000000000000000000000000000000000000000000000000000000
310
00000000000000000000000000000000000000000000000000000000000000000000000000000000000000000000000000000000000000000000000000000000000000C30000000000000000000000000000000000000000000000002828282828282800000000000000000000000000000000000000000000000000000000
310
00000000000000000000282828282828280000000000000000000000000000000000000000000000000000000000000000000000000000000000000000000000000000000000000000000000000000C30000000000000000000000000000000000000000000000000000000000000000000000000000000000000000000000
310
000000000000000000000000000000000000000000000000000000000000000000000000000000000000000000000000000000000000000000000000000000000000000000C3000000000000000000000000000000000000000000000000282828282828280000000000000000000000000000000000000000000000000000
310
000000000000000000000000000028282800000000000000000000000000000000000000000000000000000000000000000000000000000000000000000000000000000000000000000000000000000000C3000000000000000000000000000000000000000000000000000000000000000000000000000000000000000000
310
0000000000000000000000000000000000000000000000000000000000000000000000000000000000000000000000000000000000000000000000000000000000000000000000C300000000000000000000000000000000000000000000000000002828000000000000000000000000000000000000000000000000000000
310
0000000000000000000000000000000000000000000000000000000000000000000000000000000000000000000000000000000000000000000000000000000000000000000000000000000000000000000000C300000000000000000000000000000000000000000000000000000000000000000000000000000000000000
310
00000000000000000000000000000000000000000000000000000000000000000000000000000000000000000000000000000000000000000000000000000000000000000000000000C30000000000000000000000000000000000000000000000000000000000000000000000000000000000000000000000000000000000
310
00000000000000000000000000000000000000000000000000000000000000000000000000000000000000000000000000000000000000000000000000000000000000000000000000000000000000000000000000C30000000000000000000000000000000000000000000000000000000000000000000000000000000000
310
000000000000000000000000000000000000000000000000000000000000000000000000000000000000000000000000000000000000000000000000000000000000000000000000000000C3000000000000000000000000000000000000000000000000000000000000000000000000000000000000000000000000000000
310
000000000000000000000000000000000000000000000000000000000000000000000000000000000000000000000000000000000000000000000000000000000000000000000000000000000000000000000000000000C3000000000000000000000000000000000000000000000000000000000000000000000000000000
310
0000000000000000000000000000000000000000000000000000000000000000000000000000000000000000000000000000000000000000000000000000000000000000000000000000000000C300000000000000000000000000000F0F0F0F0F000000000000000000000000000000000000000000000000000000000000
310
0000000000000000000000000000000000000000000000000000000000000000000000000000000000000000000000000000000000000000000000000000000000000000000000000000000000000000000000000000000000C300000000000000000000000000000000000000000000000000000000000000000000000000
310
00000000000000000000000000000000000000000000000000000000000000000000000000000000000000000000000000000000000000000000000000000000000000000000000000000000000000C30000000000000000000000000000000000000000000000000000000000000000000000000000000000000000000000
310
00000000000000000000000000000000000000000000000000000000000000000000000000000000000000000000000000000000000000000000000000000000000000000000000000000000000000000000000000000000000000C30000000000000000000000000000000000000000000000000000000000000000000000
310
000000000000000000000000000000000000000000000000000000000000000000000000000000000000000000000000000000000000000000000000000000000000000000000000000000000000000000C3000000000000000000000000000F0F0F0F0F0F0000000000000000000000000000000000000000000000000000
310
0000000000000000000000000000000000000F0F0F0F0000000000000000000000000000000000000000000000000000000000000000000000000000000000000000000000000000000000000000000000000000000000000000000000C3000000000000000000000000000000000000000000000000000000000000000000
310
0000000000000000000000000000000000000000000000000000000000000000000000000000000000000000000000000000000000000000000000000000000000000000000000000000000000000000000000C3000000000000000000000000000F0F0F0F0F0F000000000000000000000000000000000000000000000000
310
00000000000000000000000000000000000000000F0F0F0F0000000000000000000000000000000000000000000000000000000000000000000000000000000000000000000000000000000000000000000000000000000000000000000000C300000000000000000000000000000000000000000000000000000000000000
310
00000000000000000000000000000000000000000000000000000000000000000000000000000000000000000000000000000000000000000000000000000000000000000000000000000000000000000000000000C30000000000000000000000000000000000000000000000000000000000000000000000000000000000
310
00000000000000000000000000000000000000000000000000000000000000000000000000000000000000000000000000000000000000000000000000000000000000000000000000000000000000000000000000000000000000000000000000C30000000000000000000000000000000000000000000000000000000000
310
000000000000000000000000000000000000000000000000000000000000000000000000000000000000000000000000000000000000000000000000000000000000000000000000000000000000000000000000000000C3000000000000000000000000000000000000000000000000000000000000000000000000000000
310
000000000000000000000000000000000000000000000000000000000000000000000000000000000000000000000000000000000000000000000000000000000000000000000000000000000000000000000000000000000000000000000000000000C3000000000000000000000000000000000000000000000000000000
310
0000000000000000000000000000000000000000000000000000000000000000000000000000000000000000000000000000000000000000000000000000000000000000000000000000000000000000000000000000000000C300000000000000000000000000000000000000000000000000000000000000000000000000
310
0000000000000000000000000000000000000000000000000000000000000000000000000000000000000000000000000000000000000000000000000000000000000000000000000000000000000000000000000000000000000000000000000000000000C300000000000000000000000000000000000000000000000000
310
00000000000000000000000000000000000000000000000000000000000000000000000000000000000000000000000000000000000000000000000000000000000000000000000000000000000000000000000000000000000000C30000000000000000000000000000000000000000000000000000000000000000000000
310
00000000000000000000000000000000000000000000000000000000000000000000000000000000000000000000000000000000000000000000000000000000000000000000000000000000000000000000000000000000000000000000000000000000000000C30000000000000000000000000000000000000000000000
310
000000000000000000000000000000000000000000000000000000000000000000000000000000000000000000000000000000000000000000000000000000000000000000000000000000000000000000000000000000000000000000C3000000000000000000000000000000000000000000000000000000000000000000
310
000000000000000000000000000000000000000000000000000000000000000000000000000000000000000000000000000000000000000000000000000000000000000000000000000000000000000000000000000000000000000000000000000000000000000000C3000000000000000000000000000000000000000000
310
0000000000000000000000000000000000000000000000000000000000000000000000000000000000000000000000000000000000000000000000000000000000000000000000000000000000000000000000000000000000000000000000C300000000000000000000000000000000000000000000000000000000000000
310
0000000000000000000000000000000000000000000000000000000000000000000000000000000000000000000000000000000000000000000000000000000000000000000000000000000000000000000000000000000000000000000000000000000000000000000000C300000000000000000000000000000000000000
310
00000000000000000000000000000000000000000000000000000000000000000000000000000000000000000000000000000000000000000000000000000000000000000000000000000000000000000000000000000000000000000000000000C3C3C3C3C3C3C3C3C3C3C3C3C3C3C3C3C3C3C3C3C3C3C3C3C3C3C3C3C3C3
310
C3C3C3C3C3C3C3C3C3C3C3C3C3C3C3C3C3C3C3C3C3C3C3C3C3C3C3C3C3C3C3C3C3C3C3C3C3C3C3C3C3C3C3C3C3C3C3C3C3C3C3C3C3C3C3C3C3C3C3C3C3C3C3C3C3C3C3C3C3C3C3C3C3C3C3C3C3C3C3C3C3C3C3C3C3C3C3C3C3C3C3C3C3C3C3C3C3C3C3C3C3C3C3C3C3C3C3C3C3C30000000000000000000000000000000000
310
00000000000000000000000000000000000000000000000000000000000000000000000000000000000000000000000000000000000000000000000000000000000000000000000000000000000000000000000000000000000000000000000000000000000000000000000000000000000000000000000000000000000000
310
00000000000000000000000000000000000000000000000000000000000000000000000000000000000000000000000000000000000000000000000000000000000000000000000000000000000000000000000000000000000000000000000000000000000000000000000000000000000000000000000000000000000000
310
00000000000000000000000000000000000000000000000000000000000000000000000000000000000000000000000000000000000000000000000000000000000000000000000000000000000000000000000000000000000000000000000000000000000000000000000000000000000000000000000000000000000000
310
00000000000000000000000000000000000000000000000000000000000000000000000000000000000000000000000000000000000000000000000000000000000000000000000000000000000000000000000000000000000000000000000000000000000000000000000000000000000000000000000000000000000000
310
00000000000000000000000000000000000000000000000000000000000000000000000000000000000000000000000000000000000000000000000000000000000000000000000000000000000000000000000000000000000000000000000000000000000000000000000000000000000000000000000000000000000000
310
00000000000000000000000000000000000000000000000000000000000000000000000000000000000000000000000000000000000000000000000000000000000000000000000000000000000000000000000000000000000000000000000000000000000000000000000000000000000000000000000000000000000000
310
00000000000000000000000000000000000000000000000000000000000000000000000000000000000000000000000000000000000000000000000000000000000000000000000000000000000000000000000000000000000000000000000000000000000000000000000000000000000000000000000000000000000000
310
00000000000000000000000000000000000000000000000000000000000000000000000000000000000000000000000000000000000000000000000000000000000000000000000000000000000000000000000000000000000000000000000000000000000000000000000000000000000000000000000000000000000000
310
00000000000000000000000000000000000000000000000000000000000000000000000000000000000000000000000000000000000000000000000000000000000000000000000000000000000000000000000000000000000000000000000000000000000000000000000000000000000000000000000000000000000000
310
00000000000000000000000000000000000000000000000000000000000000000000000000000000000000000000000000000000000000000000000000000000000000000000000000000000000000000000000000000000000000000000000000000000000000000000000000000000000000000000000000000000000000
310
00000000000000000000000000000000000000000000000000000000000000000000000000000000000000000000000000000000000000000000000000000000000000000000000000000000000000000000000000000000000000000000000000000000000000000000000000000000000000000000000000000000000000
310
00000000000000000000000000000000000000000000000000000000000000000000000000000000000000000000000000000000000000000000000000000000000000000000000000000000000000000000000000000000000000000000000000000000000000000000000000000000000000000000000000000000000000
310
00000000000000000000000000000000000000000000000000000000000000000000000000000000000000000000000000000000000000000000000000000000000000000000000000000000000000000000000000000000000000000000000000000000000000000000000000000000000000000000000000000000000000
310
00000000000000000000000000000000000000000000000000000000000000000000000000000000000000000000000000000000000000000000000000000000000000000000000000000000000000000000000000000000000000000000000000000000000000000000000000000000000000000000000000000000000000
310
00000000000000000000000000000000000000000000000000000000000000000000000000000000000000000000000000000000000000000000000000000000000000000000000000000000000000000000000000000000000000000000000000000000000000000000000000000000000000000000000000000000000000
310
00000000000000000000000000000000000000000000000000000000000000000000000000000000000000000000000000000000000000000000000000000000000000000000000000000000000000000000000000000000000000000000000000000000000000000000000000000000000000000000000000000000000000
310
00000000000000000000000000000000000000000000000000000000000000000000000000000000000000000000000000000000000000000000000000000000000000000000000000000000000000000000000000000000000000000000000000000000000000000000000000000000000000000000000000000000000000
310
00000000000000000000000000000000000000000000000000000000000000000000000000000000000000000000000000000000000000000000000000000000000000000000000000000000000000000000000000000000000000000000000000000000000000000000000000000000000000000000000000000000000000
310
00000000000000000000000000000000000000000000000000000000000000000000000000000000000000000000000000000000000000000000000000000000000000000000000000000000000000000000000000000000000000000000000000000000000000000000000000000000000000000000000000000000000000
310
00000000000000000000000000000000000000000000000000000000000000000000000000000000000000000000000000000000000000000000000000000000000000000000000000000000000000000000000000000000000000000000000000000000000000000000000000000000000000000000000000000000000000
310
00000000000000000000000000000000000000000000000000000000000000000000000000000000000000000000000000000000000000000000000000000000000000000000000000000000000000000000000000000000000000000000000000000000000000000000000000000000000000000000000000000000000000
310
00000000000000000000000000000000000000000000000000000000000000000000000000000000000000000000000000000000000000000000000000000000000000000000000000000000000000000000000000000000000000000000000000000000000000000000000000000000000000000000000000000000000000
310
00000000000000000000000000000000000000000000000000000000000000000000000000000000000000000000000000000000000000000000000000000000000000000000000000000000000000000000000000000000000000000000000000000000000000000000000000000000000000000000000000000000000000
310
00000000000000000000000000000000000000000000000000000000000000000000000000000000000000000000000000000000000000000000000000000000000000000000000000000000000000000000000000000000000000000000000000000000000000000000000000000000000000000000000000000000000000
310
00000000000000000000000000000000000000000000000000000000000000000000000000000000000000000000000000000000000000000000000000000000000000000000000000000000000000000000000000000000000000000000000000000000000000000000000000000000000000000000000000000000000000
310
00000000000000000000000000000000000000000000000000000000000000000000000000000000000000000000000000000000000000000000000000000000000000000000000000000000000000000000000000000000000000000000000000000000000000000000000000000000000000000000000000000000000000
310
00000000000000000000000000000000000000000000000000000000000000000000000000000000000000000000000000000000000000000000000000000000000000000000000000000000000000000000000000000000000000000000000000000000000000000000000000000000000000000000000000000000000000
310
00000000000000000000000000000000000000000000000000000000000000000000000000000000000000000000000000000000000000000000000000000000000000000000000000000000000000000000000000000000000000000000000000000000000000000000000000000000000000000000000000000000000000
310
00000000000000000000000000000000000000000000000000000000000000000000000000000000000000000000000000000000000000000000000000000000000000000000000000000000000000000000000000000000000000000000000000000000000000000000000000000000000000000000000000000000000000
310
00000000000000000000000000000000000000000000000000000000000000000000000000000000000000000000000000000000000000000000000000000000000000000000000000000000000000000000000000000000000000000000000000000000000000000000000000000000000000000000000000000000000000
310
00000000000000000000000000000000000000000000000000000000000000000000000000000000000000000000000000000000000000000000000000000000000000000000000000000000000000000000000000000000000000000000000000000000000000000000000000000000000000000000000000000000000000
310
00000000000000000000000000000000000000000000000000000000000000000000000000000000000000000000000000000000000000000000000000000000000000000000000000000000000000000000000000000000000000000000000000000000000000000000000000000000000000000000000000000000000000
310
00000000000000000000000000000000000000000000000000000000000000000000000000000000000000000000000000000000000000000000000000000000000000000000000000000000000000000000000000000000000000000000000000000000000000000000000000000000000000000000000000000000000000
310
00000000000000000000000000000000000000000000000000000000000000000000000000000000000000000000000000000000000000000000000000000000000000000000000000000000000000000000000000000000000000000000000000000000000000000000000000000000000000000000000000000000000000
310
00000000000000000000000000000000000000000000000000000000000000000000000000000000000000000000000000000000000000000000000000000000000000000000000000000000000000000000000000000000000000000000000000000000000000000000000000000000000000000000000000000000000000
310
00000000000000000000000000000000000000000000000000000000000000000000000000000000000000000000000000000000000000000000000000000000000000000000000000000000000000000000000000000000000000000000000000000000000000000000000000000000000000000000000000000000000000
310
00000000000000000000000000000000000000000000000000000000000000000000000000000000000000000000000000000000000000000000000000000000000000000000000000000000000000000000000000000000000000000000000000000000000000000000000000000000000000000000000000000000000000
310
00000000000000000000000000000000000000000000000000000000000000000000000000000000000000000000000000000000000000000000000000000000000000000000000000000000000000000000000000000000000000000000000000000000000000000000000000000000000000000000000000000000000000
310
00000000000000000000000000000000000000000000000000000000000000000000000000000000000000000000000000000000000000000000000000000000000000000000000000000000000000000000000000000000000000000000000000000000000000000000000000000000000000000000000000000000000000
310
00000000000000000000000000000000000000000000000000000000000000000000000000000000000000000000000000000000000000000000000000000000000000000000000000000000000000000000000000000000000000000000000000000000000000000000000000000000000000000000000000000000000000
310
00000000000000000000000000000000000000000000000000000000000000000000000000000000000000000000000000000000000000000000000000000000000000000000000000000000000000000000000000000000000000000000000000000000000000000000000000000000000000000000000000000000000000
310
00000000000000000000000000000000000000000000000000000000000000000000000000000000000000000000000000000000000000000000000000000000000000000000000000000000000000000000000000000000000000000000000000000000000000000000000000000000000000000000000000000000000000
310
00000000000000000000000000000000000000000000000000000000000000000000000000000000000000000000000000000000000000000000000000000000000000000000000000000000000000000000000000000000000000000000000000000000000000000000000000000000000000000000000000000000000000
310
00000000000000000000000000000000000000000000000000000000000000000000000000000000000000000000000000000000000000000000000000000000000000000000000000000000000000000000000000000000000000000000000000000000000000000000000000000000000000000000000000000000000000
310
00000000000000000000000000000000000000000000000000000000000000000000000000000000000000000000000000000000000000000000000000000000000000000000000000000000000000000000000000000000000000000000000000000000000000000000000000000000000000000000000000000000000000
310
00000000000000000000000000000000000000000000000000000000000000000000000000000000000000000000000000000000000000000000000000000000000000000000000000000000000000000000000000000000000000000000000000000000000000000000000000000000000000000000000000000000000000
310
00000000000000000000000000000000000000000000000000000000000000000000000000000000000000000000000000000000000000000000000000000000000000000000000000000000000000000000000000000000000000000000000000000000000000000000000000000000000000000000000000000000000000
310
00000000000000000000000000000000000000000000000000000000000000000000000000000000000000000000000000000000000000000000000000000000000000000000000000000000000000000000000000000000000000000000000000000000000000000000000000000000000000000000000000000000000000
310
00000000000000000000000000000000000000000000000000000000000000000000000000000000000000000000000000000000000000000000000000000000000000000000000000000000000000000000000000000000000000000000000000000000000000000000000000000000000000000000000000000000000000
310
00000000000000000000000000000000000000000000000000000000000000000000000000000000000000000000000000000000000000000000000000000000000000000000000000000000000000000000000000000000000000000000000000000000000000000000000000000000000000000000000000000000000000
310
00000000000000000000000000000000000000000000000000000000000000000000000000000000000000000000000000000000000000000000000000000000000000000000000000000000000000000000000000000000000000000000000000000000000000000000000000000000000000000000000000000000000000
310
00000000000000000000000000000000000000000000000000000000000000000000000000000000000000000000000000000000000000000000000000000000000000000000000000000000000000000000000000000000000000000000000000000000000000000000000000000000000000000000000000000000000000
310
00000000000000000000000000000000000000000000000000000000000000000000000000000000000000000000000000000000000000000000000000000000000000000000000000000000000000000000000000000000000000000000000000000000000000000000000000000000000000000000000000000000000000
310
00000000000000000000000000000000000000000000000000000000000000000000000000000000000000000000000000000000000000000000000000000000000000000000000000000000000000000000000000000000000000000000000000000000000000000000000000000000000000000000000000000000000000
310
00000000000000000000000000000000000000000000000000000000000000000000000000000000000000000000000000000000000000000000000000000000000000000000000000000000000000000000000000000000000000000000000000000000000000000000000000000000000000000000000000000000000000
310
00000000000000000000000000000000000000000000000000000000000000000000000000000000000000000000000000000000000000000000000000000000000000000000000000000000000000000000000000000000000000000000000000000000000000000000000000000000000000000000000000000000000000
310
00000000000000000000000000000000000000000000000000000000000000000000000000000000000000000000000000000000000000000000000000000000000000000000000000000000000000000000000000000000000000000000000000000000000000000000000000000000000000000000000000000000000000
310
00000000000000000000000000000000000000000000000000000000000000000000000000000000000000000000000000000000000000000000000000000000000000000000000000000000000000000000000000000000000000000000000000000000000000000000000000000000000000000000000000000000000000
310
00000000000000000000000000000000000000000000000000000000000000000000000000000000000000000000000000000000000000000000000000000000000000000000000000000000000000000000000000000000000000000000000000000000000000000000000000000000000000000000000000000000000000
310
00000000000000000000000000000000000000000000000000000000000000000000000000000000000000000000000000000000000000000000000000000000000000000000000000000000000000000000000000000000000000000000000000000000000000000000000000000000000000000000000000000000000000
310
00000000000000000000000000000000000000000000000000000000000000000000000000000000000000000000000000000000000000000000000000000000000000000000000000000000000000000000000000000000000000000000000000000000000000000000000000000000000000000000000000000000000000
310
00000000000000000000000000000000000000000000000000000000000000000000000000000000000000000000000000000000000000000000000000000000000000000000000000000000000000000000000000000000000000000000000000000000000000000000000000000000000000000000000000000000000000
310
00000000000000000000000000000000000000000000000000000000000000000000000000000000000000000000000000000000000000000000000000000000000000000000000000000000000000000000000000000000000000000000000000000000000000000000000000000000000000000000000000000000000000
310
00000000000000000000000000000000000000000000000000000000000000000000000000000000000000000000000000000000000000000000000000000000000000000000000000000000000000000000000000000000000000000000000000000000000000000000000000000000000000000000000000000000000000
310
00000000000000000000000000000000000000000000000000000000000000000000000000000000000000000000000000000000000000000000000000000000000000000000000000000000000000000000000000000000000000000000000000000000000000000000000000000000000000000000000000000000000000
310
00000000000000000000000000000000000000000000000000000000000000000000000000000000000000000000000000000000000000000000000000000000000000000000000000000000000000000000000000000000000000000000000000000000000000000000000000000000000000000000000000000000000000
310
0000000000000000000000000000000000000000000000000000000000000000000000000000000000000000000000000000000000000000000000000000000000000000000000000000000000000000000000000000000000000000000000000000000000000000000000000000000000000000000000000000
  0
XRECORD
  5
B5AF
102
{ACAD_REACTORS
330
B5AE
102
}
330
B5AE
100
AcDbXrecord
280
     1
102
MATERIAL
148
0.0
149
0.0
149
0.0
 93
        0
 94
      127
282
     0
 72
     0
 77
     0
171
     0
175
     0
179
     0
273
     0
  0
XRECORD
  5
B5B1
102
{ACAD_REACTORS
330
B5B0
102
}
330
B5B0
100
AcDbXrecord
280
     1
102
MATERIAL
148
0.0
149
0.0
149
0.0
 93
        0
 94
      127
282
     0
 72
     0
 77
     0
171
     0
175
     0
179
     0
273
     0
  0
XRECORD
  5
B5B3
102
{ACAD_REACTORS
330
B5B2
102
}
330
B5B2
100
AcDbXrecord
280
     1
102
MATERIAL
148
0.0
149
0.0
149
0.0
 93
        0
 94
      127
282
     0
 72
     0
 77
     0
171
     0
175
     0
179
     0
273
     0
  0
XRECORD
  5
B5A8
102
{ACAD_REACTORS
330
B5A7
102
}
330
B5A7
100
AcDbXrecord
280
     1
102
DISPLAYNAME
  1
Metric50
102
FLAGS
 90
        0
  0
CELLSTYLEMAP
  5
B5B6
102
{ACAD_REACTORS
330
B5B4
102
}
330
B5B4
100
AcDbCellStyleMap
 90
        3
300
CELLSTYLE
  1
TABLEFORMAT_BEGIN
 90
        5
170
     1
 91
        0
 92
    32768
 62
   257
 93
        1
300
CONTENTFORMAT
  1
CONTENTFORMAT_BEGIN
 90
        0
 91
        0
 92
      512
 93
        0
300

 40
0.0
140
1.0
 94
        5
 62
     0
340
F
144
6.0
309
CONTENTFORMAT_END
171
     1
301
MARGIN
  1
CELLMARGIN_BEGIN
 40
1.5
 40
1.5
 40
1.5
 40
1.5
 40
4.5
 40
4.5
309
CELLMARGIN_END
 94
        6
 95
        1
302
GRIDFORMAT
  1
GRIDFORMAT_BEGIN
 90
        0
 91
        1
 62
     0
 92
       -2
340
0
 93
        0
 40
1.125
309
GRIDFORMAT_END
 95
        2
302
GRIDFORMAT
  1
GRIDFORMAT_BEGIN
 90
        0
 91
        1
 62
     0
 92
       -2
340
0
 93
        0
 40
1.125
309
GRIDFORMAT_END
 95
        4
302
GRIDFORMAT
  1
GRIDFORMAT_BEGIN
 90
        0
 91
        1
 62
     0
 92
       -2
340
0
 93
        0
 40
1.125
309
GRIDFORMAT_END
 95
        8
302
GRIDFORMAT
  1
GRIDFORMAT_BEGIN
 90
        0
 91
        1
 62
     0
 92
       -2
340
0
 93
        0
 40
1.125
309
GRIDFORMAT_END
 95
       16
302
GRIDFORMAT
  1
GRIDFORMAT_BEGIN
 90
        0
 91
        1
 62
     0
 92
       -2
340
0
 93
        0
 40
1.125
309
GRIDFORMAT_END
 95
       32
302
GRIDFORMAT
  1
GRIDFORMAT_BEGIN
 90
        0
 91
        1
 62
     0
 92
       -2
340
0
 93
        0
 40
1.125
309
GRIDFORMAT_END
309
TABLEFORMAT_END
  1
CELLSTYLE_BEGIN
 90
        1
 91
        1
300
_TITLE
309
CELLSTYLE_END
300
CELLSTYLE
  1
TABLEFORMAT_BEGIN
 90
        5
170
     1
 91
        0
 92
        0
 62
   257
 93
        1
300
CONTENTFORMAT
  1
CONTENTFORMAT_BEGIN
 90
        0
 91
        0
 92
      512
 93
        0
300

 40
0.0
140
1.0
 94
        5
 62
     0
340
F
144
4.5
309
CONTENTFORMAT_END
171
     1
301
MARGIN
  1
CELLMARGIN_BEGIN
 40
1.5
 40
1.5
 40
1.5
 40
1.5
 40
4.5
 40
4.5
309
CELLMARGIN_END
 94
        6
 95
        1
302
GRIDFORMAT
  1
GRIDFORMAT_BEGIN
 90
        0
 91
        1
 62
     0
 92
       -2
340
0
 93
        0
 40
1.125
309
GRIDFORMAT_END
 95
        2
302
GRIDFORMAT
  1
GRIDFORMAT_BEGIN
 90
        0
 91
        1
 62
     0
 92
       -2
340
0
 93
        0
 40
1.125
309
GRIDFORMAT_END
 95
        4
302
GRIDFORMAT
  1
GRIDFORMAT_BEGIN
 90
        0
 91
        1
 62
     0
 92
       -2
340
0
 93
        0
 40
1.125
309
GRIDFORMAT_END
 95
        8
302
GRIDFORMAT
  1
GRIDFORMAT_BEGIN
 90
        0
 91
        1
 62
     0
 92
       -2
340
0
 93
        0
 40
1.125
309
GRIDFORMAT_END
 95
       16
302
GRIDFORMAT
  1
GRIDFORMAT_BEGIN
 90
        0
 91
        1
 62
     0
 92
       -2
340
0
 93
        0
 40
1.125
309
GRIDFORMAT_END
 95
       32
302
GRIDFORMAT
  1
GRIDFORMAT_BEGIN
 90
        0
 91
        1
 62
     0
 92
       -2
340
0
 93
        0
 40
1.125
309
GRIDFORMAT_END
309
TABLEFORMAT_END
  1
CELLSTYLE_BEGIN
 90
        2
 91
        1
300
_HEADER
309
CELLSTYLE_END
300
CELLSTYLE
  1
TABLEFORMAT_BEGIN
 90
        5
170
     1
 91
        0
 92
        0
 62
   257
 93
        1
300
CONTENTFORMAT
  1
CONTENTFORMAT_BEGIN
 90
        0
 91
        0
 92
      512
 93
        0
300

 40
0.0
140
1.0
 94
        2
 62
     0
340
F
144
4.5
309
CONTENTFORMAT_END
171
     1
301
MARGIN
  1
CELLMARGIN_BEGIN
 40
1.5
 40
1.5
 40
1.5
 40
1.5
 40
4.5
 40
4.5
309
CELLMARGIN_END
 94
        6
 95
        1
302
GRIDFORMAT
  1
GRIDFORMAT_BEGIN
 90
        0
 91
        1
 62
     0
 92
       -2
340
0
 93
        0
 40
1.125
309
GRIDFORMAT_END
 95
        2
302
GRIDFORMAT
  1
GRIDFORMAT_BEGIN
 90
        0
 91
        1
 62
     0
 92
       -2
340
0
 93
        0
 40
1.125
309
GRIDFORMAT_END
 95
        4
302
GRIDFORMAT
  1
GRIDFORMAT_BEGIN
 90
        0
 91
        1
 62
     0
 92
       -2
340
0
 93
        0
 40
1.125
309
GRIDFORMAT_END
 95
        8
302
GRIDFORMAT
  1
GRIDFORMAT_BEGIN
 90
        0
 91
        1
 62
     0
 92
       -2
340
0
 93
        0
 40
1.125
309
GRIDFORMAT_END
 95
       16
302
GRIDFORMAT
  1
GRIDFORMAT_BEGIN
 90
        0
 91
        1
 62
     0
 92
       -2
340
0
 93
        0
 40
1.125
309
GRIDFORMAT_END
 95
       32
302
GRIDFORMAT
  1
GRIDFORMAT_BEGIN
 90
        0
 91
        1
 62
     0
 92
       -2
340
0
 93
        0
 40
1.125
309
GRIDFORMAT_END
309
TABLEFORMAT_END
  1
CELLSTYLE_BEGIN
 90
        3
 91
        2
300
_DATA
309
CELLSTYLE_END
  0
XRECORD
  5
B5B5
102
{ACAD_REACTORS
330
B5B4
102
}
330
B5B4
100
AcDbXrecord
280
     1
102
ACAD_ROUNDTRIP_PRE2007_TABLESTYLE
 90
      512
 91
        0
  1

 92
      512
 93
        0
  2

 94
      512
 95
        0
  3

  0
XRECORD
  5
B5B9
102
{ACAD_REACTORS
330
B5B8
102
}
330
B5B8
100
AcDbXrecord
280
     1
102
RTVSPropertyOp0
 70
     1
102
RTVSPropertyOp1
 70
     1
102
RTVSPropertyOp2
 70
     1
102
RTVSPropertyOp3
 70
     1
102
RTVSPropertyOp4
 70
     1
102
RTVSPropertyOp5
 70
     1
102
RTVSPropertyOp6
 70
     1
102
RTVSPropertyOp7
 70
     1
102
RTVSPropertyOp8
 70
     1
102
RTVSPropertyOp9
 70
     1
102
RTVSPropertyOp10
 70
     1
102
RTVSPropertyOp11
 70
     1
102
RTVSPropertyOp12
 70
     1
102
RTVSPropertyOp13
 70
     1
102
RTVSPropertyOp14
 70
     1
102
RTVSPropertyOp15
 70
     1
102
RTVSPropertyOp16
 70
     1
102
RTVSPropertyOp17
 70
     1
102
RTVSPropertyOp18
 70
     1
102
RTVSPropertyOp19
 70
     1
102
RTVSPropertyOp20
 70
     1
102
RTVSPropertyOp21
 70
     1
102
RTVSPropertyOp22
 70
     1
102
RTVSPropertyOp23
 70
     1
102
RTVSPropertyOp24
 70
     1
102
RTVSPropertyOp25
 70
     1
102
RTVSPropertyOp26
 70
     1
102
RTVSPropertyOp27
 70
     1
  0
XRECORD
  5
B5BB
102
{ACAD_REACTORS
330
B5BA
102
}
330
B5BA
100
AcDbXrecord
280
     1
102
RTVSPropertyOp0
 70
     1
102
RTVSPropertyOp1
 70
     1
102
RTVSPropertyOp2
 70
     1
102
RTVSPropertyOp3
 70
     1
102
RTVSPropertyOp4
 70
     1
102
RTVSPropertyOp5
 70
     1
102
RTVSPropertyOp6
 70
     1
102
RTVSPropertyOp7
 70
     1
102
RTVSPropertyOp8
 70
     1
102
RTVSPropertyOp9
 70
     1
102
RTVSPropertyOp10
 70
     1
102
RTVSPropertyOp11
 70
     1
102
RTVSPropertyOp12
 70
     1
102
RTVSPropertyOp13
 70
     1
102
RTVSPropertyOp14
 70
     1
102
RTVSPropertyOp15
 70
     1
102
RTVSPropertyOp16
 70
     1
102
RTVSPropertyOp17
 70
     1
102
RTVSPropertyOp18
 70
     1
102
RTVSPropertyOp19
 70
     1
102
RTVSPropertyOp20
 70
     1
102
RTVSPropertyOp21
 70
     1
102
RTVSPropertyOp22
 70
     1
102
RTVSPropertyOp23
 70
     1
102
RTVSPropertyOp24
 70
     1
102
RTVSPropertyOp25
 70
     1
102
RTVSPropertyOp26
 70
     1
102
RTVSPropertyOp27
 70
     1
  0
XRECORD
  5
B5BD
102
{ACAD_REACTORS
330
B5BC
102
}
330
B5BC
100
AcDbXrecord
280
     1
102
RTVSPropertyOp0
 70
     1
102
RTVSPropertyOp1
 70
     1
102
RTVSPropertyOp2
 70
     1
102
RTVSPropertyOp3
 70
     1
102
RTVSPropertyOp4
 70
     1
102
RTVSPropertyOp5
 70
     1
102
RTVSPropertyOp6
 70
     1
102
RTVSPropertyOp7
 70
     1
102
RTVSPropertyOp8
 70
     1
102
RTVSPropertyOp9
 70
     1
102
RTVSPropertyOp10
 70
     1
102
RTVSPropertyOp11
 70
     1
102
RTVSPropertyOp12
 70
     1
102
RTVSPropertyOp13
 70
     1
102
RTVSPropertyOp14
 70
     1
102
RTVSPropertyOp15
 70
     1
102
RTVSPropertyOp16
 70
     1
102
RTVSPropertyOp17
 70
     1
102
RTVSPropertyOp18
 70
     1
102
RTVSPropertyOp19
 70
     1
102
RTVSPropertyOp20
 70
     1
102
RTVSPropertyOp21
 70
     1
102
RTVSPropertyOp22
 70
     1
102
RTVSPropertyOp23
 70
     1
102
RTVSPropertyOp24
 70
     1
102
RTVSPropertyOp25
 70
     1
102
RTVSPropertyOp26
 70
     1
102
RTVSPropertyOp27
 70
     1
  0
XRECORD
  5
B5BF
102
{ACAD_REACTORS
330
B5BE
102
}
330
B5BE
100
AcDbXrecord
280
     1
102
RTVSPropertyOp0
 70
     1
102
RTVSPropertyOp1
 70
     1
102
RTVSPropertyOp2
 70
     1
102
RTVSPropertyOp3
 70
     1
102
RTVSPropertyOp4
 70
     1
102
RTVSPropertyOp5
 70
     1
102
RTVSPropertyOp6
 70
     1
102
RTVSPropertyOp7
 70
     1
102
RTVSPropertyOp8
 70
     1
102
RTVSPropertyOp9
 70
     1
102
RTVSPropertyOp10
 70
     1
102
RTVSPropertyOp11
 70
     1
102
RTVSPropertyOp12
 70
     1
102
RTVSPropertyOp13
 70
     1
102
RTVSPropertyOp14
 70
     1
102
RTVSPropertyOp15
 70
     1
102
RTVSPropertyOp16
 70
     1
102
RTVSPropertyOp17
 70
     1
102
RTVSPropertyOp18
 70
     1
102
RTVSPropertyOp19
 70
     1
102
RTVSPropertyOp20
 70
     1
102
RTVSPropertyOp21
 70
     1
102
RTVSPropertyOp22
 70
     1
102
RTVSPropertyOp23
 70
     1
102
RTVSPropertyOp24
 70
     1
102
RTVSPropertyOp25
 70
     1
102
RTVSPropertyOp26
 70
     1
102
RTVSPropertyOp27
 70
     1
  0
XRECORD
  5
B5C1
102
{ACAD_REACTORS
330
B5C0
102
}
330
B5C0
100
AcDbXrecord
280
     1
102
RTVSPropertyOp0
 70
     1
102
RTVSPropertyOp1
 70
     1
102
RTVSPropertyOp2
 70
     1
102
RTVSPropertyOp3
 70
     1
102
RTVSPropertyOp4
 70
     1
102
RTVSPropertyOp5
 70
     1
102
RTVSPropertyOp6
 70
     1
102
RTVSPropertyOp7
 70
     1
102
RTVSPropertyOp8
 70
     1
102
RTVSPropertyOp9
 70
     1
102
RTVSPropertyOp10
 70
     1
102
RTVSPropertyOp11
 70
     1
102
RTVSPropertyOp12
 70
     1
102
RTVSPropertyOp13
 70
     1
102
RTVSPropertyOp14
 70
     1
102
RTVSPropertyOp15
 70
     1
102
RTVSPropertyOp16
 70
     1
102
RTVSPropertyOp17
 70
     1
102
RTVSPropertyOp18
 70
     1
102
RTVSPropertyOp19
 70
     1
102
RTVSPropertyOp20
 70
     1
102
RTVSPropertyOp21
 70
     1
102
RTVSPropertyOp22
 70
     1
102
RTVSPropertyOp23
 70
     1
102
RTVSPropertyOp24
 70
     1
102
RTVSPropertyOp25
 70
     1
102
RTVSPropertyOp26
 70
     1
102
RTVSPropertyOp27
 70
     1
  0
XRECORD
  5
B5C3
102
{ACAD_REACTORS
330
B5C2
102
}
330
B5C2
100
AcDbXrecord
280
     1
102
RTVSPropertyOp0
 70
     1
102
RTVSPropertyOp1
 70
     1
102
RTVSPropertyOp2
 70
     1
102
RTVSPropertyOp3
 70
     1
102
RTVSPropertyOp4
 70
     1
102
RTVSPropertyOp5
 70
     1
102
RTVSPropertyOp6
 70
     1
102
RTVSPropertyOp7
 70
     1
102
RTVSPropertyOp8
 70
     1
102
RTVSPropertyOp9
 70
     1
102
RTVSPropertyOp10
 70
     1
102
RTVSPropertyOp11
 70
     1
102
RTVSPropertyOp12
 70
     1
102
RTVSPropertyOp13
 70
     1
102
RTVSPropertyOp14
 70
     1
102
RTVSPropertyOp15
 70
     1
102
RTVSPropertyOp16
 70
     1
102
RTVSPropertyOp17
 70
     1
102
RTVSPropertyOp18
 70
     1
102
RTVSPropertyOp19
 70
     1
102
RTVSPropertyOp20
 70
     1
102
RTVSPropertyOp21
 70
     1
102
RTVSPropertyOp22
 70
     1
102
RTVSPropertyOp23
 70
     1
102
RTVSPropertyOp24
 70
     1
102
RTVSPropertyOp25
 70
     1
102
RTVSPropertyOp26
 70
     1
102
RTVSPropertyOp27
 70
     1
  0
XRECORD
  5
B5C5
102
{ACAD_REACTORS
330
B5C4
102
}
330
B5C4
100
AcDbXrecord
280
     1
102
RTVSPropertyOp0
 70
     1
102
RTVSPropertyOp1
 70
     1
102
RTVSPropertyOp2
 70
     1
102
RTVSPropertyOp3
 70
     1
102
RTVSPropertyOp4
 70
     1
102
RTVSPropertyOp5
 70
     1
102
RTVSPropertyOp6
 70
     1
102
RTVSPropertyOp7
 70
     1
102
RTVSPropertyOp8
 70
     1
102
RTVSPropertyOp9
 70
     1
102
RTVSPropertyOp10
 70
     1
102
RTVSPropertyOp11
 70
     1
102
RTVSPropertyOp12
 70
     1
102
RTVSPropertyOp13
 70
     1
102
RTVSPropertyOp14
 70
     1
102
RTVSPropertyOp15
 70
     1
102
RTVSPropertyOp16
 70
     1
102
RTVSPropertyOp17
 70
     1
102
RTVSPropertyOp18
 70
     1
102
RTVSPropertyOp19
 70
     1
102
RTVSPropertyOp20
 70
     1
102
RTVSPropertyOp21
 70
     1
102
RTVSPropertyOp22
 70
     1
102
RTVSPropertyOp23
 70
     1
102
RTVSPropertyOp24
 70
     1
102
RTVSPropertyOp25
 70
     1
102
RTVSPropertyOp26
 70
     1
102
RTVSPropertyOp27
 70
     1
  0
XRECORD
  5
B5C7
102
{ACAD_REACTORS
330
B5C6
102
}
330
B5C6
100
AcDbXrecord
280
     1
102
RTVSPropertyOp0
 70
     1
102
RTVSPropertyOp1
 70
     1
102
RTVSPropertyOp2
 70
     1
102
RTVSPropertyOp3
 70
     1
102
RTVSPropertyOp4
 70
     1
102
RTVSPropertyOp5
 70
     1
102
RTVSPropertyOp6
 70
     1
102
RTVSPropertyOp7
 70
     1
102
RTVSPropertyOp8
 70
     1
102
RTVSPropertyOp9
 70
     1
102
RTVSPropertyOp10
 70
     1
102
RTVSPropertyOp11
 70
     1
102
RTVSPropertyOp12
 70
     1
102
RTVSPropertyOp13
 70
     1
102
RTVSPropertyOp14
 70
     1
102
RTVSPropertyOp15
 70
     1
102
RTVSPropertyOp16
 70
     1
102
RTVSPropertyOp17
 70
     1
102
RTVSPropertyOp18
 70
     1
102
RTVSPropertyOp19
 70
     1
102
RTVSPropertyOp20
 70
     1
102
RTVSPropertyOp21
 70
     1
102
RTVSPropertyOp22
 70
     1
102
RTVSPropertyOp23
 70
     1
102
RTVSPropertyOp24
 70
     1
102
RTVSPropertyOp25
 70
     1
102
RTVSPropertyOp26
 70
     1
102
RTVSPropertyOp27
 70
     1
  0
XRECORD
  5
B5C9
102
{ACAD_REACTORS
330
B5C8
102
}
330
B5C8
100
AcDbXrecord
280
     1
102
RTVSPropertyOp0
 70
     1
102
RTVSPropertyOp1
 70
     1
102
RTVSPropertyOp2
 70
     1
102
RTVSPropertyOp3
 70
     1
102
RTVSPropertyOp4
 70
     1
102
RTVSPropertyOp5
 70
     1
102
RTVSPropertyOp6
 70
     1
102
RTVSPropertyOp7
 70
     1
102
RTVSPropertyOp8
 70
     1
102
RTVSPropertyOp9
 70
     1
102
RTVSPropertyOp10
 70
     1
102
RTVSPropertyOp11
 70
     1
102
RTVSPropertyOp12
 70
     1
102
RTVSPropertyOp13
 70
     1
102
RTVSPropertyOp14
 70
     1
102
RTVSPropertyOp15
 70
     1
102
RTVSPropertyOp16
 70
     1
102
RTVSPropertyOp17
 70
     1
102
RTVSPropertyOp18
 70
     1
102
RTVSPropertyOp19
 70
     1
102
RTVSPropertyOp20
 70
     1
102
RTVSPropertyOp21
 70
     1
102
RTVSPropertyOp22
 70
     1
102
RTVSPropertyOp23
 70
     1
102
RTVSPropertyOp24
 70
     1
102
RTVSPropertyOp25
 70
     1
102
RTVSPropertyOp26
 70
     1
102
RTVSPropertyOp27
 70
     1
  0
XRECORD
  5
B5CB
102
{ACAD_REACTORS
330
B5CA
102
}
330
B5CA
100
AcDbXrecord
280
     1
102
RTVSPropertyOp0
 70
     1
102
RTVSPropertyOp1
 70
     1
102
RTVSPropertyOp2
 70
     1
102
RTVSPropertyOp3
 70
     1
102
RTVSPropertyOp4
 70
     1
102
RTVSPropertyOp5
 70
     1
102
RTVSPropertyOp6
 70
     1
102
RTVSPropertyOp7
 70
     1
102
RTVSPropertyOp8
 70
     1
102
RTVSPropertyOp9
 70
     1
102
RTVSPropertyOp10
 70
     1
102
RTVSPropertyOp11
 70
     1
102
RTVSPropertyOp12
 70
     1
102
RTVSPropertyOp13
 70
     1
102
RTVSPropertyOp14
 70
     1
102
RTVSPropertyOp15
 70
     1
102
RTVSPropertyOp16
 70
     1
102
RTVSPropertyOp17
 70
     1
102
RTVSPropertyOp18
 70
     1
102
RTVSPropertyOp19
 70
     1
102
RTVSPropertyOp20
 70
     1
102
RTVSPropertyOp21
 70
     1
102
RTVSPropertyOp22
 70
     1
102
RTVSPropertyOp23
 70
     1
102
RTVSPropertyOp24
 70
     1
102
RTVSPropertyOp25
 70
     1
102
RTVSPropertyOp26
 70
     1
102
RTVSPropertyOp27
 70
     1
  0
XRECORD
  5
B5CD
102
{ACAD_REACTORS
330
B5CC
102
}
330
B5CC
100
AcDbXrecord
280
     1
102
RTVSPropertyOp0
 70
     1
102
RTVSPropertyOp1
 70
     1
102
RTVSPropertyOp2
 70
     1
102
RTVSPropertyOp3
 70
     1
102
RTVSPropertyOp4
 70
     1
102
RTVSPropertyOp5
 70
     1
102
RTVSPropertyOp6
 70
     1
102
RTVSPropertyOp7
 70
     1
102
RTVSPropertyOp8
 70
     1
102
RTVSPropertyOp9
 70
     1
102
RTVSPropertyOp10
 70
     1
102
RTVSPropertyOp11
 70
     1
102
RTVSPropertyOp12
 70
     1
102
RTVSPropertyOp13
 70
     1
102
RTVSPropertyOp14
 70
     1
102
RTVSPropertyOp15
 70
     1
102
RTVSPropertyOp16
 70
     1
102
RTVSPropertyOp17
 70
     1
102
RTVSPropertyOp18
 70
     1
102
RTVSPropertyOp19
 70
     1
102
RTVSPropertyOp20
 70
     1
102
RTVSPropertyOp21
 70
     1
102
RTVSPropertyOp22
 70
     1
102
RTVSPropertyOp23
 70
     1
102
RTVSPropertyOp24
 70
     1
102
RTVSPropertyOp25
 70
     1
102
RTVSPropertyOp26
 70
     1
102
RTVSPropertyOp27
 70
     1
  0
XRECORD
  5
B5CF
102
{ACAD_REACTORS
330
B5CE
102
}
330
B5CE
100
AcDbXrecord
280
     1
102
RTVSPropertyOp0
 70
     1
102
RTVSPropertyOp1
 70
     1
102
RTVSPropertyOp2
 70
     1
102
RTVSPropertyOp3
 70
     1
102
RTVSPropertyOp4
 70
     1
102
RTVSPropertyOp5
 70
     1
102
RTVSPropertyOp6
 70
     1
102
RTVSPropertyOp7
 70
     1
102
RTVSPropertyOp8
 70
     1
102
RTVSPropertyOp9
 70
     1
102
RTVSPropertyOp10
 70
     1
102
RTVSPropertyOp11
 70
     1
102
RTVSPropertyOp12
 70
     1
102
RTVSPropertyOp13
 70
     1
102
RTVSPropertyOp14
 70
     1
102
RTVSPropertyOp15
 70
     1
102
RTVSPropertyOp16
 70
     1
102
RTVSPropertyOp17
 70
     1
102
RTVSPropertyOp18
 70
     1
102
RTVSPropertyOp19
 70
     1
102
RTVSPropertyOp20
 70
     1
102
RTVSPropertyOp21
 70
     1
102
RTVSPropertyOp22
 70
     1
102
RTVSPropertyOp23
 70
     1
102
RTVSPropertyOp24
 70
     1
102
RTVSPropertyOp25
 70
     1
102
RTVSPropertyOp26
 70
     1
102
RTVSPropertyOp27
 70
     1
  0
XRECORD
  5
B5D1
102
{ACAD_REACTORS
330
B5D0
102
}
330
B5D0
100
AcDbXrecord
280
     1
102
RTVSPropertyOp0
 70
     1
102
RTVSPropertyOp1
 70
     1
102
RTVSPropertyOp2
 70
     1
102
RTVSPropertyOp3
 70
     1
102
RTVSPropertyOp4
 70
     1
102
RTVSPropertyOp5
 70
     1
102
RTVSPropertyOp6
 70
     1
102
RTVSPropertyOp7
 70
     1
102
RTVSPropertyOp8
 70
     1
102
RTVSPropertyOp9
 70
     1
102
RTVSPropertyOp10
 70
     1
102
RTVSPropertyOp11
 70
     1
102
RTVSPropertyOp12
 70
     1
102
RTVSPropertyOp13
 70
     1
102
RTVSPropertyOp14
 70
     1
102
RTVSPropertyOp15
 70
     1
102
RTVSPropertyOp16
 70
     1
102
RTVSPropertyOp17
 70
     1
102
RTVSPropertyOp18
 70
     1
102
RTVSPropertyOp19
 70
     1
102
RTVSPropertyOp20
 70
     1
102
RTVSPropertyOp21
 70
     1
102
RTVSPropertyOp22
 70
     1
102
RTVSPropertyOp23
 70
     1
102
RTVSPropertyOp24
 70
     1
102
RTVSPropertyOp25
 70
     1
102
RTVSPropertyOp26
 70
     1
102
RTVSPropertyOp27
 70
     1
  0
XRECORD
  5
B5D3
102
{ACAD_REACTORS
330
B5D2
102
}
330
B5D2
100
AcDbXrecord
280
     1
102
RTVSPropertyOp0
 70
     1
102
RTVSPropertyOp1
 70
     1
102
RTVSPropertyOp2
 70
     1
102
RTVSPropertyOp3
 70
     1
102
RTVSPropertyOp4
 70
     1
102
RTVSPropertyOp5
 70
     1
102
RTVSPropertyOp6
 70
     1
102
RTVSPropertyOp7
 70
     1
102
RTVSPropertyOp8
 70
     1
102
RTVSPropertyOp9
 70
     1
102
RTVSPropertyOp10
 70
     1
102
RTVSPropertyOp11
 70
     1
102
RTVSPropertyOp12
 70
     1
102
RTVSPropertyOp13
 70
     1
102
RTVSPropertyOp14
 70
     1
102
RTVSPropertyOp15
 70
     1
102
RTVSPropertyOp16
 70
     1
102
RTVSPropertyOp17
 70
     1
102
RTVSPropertyOp18
 70
     1
102
RTVSPropertyOp19
 70
     1
102
RTVSPropertyOp20
 70
     1
102
RTVSPropertyOp21
 70
     1
102
RTVSPropertyOp22
 70
     1
102
RTVSPropertyOp23
 70
     1
102
RTVSPropertyOp24
 70
     1
102
RTVSPropertyOp25
 70
     1
102
RTVSPropertyOp26
 70
     1
102
RTVSPropertyOp27
 70
     1
  0
XRECORD
  5
B5D5
102
{ACAD_REACTORS
330
B5D4
102
}
330
B5D4
100
AcDbXrecord
280
     1
102
RTVSPropertyOp0
 70
     1
102
RTVSPropertyOp1
 70
     1
102
RTVSPropertyOp2
 70
     1
102
RTVSPropertyOp3
 70
     1
102
RTVSPropertyOp4
 70
     1
102
RTVSPropertyOp5
 70
     1
102
RTVSPropertyOp6
 70
     1
102
RTVSPropertyOp7
 70
     1
102
RTVSPropertyOp8
 70
     1
102
RTVSPropertyOp9
 70
     1
102
RTVSPropertyOp10
 70
     1
102
RTVSPropertyOp11
 70
     1
102
RTVSPropertyOp12
 70
     1
102
RTVSPropertyOp13
 70
     1
102
RTVSPropertyOp14
 70
     1
102
RTVSPropertyOp15
 70
     1
102
RTVSPropertyOp16
 70
     1
102
RTVSPropertyOp17
 70
     1
102
RTVSPropertyOp18
 70
     1
102
RTVSPropertyOp19
 70
     1
102
RTVSPropertyOp20
 70
     1
102
RTVSPropertyOp21
 70
     1
102
RTVSPropertyOp22
 70
     1
102
RTVSPropertyOp23
 70
     1
102
RTVSPropertyOp24
 70
     1
102
RTVSPropertyOp25
 70
     1
102
RTVSPropertyOp26
 70
     1
102
RTVSPropertyOp27
 70
     1
  0
XRECORD
  5
B5D7
102
{ACAD_REACTORS
330
B5D6
102
}
330
B5D6
100
AcDbXrecord
280
     1
102
RTVSPropertyOp0
 70
     1
102
RTVSPropertyOp1
 70
     1
102
RTVSPropertyOp2
 70
     1
102
RTVSPropertyOp3
 70
     1
102
RTVSPropertyOp4
 70
     1
102
RTVSPropertyOp5
 70
     1
102
RTVSPropertyOp6
 70
     1
102
RTVSPropertyOp7
 70
     1
102
RTVSPropertyOp8
 70
     1
102
RTVSPropertyOp9
 70
     1
102
RTVSPropertyOp10
 70
     1
102
RTVSPropertyOp11
 70
     1
102
RTVSPropertyOp12
 70
     1
102
RTVSPropertyOp13
 70
     1
102
RTVSPropertyOp14
 70
     1
102
RTVSPropertyOp15
 70
     1
102
RTVSPropertyOp16
 70
     1
102
RTVSPropertyOp17
 70
     1
102
RTVSPropertyOp18
 70
     1
102
RTVSPropertyOp19
 70
     1
102
RTVSPropertyOp20
 70
     1
102
RTVSPropertyOp21
 70
     1
102
RTVSPropertyOp22
 70
     1
102
RTVSPropertyOp23
 70
     1
102
RTVSPropertyOp24
 70
     1
102
RTVSPropertyOp25
 70
     1
102
RTVSPropertyOp26
 70
     1
102
RTVSPropertyOp27
 70
     1
  0
XRECORD
  5
B5D9
102
{ACAD_REACTORS
330
B5D8
102
}
330
B5D8
100
AcDbXrecord
280
     1
102
RTVSPropertyOp0
 70
     1
102
RTVSPropertyOp1
 70
     1
102
RTVSPropertyOp2
 70
     1
102
RTVSPropertyOp3
 70
     1
102
RTVSPropertyOp4
 70
     1
102
RTVSPropertyOp5
 70
     1
102
RTVSPropertyOp6
 70
     1
102
RTVSPropertyOp7
 70
     1
102
RTVSPropertyOp8
 70
     1
102
RTVSPropertyOp9
 70
     1
102
RTVSPropertyOp10
 70
     1
102
RTVSPropertyOp11
 70
     1
102
RTVSPropertyOp12
 70
     1
102
RTVSPropertyOp13
 70
     1
102
RTVSPropertyOp14
 70
     1
102
RTVSPropertyOp15
 70
     1
102
RTVSPropertyOp16
 70
     1
102
RTVSPropertyOp17
 70
     1
102
RTVSPropertyOp18
 70
     1
102
RTVSPropertyOp19
 70
     1
102
RTVSPropertyOp20
 70
     1
102
RTVSPropertyOp21
 70
     1
102
RTVSPropertyOp22
 70
     1
102
RTVSPropertyOp23
 70
     1
102
RTVSPropertyOp24
 70
     1
102
RTVSPropertyOp25
 70
     1
102
RTVSPropertyOp26
 70
     1
102
RTVSPropertyOp27
 70
     1
  0
XRECORD
  5
B5DB
102
{ACAD_REACTORS
330
B5DA
102
}
330
B5DA
100
AcDbXrecord
280
     1
102
RTVSPropertyOp0
 70
     1
102
RTVSPropertyOp1
 70
     1
102
RTVSPropertyOp2
 70
     1
102
RTVSPropertyOp3
 70
     1
102
RTVSPropertyOp4
 70
     1
102
RTVSPropertyOp5
 70
     1
102
RTVSPropertyOp6
 70
     1
102
RTVSPropertyOp7
 70
     1
102
RTVSPropertyOp8
 70
     1
102
RTVSPropertyOp9
 70
     1
102
RTVSPropertyOp10
 70
     1
102
RTVSPropertyOp11
 70
     1
102
RTVSPropertyOp12
 70
     1
102
RTVSPropertyOp13
 70
     1
102
RTVSPropertyOp14
 70
     1
102
RTVSPropertyOp15
 70
     1
102
RTVSPropertyOp16
 70
     1
102
RTVSPropertyOp17
 70
     1
102
RTVSPropertyOp18
 70
     1
102
RTVSPropertyOp19
 70
     1
102
RTVSPropertyOp20
 70
     1
102
RTVSPropertyOp21
 70
     1
102
RTVSPropertyOp22
 70
     1
102
RTVSPropertyOp23
 70
     1
102
RTVSPropertyOp24
 70
     1
102
RTVSPropertyOp25
 70
     1
102
RTVSPropertyOp26
 70
     1
102
RTVSPropertyOp27
 70
     1
  0
XRECORD
  5
B5DD
102
{ACAD_REACTORS
330
B5DC
102
}
330
B5DC
100
AcDbXrecord
280
     1
102
RTVSPropertyOp0
 70
     1
102
RTVSPropertyOp1
 70
     1
102
RTVSPropertyOp2
 70
     1
102
RTVSPropertyOp3
 70
     1
102
RTVSPropertyOp4
 70
     1
102
RTVSPropertyOp5
 70
     1
102
RTVSPropertyOp6
 70
     1
102
RTVSPropertyOp7
 70
     1
102
RTVSPropertyOp8
 70
     1
102
RTVSPropertyOp9
 70
     1
102
RTVSPropertyOp10
 70
     1
102
RTVSPropertyOp11
 70
     1
102
RTVSPropertyOp12
 70
     1
102
RTVSPropertyOp13
 70
     1
102
RTVSPropertyOp14
 70
     1
102
RTVSPropertyOp15
 70
     1
102
RTVSPropertyOp16
 70
     1
102
RTVSPropertyOp17
 70
     1
102
RTVSPropertyOp18
 70
     1
102
RTVSPropertyOp19
 70
     1
102
RTVSPropertyOp20
 70
     1
102
RTVSPropertyOp21
 70
     1
102
RTVSPropertyOp22
 70
     1
102
RTVSPropertyOp23
 70
     1
102
RTVSPropertyOp24
 70
     1
102
RTVSPropertyOp25
 70
     1
102
RTVSPropertyOp26
 70
     1
102
RTVSPropertyOp27
 70
     1
  0
XRECORD
  5
B5DF
102
{ACAD_REACTORS
330
B5DE
102
}
330
B5DE
100
AcDbXrecord
280
     1
102
RTVSPropertyOp0
 70
     1
102
RTVSPropertyOp1
 70
     1
102
RTVSPropertyOp2
 70
     1
102
RTVSPropertyOp3
 70
     1
102
RTVSPropertyOp4
 70
     1
102
RTVSPropertyOp5
 70
     1
102
RTVSPropertyOp6
 70
     1
102
RTVSPropertyOp7
 70
     1
102
RTVSPropertyOp8
 70
     1
102
RTVSPropertyOp9
 70
     1
102
RTVSPropertyOp10
 70
     1
102
RTVSPropertyOp11
 70
     1
102
RTVSPropertyOp12
 70
     1
102
RTVSPropertyOp13
 70
     1
102
RTVSPropertyOp14
 70
     1
102
RTVSPropertyOp15
 70
     1
102
RTVSPropertyOp16
 70
     1
102
RTVSPropertyOp17
 70
     1
102
RTVSPropertyOp18
 70
     1
102
RTVSPropertyOp19
 70
     1
102
RTVSPropertyOp20
 70
     1
102
RTVSPropertyOp21
 70
     1
102
RTVSPropertyOp22
 70
     1
102
RTVSPropertyOp23
 70
     1
102
RTVSPropertyOp24
 70
     1
102
RTVSPropertyOp25
 70
     1
102
RTVSPropertyOp26
 70
     1
102
RTVSPropertyOp27
 70
     1
  0
XRECORD
  5
B5E1
102
{ACAD_REACTORS
330
B5E0
102
}
330
B5E0
100
AcDbXrecord
280
     1
102
RTVSPropertyOp0
 70
     1
102
RTVSPropertyOp1
 70
     1
102
RTVSPropertyOp2
 70
     1
102
RTVSPropertyOp3
 70
     1
102
RTVSPropertyOp4
 70
     1
102
RTVSPropertyOp5
 70
     1
102
RTVSPropertyOp6
 70
     1
102
RTVSPropertyOp7
 70
     1
102
RTVSPropertyOp8
 70
     1
102
RTVSPropertyOp9
 70
     1
102
RTVSPropertyOp10
 70
     1
102
RTVSPropertyOp11
 70
     1
102
RTVSPropertyOp12
 70
     1
102
RTVSPropertyOp13
 70
     1
102
RTVSPropertyOp14
 70
     1
102
RTVSPropertyOp15
 70
     1
102
RTVSPropertyOp16
 70
     1
102
RTVSPropertyOp17
 70
     1
102
RTVSPropertyOp18
 70
     1
102
RTVSPropertyOp19
 70
     1
102
RTVSPropertyOp20
 70
     1
102
RTVSPropertyOp21
 70
     1
102
RTVSPropertyOp22
 70
     1
102
RTVSPropertyOp23
 70
     1
102
RTVSPropertyOp24
 70
     1
102
RTVSPropertyOp25
 70
     1
102
RTVSPropertyOp26
 70
     1
102
RTVSPropertyOp27
 70
     1
  0
XRECORD
  5
B5E3
102
{ACAD_REACTORS
330
B5E2
102
}
330
B5E2
100
AcDbXrecord
280
     1
102
RTVSPropertyOp0
 70
     1
102
RTVSPropertyOp1
 70
     1
102
RTVSPropertyOp2
 70
     1
102
RTVSPropertyOp3
 70
     1
102
RTVSPropertyOp4
 70
     1
102
RTVSPropertyOp5
 70
     1
102
RTVSPropertyOp6
 70
     1
102
RTVSPropertyOp7
 70
     1
102
RTVSPropertyOp8
 70
     1
102
RTVSPropertyOp9
 70
     1
102
RTVSPropertyOp10
 70
     1
102
RTVSPropertyOp11
 70
     1
102
RTVSPropertyOp12
 70
     1
102
RTVSPropertyOp13
 70
     1
102
RTVSPropertyOp14
 70
     1
102
RTVSPropertyOp15
 70
     1
102
RTVSPropertyOp16
 70
     1
102
RTVSPropertyOp17
 70
     1
102
RTVSPropertyOp18
 70
     1
102
RTVSPropertyOp19
 70
     1
102
RTVSPropertyOp20
 70
     1
102
RTVSPropertyOp21
 70
     1
102
RTVSPropertyOp22
 70
     1
102
RTVSPropertyOp23
 70
     1
102
RTVSPropertyOp24
 70
     1
102
RTVSPropertyOp25
 70
     1
102
RTVSPropertyOp26
 70
     1
102
RTVSPropertyOp27
 70
     1
  0
XRECORD
  5
B5E5
102
{ACAD_REACTORS
330
B5E4
102
}
330
B5E4
100
AcDbXrecord
280
     1
102
RTVSPropertyOp0
 70
     1
102
RTVSPropertyOp1
 70
     1
102
RTVSPropertyOp2
 70
     1
102
RTVSPropertyOp3
 70
     1
102
RTVSPropertyOp4
 70
     1
102
RTVSPropertyOp5
 70
     1
102
RTVSPropertyOp6
 70
     1
102
RTVSPropertyOp7
 70
     1
102
RTVSPropertyOp8
 70
     1
102
RTVSPropertyOp9
 70
     1
102
RTVSPropertyOp10
 70
     1
102
RTVSPropertyOp11
 70
     1
102
RTVSPropertyOp12
 70
     1
102
RTVSPropertyOp13
 70
     1
102
RTVSPropertyOp14
 70
     1
102
RTVSPropertyOp15
 70
     1
102
RTVSPropertyOp16
 70
     1
102
RTVSPropertyOp17
 70
     1
102
RTVSPropertyOp18
 70
     1
102
RTVSPropertyOp19
 70
     1
102
RTVSPropertyOp20
 70
     1
102
RTVSPropertyOp21
 70
     1
102
RTVSPropertyOp22
 70
     1
102
RTVSPropertyOp23
 70
     1
102
RTVSPropertyOp24
 70
     1
102
RTVSPropertyOp25
 70
     1
102
RTVSPropertyOp26
 70
     1
102
RTVSPropertyOp27
 70
     1
  0
XRECORD
  5
B5E7
102
{ACAD_REACTORS
330
B5E6
102
}
330
B5E6
100
AcDbXrecord
280
     1
102
RTVSPropertyOp0
 70
     1
102
RTVSPropertyOp1
 70
     1
102
RTVSPropertyOp2
 70
     1
102
RTVSPropertyOp3
 70
     1
102
RTVSPropertyOp4
 70
     1
102
RTVSPropertyOp5
 70
     1
102
RTVSPropertyOp6
 70
     1
102
RTVSPropertyOp7
 70
     1
102
RTVSPropertyOp8
 70
     1
102
RTVSPropertyOp9
 70
     1
102
RTVSPropertyOp10
 70
     1
102
RTVSPropertyOp11
 70
     1
102
RTVSPropertyOp12
 70
     1
102
RTVSPropertyOp13
 70
     1
102
RTVSPropertyOp14
 70
     1
102
RTVSPropertyOp15
 70
     1
102
RTVSPropertyOp16
 70
     1
102
RTVSPropertyOp17
 70
     1
102
RTVSPropertyOp18
 70
     1
102
RTVSPropertyOp19
 70
     1
102
RTVSPropertyOp20
 70
     1
102
RTVSPropertyOp21
 70
     1
102
RTVSPropertyOp22
 70
     1
102
RTVSPropertyOp23
 70
     1
102
RTVSPropertyOp24
 70
     1
102
RTVSPropertyOp25
 70
     1
102
RTVSPropertyOp26
 70
     1
102
RTVSPropertyOp27
 70
     1
  0
ENDSEC
  0
EOF
