  0
SECTION
  2
HEADER
  9
$ACADVER
  1
AC1018
  9
$ACADMAINTVER
 70
     0
  9
$DWGCODEPAGE
  3
ANSI_932
  9
$INSBASE
 10
0.0
 20
0.0
 30
0.0
  9
$EXTMIN
 10
-250.6545316394549
 20
-235.3329877384585
 30
-0.0015258207003583
  9
$EXTMAX
 10
9325.003249433168
 20
6690.034440687152
 30
0.0000000349246037
  9
$LIMMIN
 10
0.0
 20
0.0
  9
$LIMMAX
 10
10500.0
 20
7425.0
  9
$ORTHOMODE
 70
     1
  9
$REGENMODE
 70
     1
  9
$FILLMODE
 70
     1
  9
$QTEXTMODE
 70
     0
  9
$MIRRTEXT
 70
     0
  9
$LTSCALE
 40
100.0
  9
$ATTMODE
 70
     1
  9
$TEXTSIZE
 40
62.5
  9
$TRACEWID
 40
0.05
  9
$TEXTSTYLE
  7
STANDARD
  9
$CLAYER
  8
SUNPOU
  9
$CELTYPE
  6
BYLAYER
  9
$CECOLOR
 62
   256
  9
$CELTSCALE
 40
1.0
  9
$DISPSILH
 70
     0
  9
$DIMSCALE
 40
25.0
  9
$DIMASZ
 40
1.8
  9
$DIMEXO
 40
2.0
  9
$DIMDLI
 40
7.0
  9
$DIMRND
 40
0.0
  9
$DIMDLE
 40
0.0
  9
$DIMEXE
 40
0.5
  9
$DIMTP
 40
0.0
  9
$DIMTM
 40
0.0
  9
$DIMTXT
 40
2.5
  9
$DIMCEN
 40
0.0
  9
$DIMTSZ
 40
0.0
  9
$DIMTOL
 70
     0
  9
$DIMLIM
 70
     0
  9
$DIMTIH
 70
     0
  9
$DIMTOH
 70
     0
  9
$DIMSE1
 70
     0
  9
$DIMSE2
 70
     0
  9
$DIMTAD
 70
     1
  9
$DIMZIN
 70
     8
  9
$DIMBLK
  1

  9
$DIMASO
 70
     1
  9
$DIMSHO
 70
     0
  9
$DIMPOST
  1

  9
$DIMAPOST
  1

  9
$DIMALT
 70
     0
  9
$DIMALTD
 70
     2
  9
$DIMALTF
 40
25.4
  9
$DIMLFAC
 40
1.0
  9
$DIMTOFL
 70
     0
  9
$DIMTVP
 40
1.0
  9
$DIMTIX
 70
     1
  9
$DIMSOXD
 70
     0
  9
$DIMSAH
 70
     0
  9
$DIMBLK1
  1

  9
$DIMBLK2
  1

  9
$DIMSTYLE
  2
A3-25
  9
$DIMCLRD
 70
     0
  9
$DIMCLRE
 70
     0
  9
$DIMCLRT
 70
     0
  9
$DIMTFAC
 40
1.0
  9
$DIMGAP
 40
0.7
  9
$DIMJUST
 70
     0
  9
$DIMSD1
 70
     0
  9
$DIMSD2
 70
     0
  9
$DIMTOLJ
 70
     1
  9
$DIMTZIN
 70
     8
  9
$DIMALTZ
 70
     8
  9
$DIMALTTZ
 70
     8
  9
$DIMUPT
 70
     0
  9
$DIMDEC
 70
     0
  9
$DIMTDEC
 70
     0
  9
$DIMALTU
 70
     2
  9
$DIMALTTD
 70
     2
  9
$DIMTXSTY
  7
STANDARD
  9
$DIMAUNIT
 70
     0
  9
$DIMADEC
 70
     4
  9
$DIMALTRND
 40
0.0
  9
$DIMAZIN
 70
     0
  9
$DIMDSEP
 70
    46
  9
$DIMATFIT
 70
     3
  9
$DIMFRAC
 70
     0
  9
$DIMLDRBLK
  1

  9
$DIMLUNIT
 70
     2
  9
$DIMLWD
 70
    -2
  9
$DIMLWE
 70
    -2
  9
$DIMTMOVE
 70
     2
  9
$LUNITS
 70
     2
  9
$LUPREC
 70
     4
  9
$SKETCHINC
 40
0.1
  9
$FILLETRAD
 40
15.0
  9
$AUNITS
 70
     1
  9
$AUPREC
 70
     4
  9
$MENU
  1
acad
  9
$ELEVATION
 40
0.0
  9
$PELEVATION
 40
0.0
  9
$THICKNESS
 40
0.0
  9
$LIMCHECK
 70
     0
  9
$CHAMFERA
 40
30.0
  9
$CHAMFERB
 40
30.0
  9
$CHAMFERC
 40
0.0
  9
$CHAMFERD
 40
0.0
  9
$SKPOLY
 70
     0
  9
$TDCREATE
 40
2449090.637986111
  9
$TDUCREATE
 40
2449090.262986111
  9
$TDUPDATE
 40
2455712.547613808
  9
$TDUUPDATE
 40
2455712.172613808
  9
$TDINDWG
 40
0.704387037
  9
$TDUSRTIMER
 40
0.704387037
  9
$USRTIMER
 70
     1
  9
$ANGBASE
 50
0.0
  9
$ANGDIR
 70
     0
  9
$PDMODE
 70
     0
  9
$PDSIZE
 40
0.0
  9
$PLINEWID
 40
0.0
  9
$SPLFRAME
 70
     0
  9
$SPLINETYPE
 70
     6
  9
$SPLINESEGS
 70
     8
  9
$HANDSEED
  5
3360
  9
$SURFTAB1
 70
     6
  9
$SURFTAB2
 70
     6
  9
$SURFTYPE
 70
     6
  9
$SURFU
 70
     6
  9
$SURFV
 70
     6
  9
$UCSBASE
  2

  9
$UCSNAME
  2

  9
$UCSORG
 10
0.0
 20
0.0
 30
0.0
  9
$UCSXDIR
 10
1.0
 20
0.0
 30
0.0
  9
$UCSYDIR
 10
0.0
 20
1.0
 30
0.0
  9
$UCSORTHOREF
  2

  9
$UCSORTHOVIEW
 70
     0
  9
$UCSORGTOP
 10
0.0
 20
0.0
 30
0.0
  9
$UCSORGBOTTOM
 10
0.0
 20
0.0
 30
0.0
  9
$UCSORGLEFT
 10
0.0
 20
0.0
 30
0.0
  9
$UCSORGRIGHT
 10
0.0
 20
0.0
 30
0.0
  9
$UCSORGFRONT
 10
0.0
 20
0.0
 30
0.0
  9
$UCSORGBACK
 10
0.0
 20
0.0
 30
0.0
  9
$PUCSBASE
  2

  9
$PUCSNAME
  2

  9
$PUCSORG
 10
0.0
 20
0.0
 30
0.0
  9
$PUCSXDIR
 10
1.0
 20
0.0
 30
0.0
  9
$PUCSYDIR
 10
0.0
 20
1.0
 30
0.0
  9
$PUCSORTHOREF
  2

  9
$PUCSORTHOVIEW
 70
     0
  9
$PUCSORGTOP
 10
0.0
 20
0.0
 30
0.0
  9
$PUCSORGBOTTOM
 10
0.0
 20
0.0
 30
0.0
  9
$PUCSORGLEFT
 10
0.0
 20
0.0
 30
0.0
  9
$PUCSORGRIGHT
 10
0.0
 20
0.0
 30
0.0
  9
$PUCSORGFRONT
 10
0.0
 20
0.0
 30
0.0
  9
$PUCSORGBACK
 10
0.0
 20
0.0
 30
0.0
  9
$USERI1
 70
     0
  9
$USERI2
 70
     0
  9
$USERI3
 70
     0
  9
$USERI4
 70
     0
  9
$USERI5
 70
     0
  9
$USERR1
 40
0.0
  9
$USERR2
 40
0.0
  9
$USERR3
 40
0.0
  9
$USERR4
 40
0.0
  9
$USERR5
 40
0.0
  9
$WORLDVIEW
 70
     1
  9
$SHADEDGE
 70
     3
  9
$SHADEDIF
 70
    70
  9
$TILEMODE
 70
     1
  9
$MAXACTVP
 70
    16
  9
$PINSBASE
 10
0.0
 20
0.0
 30
0.0
  9
$PLIMCHECK
 70
     0
  9
$PEXTMIN
 10
1.000000000000000E+20
 20
1.000000000000000E+20
 30
1.000000000000000E+20
  9
$PEXTMAX
 10
-1.000000000000000E+20
 20
-1.000000000000000E+20
 30
-1.000000000000000E+20
  9
$PLIMMIN
 10
0.0
 20
0.0
  9
$PLIMMAX
 10
12.0
 20
9.0
  9
$UNITMODE
 70
     0
  9
$VISRETAIN
 70
     0
  9
$PLINEGEN
 70
     0
  9
$PSLTSCALE
 70
     0
  9
$TREEDEPTH
 70
  3020
  9
$CMLSTYLE
  2
STANDARD
  9
$CMLJUST
 70
     0
  9
$CMLSCALE
 40
1.0
  9
$PROXYGRAPHICS
 70
     1
  9
$MEASUREMENT
 70
     0
  9
$CELWEIGHT
370
    -1
  9
$ENDCAPS
280
     0
  9
$JOINSTYLE
280
     0
  9
$LWDISPLAY
290
     0
  9
$INSUNITS
 70
     0
  9
$HYPERLINKBASE
  1

  9
$STYLESHEET
  1
acad.ctb
  9
$XEDIT
290
     1
  9
$CEPSNTYPE
380
     0
  9
$PSTYLEMODE
290
     1
  9
$FINGERPRINTGUID
  2
{BB58A45C-081C-4ED0-9445-EBB51D0098BA}
  9
$VERSIONGUID
  2
{34EA8C98-2B1A-4C48-929E-C72703E060CC}
  9
$EXTNAMES
290
     1
  9
$PSVPSCALE
 40
0.0
  9
$OLESTARTUP
290
     0
  9
$SORTENTS
280
    96
  9
$INDEXCTL
280
     0
  9
$HIDETEXT
280
     1
  9
$XCLIPFRAME
290
     0
  9
$HALOGAP
280
     0
  9
$OBSCOLOR
 70
   257
  9
$OBSLTYPE
280
     0
  9
$INTERSECTIONDISPLAY
280
     0
  9
$INTERSECTIONCOLOR
 70
   257
  9
$DIMASSOC
280
     1
  9
$PROJECTNAME
  1

  0
ENDSEC
  0
SECTION
  2
CLASSES
  0
CLASS
  1
LWPOLYLINE
  2
AcDbPolyline
  3
AutoCAD 2000
 90
        0
 91
        1
280
     0
281
     1
  0
CLASS
  1
DICTIONARYVAR
  2
AcDbDictionaryVar
  3
ObjectDBX Classes
 90
        0
 91
        4
280
     0
281
     0
  0
CLASS
  1
HATCH
  2
AcDbHatch
  3
AutoCAD 2000
 90
        0
 91
        1
280
     0
281
     1
  0
CLASS
  1
ACDBDICTIONARYWDFLT
  2
AcDbDictionaryWithDefault
  3
ObjectDBX Classes
 90
        0
 91
        4
280
     0
281
     0
  0
CLASS
  1
TABLESTYLE
  2
AcDbTableStyle
  3
ObjectDBX Classes
 90
     4095
 91
        4
280
     0
281
     0
  0
CLASS
  1
ACDBPLACEHOLDER
  2
AcDbPlaceHolder
  3
ObjectDBX Classes
 90
        0
 91
        1
280
     0
281
     0
  0
CLASS
  1
LAYOUT
  2
AcDbLayout
  3
ObjectDBX Classes
 90
        0
 91
        1
280
     0
281
     0
  0
CLASS
  1
SORTENTSTABLE
  2
AcDbSortentsTable
  3
ObjectDBX Classes
 90
        0
 91
        4
280
     0
281
     0
  0
CLASS
  1
SCALE
  2
AcDbScale
  3
ObjectDBX Classes
 90
     1153
 91
        4
280
     0
281
     0
  0
CLASS
  1
CELLSTYLEMAP
  2
AcDbCellStyleMap
  3
ObjectDBX Classes
 90
     1152
 91
        4
280
     0
281
     0
  0
ENDSEC
  0
SECTION
  2
TABLES
  0
TABLE
  2
VPORT
  5
8
330
0
100
AcDbSymbolTable
 70
     2
  0
VPORT
  5
3332
330
8
100
AcDbSymbolTableRecord
100
AcDbViewportTableRecord
  2
*Active
 70
     0
 10
0.0
 20
0.0
 11
1.0
 21
1.0
 12
5124.672734180273
 22
3594.833506130771
 13
0.0
 23
0.0
 14
1.0
 24
1.0
 15
0.0
 25
0.0
 16
0.0
 26
0.0
 36
1.0
 17
0.0
 27
0.0
 37
0.0
 40
7718.957985093601
 41
1.507024265644955
 42
50.0
 43
0.0
 44
0.0
 50
0.0
 51
0.0
 71
     0
 72
   100
 73
     1
 74
     0
 75
     0
 76
     0
 77
     0
 78
     0
281
     0
 65
     1
110
0.0
120
0.0
130
0.0
111
1.0
121
0.0
131
0.0
112
0.0
122
1.0
132
0.0
 79
     0
146
0.0
  0
ENDTAB
  0
TABLE
  2
LTYPE
  5
5
330
0
100
AcDbSymbolTable
 70
     6
  0
LTYPE
  5
12
330
5
100
AcDbSymbolTableRecord
100
AcDbLinetypeTableRecord
  2
BYBLOCK
 70
     0
  3

 72
    65
 73
     0
 40
0.0
  0
LTYPE
  5
13
330
5
100
AcDbSymbolTableRecord
100
AcDbLinetypeTableRecord
  2
BYLAYER
 70
     0
  3

 72
    65
 73
     0
 40
0.0
  0
LTYPE
  5
14
330
5
100
AcDbSymbolTableRecord
100
AcDbLinetypeTableRecord
  2
CONTINUOUS
 70
     0
  3
Solid line
 72
    65
 73
     0
 40
0.0
  0
LTYPE
  5
78F
330
5
100
AcDbSymbolTableRecord
100
AcDbLinetypeTableRecord
  2
CENTER2
 70
     0
  3
___ _ ___ _ ___ _ ___ _ ___ _ ___ _ ___ _ ___ _
 72
    65
 73
     4
 40
1.125
 49
0.75
 74
     0
 49
-0.125
 74
     0
 49
0.125
 74
     0
 49
-0.125
 74
     0
  0
LTYPE
  5
790
330
5
100
AcDbSymbolTableRecord
100
AcDbLinetypeTableRecord
  2
DASHED2
 70
     0
  3
_ _ _ _ _ _ _ _ _ _ _ _ _ _ _ _ _ _ _ _ _ _ _ _
 72
    65
 73
     2
 40
0.375
 49
0.25
 74
     0
 49
-0.125
 74
     0
  0
LTYPE
  5
FCE
330
5
100
AcDbSymbolTableRecord
100
AcDbLinetypeTableRecord
  2
HIDDEN
 70
     0
  3
Hidden __ __ __ __ __ __ __ __ __ __ __ __ __ _
 72
    65
 73
     2
 40
0.375
 49
0.25
 74
     0
 49
-0.125
 74
     0
  0
LTYPE
  5
FD0
330
5
100
AcDbSymbolTableRecord
100
AcDbLinetypeTableRecord
  2
PHANTOM
 70
     0
  3
Phantom ______  __  __  ______  __  __  ______
 72
    65
 73
     6
 40
2.5
 49
1.25
 74
     0
 49
-0.25
 74
     0
 49
0.25
 74
     0
 49
-0.25
 74
     0
 49
0.25
 74
     0
 49
-0.25
 74
     0
  0
LTYPE
  5
FD2
330
5
100
AcDbSymbolTableRecord
100
AcDbLinetypeTableRecord
  2
CENTER
 70
     0
  3
Center ____ _ ____ _ ____ _ ____ _ ____ _ ____
 72
    65
 73
     4
 40
2.0
 49
1.25
 74
     0
 49
-0.25
 74
     0
 49
0.25
 74
     0
 49
-0.25
 74
     0
  0
ENDTAB
  0
TABLE
  2
LAYER
  5
2
102
{ACAD_XDICTIONARY
360
FC7
102
}
330
0
100
AcDbSymbolTable
 70
     8
  0
LAYER
  5
F
330
2
100
AcDbSymbolTableRecord
100
AcDbLayerTableRecord
  2
0
 70
     0
 62
     7
  6
CONTINUOUS
370
    -3
390
E6F
  0
LAYER
  5
49
330
2
100
AcDbSymbolTableRecord
100
AcDbLayerTableRecord
  2
SEIHIN
 70
     0
 62
     3
  6
CONTINUOUS
370
    -3
390
E6F
  0
LAYER
  5
4A
330
2
100
AcDbSymbolTableRecord
100
AcDbLayerTableRecord
  2
SUNPOU
 70
     0
 62
     1
  6
CONTINUOUS
370
    -3
390
E6F
  0
LAYER
  5
4B
330
2
100
AcDbSymbolTableRecord
100
AcDbLayerTableRecord
  2
HAIKIN
 70
     0
 62
     2
  6
CONTINUOUS
370
    -3
390
E6F
  0
LAYER
  5
4C
330
2
100
AcDbSymbolTableRecord
100
AcDbLayerTableRecord
  2
DEFPOINTS
 70
     0
 62
     7
  6
CONTINUOUS
290
     0
370
    -3
390
E6F
  0
LAYER
  5
FCA
330
2
100
AcDbSymbolTableRecord
100
AcDbLayerTableRecord
  2
1HASEN
 70
     0
 62
     5
  6
CENTER
370
    -3
390
E6F
1001
AcAecLayerStandard
1000

1000

  0
LAYER
  5
FCF
330
2
100
AcDbSymbolTableRecord
100
AcDbLayerTableRecord
  2
2HASEN
 70
     0
 62
     6
  6
PHANTOM
370
    -3
390
E6F
1001
AcAecLayerStandard
1000

1000

  0
LAYER
  5
FD1
330
2
100
AcDbSymbolTableRecord
100
AcDbLayerTableRecord
  2
HASEN
 70
     0
 62
     4
  6
HIDDEN
370
    -3
390
E6F
1001
AcAecLayerStandard
1000

1000

  0
ENDTAB
  0
TABLE
  2
STYLE
  5
3
330
0
100
AcDbSymbolTable
 70
     3
  0
STYLE
  5
10
330
3
100
AcDbSymbolTableRecord
100
AcDbTextStyleTableRecord
  2
STANDARD
 70
     0
 40
0.0
 41
0.8
 50
0.0
 71
     0
 42
62.5
  3
TXT.shx
  4
BIGFONT.shx
  0
STYLE
  5
FCD
330
3
100
AcDbSymbolTableRecord
100
AcDbTextStyleTableRecord
  2

 70
     1
 40
0.0
 41
1.0
 50
0.0
 71
     0
 42
65.0
  3
ltypeshp.shx
  4

  0
STYLE
  5
1424
330
3
100
AcDbSymbolTableRecord
100
AcDbTextStyleTableRecord
  2
MS ゴシック
 70
     0
 40
0.0
 41
1.0
 50
0.0
 71
     0
 42
65.0
  3
MS Gothic.ttf
  4

1001
ACAD
1000
MS Gothic
1071
    32817
  0
ENDTAB
  0
TABLE
  2
VIEW
  5
6
330
0
100
AcDbSymbolTable
 70
     0
  0
ENDTAB
  0
TABLE
  2
UCS
  5
7
330
0
100
AcDbSymbolTable
 70
     0
  0
ENDTAB
  0
TABLE
  2
APPID
  5
9
330
0
100
AcDbSymbolTable
 70
    12
  0
APPID
  5
11
330
9
100
AcDbSymbolTableRecord
100
AcDbRegAppTableRecord
  2
ACAD
 70
     0
  0
APPID
  5
E7B
330
9
100
AcDbSymbolTableRecord
100
AcDbRegAppTableRecord
  2
ACAD_PSEXT
 70
     0
  0
APPID
  5
EC9
330
9
100
AcDbSymbolTableRecord
100
AcDbRegAppTableRecord
  2
ACAD_DSTYLE_DIMEXT_LENGTH
 70
     0
  0
APPID
  5
ECA
330
9
100
AcDbSymbolTableRecord
100
AcDbRegAppTableRecord
  2
ACAD_DSTYLE_DIMEXT_ENABLED
 70
     0
  0
APPID
  5
ECB
330
9
100
AcDbSymbolTableRecord
100
AcDbRegAppTableRecord
  2
ACAD_DSTYLE_DIMJOGGED_JOGANGLE_SYMBOL
 70
     0
  0
APPID
  5
ECC
330
9
100
AcDbSymbolTableRecord
100
AcDbRegAppTableRecord
  2
ACAD_DSTYLE_DIMARC_LENGTH_SYMBOL
 70
     0
  0
APPID
  5
FCB
330
9
100
AcDbSymbolTableRecord
100
AcDbRegAppTableRecord
  2
AcAecLayerStandard
 70
     0
  0
APPID
  5
142B
330
9
100
AcDbSymbolTableRecord
100
AcDbRegAppTableRecord
  2
ACAD_DSTYLE_DIMTEXT_FILL
 70
     0
  0
APPID
  5
142E
330
9
100
AcDbSymbolTableRecord
100
AcDbRegAppTableRecord
  2
ACAD_DSTYLE_DIM_LINETYPE
 70
     0
  0
APPID
  5
142F
330
9
100
AcDbSymbolTableRecord
100
AcDbRegAppTableRecord
  2
ACAD_DSTYLE_DIM_EXT1_LINETYPE
 70
     0
  0
APPID
  5
1430
330
9
100
AcDbSymbolTableRecord
100
AcDbRegAppTableRecord
  2
ACAD_DSTYLE_DIM_EXT2_LINETYPE
 70
     0
  0
APPID
  5
20B5
330
9
100
AcDbSymbolTableRecord
100
AcDbRegAppTableRecord
  2
ACAD_EXEMPT_FROM_CAD_STANDARDS
 70
     0
  0
ENDTAB
  0
TABLE
  2
DIMSTYLE
  5
A
330
0
100
AcDbSymbolTable
 70
     3
100
AcDbDimStyleTable
  0
DIMSTYLE
105
77F
330
A
100
AcDbSymbolTableRecord
100
AcDbDimStyleTableRecord
  2
STANDARD
 70
     0
 40
25.0
 41
0.6
 42
2.0
 43
2.0
 44
1.0
 73
     0
 74
     0
 77
     1
140
1.5
141
2.0
147
0.6
172
     1
173
     1
178
     0
271
     0
279
     2
340
10
341
786
343
786
344
786
  0
DIMSTYLE
105
801
330
A
100
AcDbSymbolTableRecord
100
AcDbDimStyleTableRecord
  2
STANDARD$7
 70
     0
 40
25.0
 41
1.0
 42
1.0
 43
2.0
 44
1.0
 73
     0
 74
     0
 77
     1
140
1.5
141
2.0
147
0.8
178
     0
271
     0
279
     2
340
10
  0
DIMSTYLE
105
EC8
102
{ACAD_REACTORS
330
2BC
330
2B9
330
3B3
330
547
330
2BB
330
319
330
2C9
330
2CA
330
2CB
330
2CC
330
2CD
330
2CE
330
449
330
48B
330
48C
330
680
330
681
330
1EDE
330
1EEB
330
1EF8
330
1F2D
330
1F3B
330
1FBE
330
200C
330
22CC
330
22DA
330
22E7
330
2595
330
25A2
330
20D6
330
20D7
330
2C1
330
2C0
330
1F20
330
63C
330
2FE
330
2FD
330
2BF
330
2C0F
330
2C26
330
2CDD
102
}
330
A
100
AcDbSymbolTableRecord
100
AcDbDimStyleTableRecord
  2
A3-25
 70
     0
 40
25.0
 41
1.8
 42
2.0
 43
7.0
 44
0.5
 73
     0
 74
     0
 77
     1
 78
     8
140
2.5
141
0.0
145
1.0
147
0.7
174
     1
178
     0
179
     4
271
     0
272
     0
279
     2
284
     8
285
     8
286
     8
340
10
  0
ENDTAB
  0
TABLE
  2
BLOCK_RECORD
  5
1
330
0
100
AcDbSymbolTable
 70
    47
  0
BLOCK_RECORD
  5
18
102
{ACAD_XDICTIONARY
360
FC1
102
}
330
1
100
AcDbSymbolTableRecord
100
AcDbBlockTableRecord
  2
*MODEL_SPACE
340
E76
  0
BLOCK_RECORD
  5
15
330
1
100
AcDbSymbolTableRecord
100
AcDbBlockTableRecord
  2
*PAPER_SPACE
340
E77
  0
BLOCK_RECORD
  5
1C
330
1
100
AcDbSymbolTableRecord
100
AcDbBlockTableRecord
  2
BORDER
340
0
  0
BLOCK_RECORD
  5
1D
330
1
100
AcDbSymbolTableRecord
100
AcDbBlockTableRecord
  2
DOT
340
0
  0
BLOCK_RECORD
  5
42
330
1
100
AcDbSymbolTableRecord
100
AcDbBlockTableRecord
  2
FGG
340
0
102
{BLKREFS
331
75F
331
225D
102
}
  0
BLOCK_RECORD
  5
786
330
1
100
AcDbSymbolTableRecord
100
AcDbBlockTableRecord
  2
_DOT
340
0
  0
BLOCK_RECORD
  5
79D
330
1
100
AcDbSymbolTableRecord
100
AcDbBlockTableRecord
  2
*D4
340
0
  0
BLOCK_RECORD
  5
7E0
330
1
100
AcDbSymbolTableRecord
100
AcDbBlockTableRecord
  2
*D5
340
0
  0
BLOCK_RECORD
  5
E5D
330
1
100
AcDbSymbolTableRecord
100
AcDbBlockTableRecord
  2
A$C17135D01
340
0
  0
BLOCK_RECORD
  5
E9F
330
1
100
AcDbSymbolTableRecord
100
AcDbBlockTableRecord
  2
SA3
340
0
102
{BLKREFS
331
ED4
102
}
  0
BLOCK_RECORD
  5
ED7
330
1
100
AcDbSymbolTableRecord
100
AcDbBlockTableRecord
  2
*D8
340
0
  0
BLOCK_RECORD
  5
EE3
330
1
100
AcDbSymbolTableRecord
100
AcDbBlockTableRecord
  2
*D9
340
0
  0
BLOCK_RECORD
  5
EEF
330
1
100
AcDbSymbolTableRecord
100
AcDbBlockTableRecord
  2
*D10
340
0
  0
BLOCK_RECORD
  5
F07
330
1
100
AcDbSymbolTableRecord
100
AcDbBlockTableRecord
  2
*D11
340
0
  0
BLOCK_RECORD
  5
F13
330
1
100
AcDbSymbolTableRecord
100
AcDbBlockTableRecord
  2
*D12
340
0
  0
BLOCK_RECORD
  5
F1F
330
1
100
AcDbSymbolTableRecord
100
AcDbBlockTableRecord
  2
*D13
340
0
  0
BLOCK_RECORD
  5
F43
330
1
100
AcDbSymbolTableRecord
100
AcDbBlockTableRecord
  2
*D14
340
0
  0
BLOCK_RECORD
  5
F58
330
1
100
AcDbSymbolTableRecord
100
AcDbBlockTableRecord
  2
*D15
340
0
  0
BLOCK_RECORD
  5
F88
330
1
100
AcDbSymbolTableRecord
100
AcDbBlockTableRecord
  2
*D16
340
0
  0
BLOCK_RECORD
  5
F94
330
1
100
AcDbSymbolTableRecord
100
AcDbBlockTableRecord
  2
*D17
340
0
  0
BLOCK_RECORD
  5
FD6
330
1
100
AcDbSymbolTableRecord
100
AcDbBlockTableRecord
  2
*D18
340
0
  0
BLOCK_RECORD
  5
FEB
330
1
100
AcDbSymbolTableRecord
100
AcDbBlockTableRecord
  2
*D19
340
0
  0
BLOCK_RECORD
  5
FF7
330
1
100
AcDbSymbolTableRecord
100
AcDbBlockTableRecord
  2
*D20
340
0
  0
BLOCK_RECORD
  5
1003
330
1
100
AcDbSymbolTableRecord
100
AcDbBlockTableRecord
  2
*D21
340
0
  0
BLOCK_RECORD
  5
1028
330
1
100
AcDbSymbolTableRecord
100
AcDbBlockTableRecord
  2
*D22
340
0
  0
BLOCK_RECORD
  5
10AC
330
1
100
AcDbSymbolTableRecord
100
AcDbBlockTableRecord
  2
*D23
340
0
  0
BLOCK_RECORD
  5
10B9
330
1
100
AcDbSymbolTableRecord
100
AcDbBlockTableRecord
  2
*D24
340
0
  0
BLOCK_RECORD
  5
10C5
330
1
100
AcDbSymbolTableRecord
100
AcDbBlockTableRecord
  2
*D25
340
0
  0
BLOCK_RECORD
  5
10D1
330
1
100
AcDbSymbolTableRecord
100
AcDbBlockTableRecord
  2
*D26
340
0
  0
BLOCK_RECORD
  5
10DD
330
1
100
AcDbSymbolTableRecord
100
AcDbBlockTableRecord
  2
*D27
340
0
  0
BLOCK_RECORD
  5
10E9
330
1
100
AcDbSymbolTableRecord
100
AcDbBlockTableRecord
  2
*D28
340
0
  0
BLOCK_RECORD
  5
1EDF
330
1
100
AcDbSymbolTableRecord
100
AcDbBlockTableRecord
  2
*D29
340
0
  0
BLOCK_RECORD
  5
1EEC
330
1
100
AcDbSymbolTableRecord
100
AcDbBlockTableRecord
  2
*D30
340
0
  0
BLOCK_RECORD
  5
1EF9
330
1
100
AcDbSymbolTableRecord
100
AcDbBlockTableRecord
  2
*D31
340
0
  0
BLOCK_RECORD
  5
1F21
330
1
100
AcDbSymbolTableRecord
100
AcDbBlockTableRecord
  2
*D32
340
0
  0
BLOCK_RECORD
  5
1F2E
330
1
100
AcDbSymbolTableRecord
100
AcDbBlockTableRecord
  2
*D33
340
0
  0
BLOCK_RECORD
  5
1F3C
330
1
100
AcDbSymbolTableRecord
100
AcDbBlockTableRecord
  2
*D34
340
0
  0
BLOCK_RECORD
  5
1FBF
330
1
100
AcDbSymbolTableRecord
100
AcDbBlockTableRecord
  2
*D35
340
0
  0
BLOCK_RECORD
  5
200D
330
1
100
AcDbSymbolTableRecord
100
AcDbBlockTableRecord
  2
*D36
340
0
  0
BLOCK_RECORD
  5
20D8
330
1
100
AcDbSymbolTableRecord
100
AcDbBlockTableRecord
  2
*D37
340
0
  0
BLOCK_RECORD
  5
20E4
330
1
100
AcDbSymbolTableRecord
100
AcDbBlockTableRecord
  2
*D38
340
0
  0
BLOCK_RECORD
  5
22CD
330
1
100
AcDbSymbolTableRecord
100
AcDbBlockTableRecord
  2
*D39
340
0
  0
BLOCK_RECORD
  5
22DB
330
1
100
AcDbSymbolTableRecord
100
AcDbBlockTableRecord
  2
*D40
340
0
  0
BLOCK_RECORD
  5
22E8
330
1
100
AcDbSymbolTableRecord
100
AcDbBlockTableRecord
  2
*D41
340
0
  0
BLOCK_RECORD
  5
2596
330
1
100
AcDbSymbolTableRecord
100
AcDbBlockTableRecord
  2
*D42
340
0
  0
BLOCK_RECORD
  5
25A3
330
1
100
AcDbSymbolTableRecord
100
AcDbBlockTableRecord
  2
*D43
340
0
  0
BLOCK_RECORD
  5
2C10
330
1
100
AcDbSymbolTableRecord
100
AcDbBlockTableRecord
  2
*D44
340
0
  0
BLOCK_RECORD
  5
2C27
330
1
100
AcDbSymbolTableRecord
100
AcDbBlockTableRecord
  2
*D45
340
0
  0
BLOCK_RECORD
  5
2CDE
330
1
100
AcDbSymbolTableRecord
100
AcDbBlockTableRecord
  2
*D46
340
0
  0
ENDTAB
  0
ENDSEC
  0
SECTION
  2
BLOCKS
  0
BLOCK
  5
4F
330
18
100
AcDbEntity
  8
0
100
AcDbBlockBegin
  2
*MODEL_SPACE
 70
     0
 10
0.0
 20
0.0
 30
0.0
  3
*MODEL_SPACE
  1

  0
ENDBLK
  5
50
330
18
100
AcDbEntity
  8
0
100
AcDbBlockEnd
  0
BLOCK
  5
4D
330
15
100
AcDbEntity
 67
     1
  8
0
100
AcDbBlockBegin
  2
*PAPER_SPACE
 70
     0
 10
0.0
 20
0.0
 30
0.0
  3
*PAPER_SPACE
  1

  0
ENDBLK
  5
4E
330
15
100
AcDbEntity
 67
     1
  8
0
100
AcDbBlockEnd
  0
BLOCK
  5
51
330
1C
100
AcDbEntity
  8
0
100
AcDbBlockBegin
  2
BORDER
 70
     0
 10
0.0
 20
0.0
 30
0.0
  3
BORDER
  1

  0
LINE
  5
52
330
1C
100
AcDbEntity
  8
0
100
AcDbLine
 10
0.0
 20
0.0
 30
0.0
 11
1.00000000000004
 21
0.0
 31
0.0
  0
LINE
  5
53
330
1C
100
AcDbEntity
  8
0
100
AcDbLine
 10
1.00000000000004
 20
0.0
 30
0.0
 11
1.00000000000004
 21
1.00000000000004
 31
0.0
  0
LINE
  5
54
330
1C
100
AcDbEntity
  8
0
100
AcDbLine
 10
1.00000000000004
 20
1.00000000000004
 30
0.0
 11
0.0
 21
1.00000000000004
 31
0.0
  0
LINE
  5
55
330
1C
100
AcDbEntity
  8
0
100
AcDbLine
 10
0.0
 20
1.00000000000004
 30
0.0
 11
0.0
 21
0.0
 31
0.0
  0
ENDBLK
  5
56
330
1C
100
AcDbEntity
  8
0
100
AcDbBlockEnd
  0
BLOCK
  5
57
330
1D
100
AcDbEntity
  8
0
100
AcDbBlockBegin
  2
DOT
 70
     0
 10
0.0
 20
0.0
 30
0.0
  3
DOT
  1

  0
LWPOLYLINE
  5
58
330
1D
100
AcDbEntity
  8
0
  6
ByBlock
 62
     0
100
AcDbPolyline
 90
        2
 70
     1
 43
0.5
 10
-0.25
 20
0.0
 42
1.0
 10
0.25
 20
0.0
 42
1.0
  0
LINE
  5
5C
330
1D
100
AcDbEntity
  8
0
  6
ByBlock
 62
     0
100
AcDbLine
 10
-0.5
 20
0.0
 30
0.0
 11
-1.0
 21
0.0
 31
0.0
  0
ENDBLK
  5
5D
330
1D
100
AcDbEntity
  8
0
 62
     0
100
AcDbBlockEnd
  0
BLOCK
  5
1EF
330
42
100
AcDbEntity
  8
0
100
AcDbBlockBegin
  2
FGG
 70
     0
 10
0.0
 20
0.0
 30
0.0
  3
FGG
  1

  0
LWPOLYLINE
  5
1F0
330
42
100
AcDbEntity
  8
SUNPOU
100
AcDbPolyline
 90
        4
 70
     0
 43
0.0
 10
0.0
 20
-31.5
 10
-4.500000000000909
 20
-29.5
 10
-4.500000000000909
 20
29.5
 10
0.0
 20
31.50000000000045
  0
LWPOLYLINE
  5
1F6
330
42
100
AcDbEntity
  8
SUNPOU
100
AcDbPolyline
 90
        2
 70
     0
 43
0.0
 10
-4.500000000000909
 20
27.0
 10
-41.49999999909687
 20
27.00000000000045
  0
LWPOLYLINE
  5
1FA
330
42
100
AcDbEntity
  8
SUNPOU
100
AcDbPolyline
 90
        2
 70
     0
 43
0.0
 10
-41.50000000000091
 20
27.00000000000045
 42
1.111111111111126
 10
-41.50000000000091
 20
-27.00000000000045
 42
1.111111111111126
  0
LWPOLYLINE
  5
1FE
330
42
100
AcDbEntity
  8
SUNPOU
100
AcDbPolyline
 90
        2
 70
     0
 43
0.0
 10
-4.500000000000909
 20
-27.00000000000045
 10
-41.49999999909687
 20
-27.0
  0
ENDBLK
  5
202
330
42
100
AcDbEntity
  8
0
100
AcDbBlockEnd
  0
BLOCK
  5
787
330
786
100
AcDbEntity
  8
0
100
AcDbBlockBegin
  2
_DOT
 70
     0
 10
0.0
 20
0.0
 30
0.0
  3
_DOT
  1

  0
LWPOLYLINE
  5
788
330
786
100
AcDbEntity
  8
0
  6
ByBlock
 62
     0
100
AcDbPolyline
 90
        2
 70
     1
 43
0.5
 10
-0.25
 20
0.0
 42
1.0
 10
0.25
 20
0.0
 42
1.0
  0
LINE
  5
78C
330
786
100
AcDbEntity
  8
0
  6
ByBlock
 62
     0
100
AcDbLine
 10
-0.5
 20
0.0
 30
0.0
 11
-1.0
 21
0.0
 31
0.0
  0
ENDBLK
  5
78D
330
786
100
AcDbEntity
  8
0
100
AcDbBlockEnd
  0
BLOCK
  5
79E
330
79D
100
AcDbEntity
  8
0
100
AcDbBlockBegin
  2
*D4
 70
     1
 10
0.0
 20
0.0
 30
0.0
  3
*D4
  1

  0
LINE
  5
324D
330
79D
100
AcDbEntity
  8
SUNPOU
 62
     0
370
    -2
100
AcDbLine
 10
2505.791006481428
 20
5680.788304021586
 30
0.0
 11
2505.791006481428
 21
6260.029289220385
 31
0.0
  0
LINE
  5
324E
330
79D
100
AcDbEntity
  8
SUNPOU
 62
     0
370
    -2
100
AcDbLine
 10
3275.791006481429
 20
5680.788304021587
 30
0.0
 11
3275.791006481429
 21
6260.029289220385
 31
0.0
  0
LINE
  5
324F
330
79D
100
AcDbEntity
  8
SUNPOU
 62
     0
370
    -2
100
AcDbLine
 10
2550.791006481428
 20
6247.529289220385
 30
0.0
 11
3230.791006481429
 21
6247.529289220385
 31
0.0
  0
SOLID
  5
3250
330
79D
100
AcDbEntity
  8
SUNPOU
 62
     0
100
AcDbTrace
 10
2550.791006481428
 20
6255.029289220385
 30
0.0
 11
2550.791006481428
 21
6240.029289220385
 31
0.0
 12
2505.791006481428
 22
6247.529289220385
 32
0.0
 13
2505.791006481428
 23
6247.529289220385
 33
0.0
  0
SOLID
  5
3251
330
79D
100
AcDbEntity
  8
SUNPOU
 62
     0
100
AcDbTrace
 10
3230.791006481429
 20
6255.029289220385
 30
0.0
 11
3230.791006481429
 21
6240.029289220385
 31
0.0
 12
3275.791006481429
 22
6247.529289220385
 32
0.0
 13
3275.791006481429
 23
6247.529289220385
 33
0.0
  0
MTEXT
  5
3252
330
79D
100
AcDbEntity
  8
SUNPOU
 62
     0
100
AcDbMText
 10
2890.791006481429
 20
6296.279289220385
 30
0.0
 40
62.5
 41
0.0
 71
     5
 72
     1
  1
\A1;770
 73
     1
 44
1.0
  0
POINT
  5
3253
330
79D
100
AcDbEntity
  8
DEFPOINTS
 62
     0
100
AcDbPoint
 10
2505.791006481428
 20
5630.788304021586
 30
0.0
  0
POINT
  5
3254
330
79D
100
AcDbEntity
  8
DEFPOINTS
 62
     0
100
AcDbPoint
 10
3275.791006481429
 20
5630.788304021587
 30
0.0
  0
POINT
  5
3255
330
79D
100
AcDbEntity
  8
DEFPOINTS
 62
     0
100
AcDbPoint
 10
3275.791006481429
 20
6247.529289220385
 30
0.0
  0
ENDBLK
  5
7A8
330
79D
100
AcDbEntity
  8
0
100
AcDbBlockEnd
  0
BLOCK
  5
7E1
330
7E0
100
AcDbEntity
  8
0
100
AcDbBlockBegin
  2
*D5
 70
     1
 10
0.0
 20
0.0
 30
0.0
  3
*D5
  1

  0
LINE
  5
32C2
330
7E0
100
AcDbEntity
  8
SUNPOU
 62
     0
370
    -2
100
AcDbLine
 10
2505.791006481429
 20
1015.888558090762
 30
0.0
 11
2505.791006481429
 21
699.3601861178577
 31
0.0
  0
LINE
  5
32C3
330
7E0
100
AcDbEntity
  8
SUNPOU
 62
     0
370
    -2
100
AcDbLine
 10
3275.791006481425
 20
1056.242548138702
 30
0.0
 11
3275.791006481425
 21
699.3601861178577
 31
0.0
  0
LINE
  5
32C4
330
7E0
100
AcDbEntity
  8
SUNPOU
 62
     0
370
    -2
100
AcDbLine
 10
2550.791006481429
 20
711.8601861178577
 30
0.0
 11
3230.791006481425
 21
711.8601861178577
 31
0.0
  0
SOLID
  5
32C5
330
7E0
100
AcDbEntity
  8
SUNPOU
 62
     0
100
AcDbTrace
 10
2550.791006481429
 20
719.3601861178577
 30
0.0
 11
2550.791006481429
 21
704.3601861178577
 31
0.0
 12
2505.791006481429
 22
711.8601861178577
 32
0.0
 13
2505.791006481429
 23
711.8601861178577
 33
0.0
  0
SOLID
  5
32C6
330
7E0
100
AcDbEntity
  8
SUNPOU
 62
     0
100
AcDbTrace
 10
3230.791006481425
 20
719.3601861178577
 30
0.0
 11
3230.791006481425
 21
704.3601861178577
 31
0.0
 12
3275.791006481425
 22
711.8601861178577
 32
0.0
 13
3275.791006481425
 23
711.8601861178577
 33
0.0
  0
MTEXT
  5
32C7
330
7E0
100
AcDbEntity
  8
SUNPOU
 62
     0
100
AcDbMText
 10
2890.791006481427
 20
760.6101861178577
 30
0.0
 40
62.5
 41
0.0
 71
     5
 72
     1
  1
\A1;770
 73
     1
 44
1.0
  0
POINT
  5
32C8
330
7E0
100
AcDbEntity
  8
DEFPOINTS
 62
     0
100
AcDbPoint
 10
2505.791006481429
 20
1065.888558090762
 30
0.0
  0
POINT
  5
32C9
330
7E0
100
AcDbEntity
  8
DEFPOINTS
 62
     0
100
AcDbPoint
 10
3275.791006481425
 20
1106.242548138702
 30
0.0
  0
POINT
  5
32CA
330
7E0
100
AcDbEntity
  8
DEFPOINTS
 62
     0
100
AcDbPoint
 10
3275.791006481425
 20
711.8601861178577
 30
0.0
  0
ENDBLK
  5
7EB
330
7E0
100
AcDbEntity
  8
0
100
AcDbBlockEnd
  0
BLOCK
  5
E60
330
E5D
100
AcDbEntity
  8
0
100
AcDbBlockBegin
  2
A$C17135D01
 70
     0
 10
0.0
 20
0.0
 30
0.0
  3
A$C17135D01
  1

  0
TEXT
  5
E5E
330
E5D
100
AcDbEntity
  8
SUNPOU
100
AcDbText
 10
427.5483771737754
 20
0.000004586273576
 30
0.0
 40
60.0
  1
新和コンクリ－ト工業株式会社
100
AcDbText
  0
LINE
  5
E5F
330
E5D
100
AcDbEntity
  8
SUNPOU
100
AcDbLine
 10
0.0000072978309618
 20
120.1423934771332
 30
0.0
 11
1550.000007297829
 21
120.1423934771332
 31
0.0
  0
ENDBLK
  5
E61
330
E5D
100
AcDbEntity
  8
0
100
AcDbBlockEnd
  0
BLOCK
  5
EA0
330
E9F
100
AcDbEntity
  8
HAIKIN
100
AcDbBlockBegin
  2
SA3
 70
     0
 10
0.0
 20
0.0
 30
0.0
  3
SA3
  1

  0
TEXT
  5
EA1
330
E9F
100
AcDbEntity
  8
SUNPOU
100
AcDbText
 10
340.0
 20
0.0
 30
0.0
 40
2.5
  1
新和コンクリート工業株式会社
100
AcDbText
  0
TEXT
  5
EA2
330
E9F
100
AcDbEntity
  8
SUNPOU
100
AcDbText
 10
361.4166666666667
 20
6.25
 30
0.0
 40
2.5
  1
製図
 72
     4
 11
364.0
 21
7.5
 31
0.0
100
AcDbText
  0
TEXT
  5
EA3
330
E9F
100
AcDbEntity
  8
SUNPOU
100
AcDbText
 10
361.3333333333333
 20
11.25
 30
0.0
 40
2.5
  1
設計
 72
     4
 11
364.0
 21
12.5
 31
0.0
100
AcDbText
  0
TEXT
  5
EA4
330
E9F
100
AcDbEntity
  8
SUNPOU
100
AcDbText
 10
339.0833333333333
 20
6.250000000000014
 30
0.0
 40
2.5
  1
認
 72
     4
 11
340.25
 21
7.500000000000014
 31
0.0
100
AcDbText
  0
TEXT
  5
EA5
330
E9F
100
AcDbEntity
  8
SUNPOU
100
AcDbText
 10
339.0833333333333
 20
11.33333333333336
 30
0.0
 40
2.5
  1
承
 72
     4
 11
340.25
 21
12.50000000000003
 31
0.0
100
AcDbText
  0
TEXT
  5
EA6
330
E9F
100
AcDbEntity
  8
SUNPOU
100
AcDbText
 10
312.75
 20
11.75000000000001
 30
0.0
 40
2.5
  1
図　面　番　号
 72
     4
 11
323.0
 21
13.00000000000001
 31
0.0
100
AcDbText
  0
TEXT
  5
EA7
330
E9F
100
AcDbEntity
  8
SUNPOU
100
AcDbText
 10
362.0
 20
17.0
 30
0.0
 40
2.5
  1
１／
100
AcDbText
  0
TEXT
  5
EA8
330
E9F
100
AcDbEntity
  8
SUNPOU
100
AcDbText
 10
347.3333333333333
 20
16.25000000000001
 30
0.0
 40
2.5
  1
縮　　尺
 72
     4
 11
353.0
 21
17.50000000000001
 31
0.0
100
AcDbText
  0
TEXT
  5
EA9
330
E9F
100
AcDbEntity
  8
SUNPOU
100
AcDbText
 10
347.3333333333333
 20
21.25
 30
0.0
 40
2.5
  1
鉄 筋 量
 72
     4
 11
353.0
 21
22.5
 31
0.0
100
AcDbText
  0
TEXT
  5
EAA
330
E9F
100
AcDbEntity
  8
SUNPOU
100
AcDbText
 10
347.3333333333333
 20
26.25
 30
0.0
 40
2.5
  1
製 造 数
 72
     4
 11
353.0
 21
27.5
 31
0.0
100
AcDbText
  0
TEXT
  5
EAB
330
E9F
100
AcDbEntity
  8
SUNPOU
100
AcDbText
 10
377.0
 20
21.0
 30
0.0
 40
2.5
  1
ｋｇ
 72
     2
 11
382.0
 21
21.0
 31
0.0
100
AcDbText
  0
TEXT
  5
EAC
330
E9F
100
AcDbEntity
  8
SUNPOU
100
AcDbText
 10
339.5
 20
21.0
 30
0.0
 40
2.5
  1
ｋｇ
 72
     2
 11
344.5
 21
21.0
 31
0.0
100
AcDbText
  0
TEXT
  5
EAD
330
E9F
100
AcDbEntity
  8
SUNPOU
100
AcDbText
 10
310.0
 20
16.25000000000001
 30
0.0
 40
2.5
  1
年 月 日
 72
     4
 11
315.5
 21
17.50000000000001
 31
0.0
100
AcDbText
  0
TEXT
  5
EAE
330
E9F
100
AcDbEntity
  8
SUNPOU
100
AcDbText
 10
309.8333333333333
 20
21.25
 30
0.0
 40
2.5
  1
製品質量
 72
     4
 11
315.5
 21
22.5
 31
0.0
100
AcDbText
  0
TEXT
  5
EAF
330
E9F
100
AcDbEntity
  8
SUNPOU
100
AcDbText
 10
309.9166666666667
 20
26.25
 30
0.0
 40
2.5
  1
業 者 名
 72
     4
 11
315.5
 21
27.5
 31
0.0
100
AcDbText
  0
TEXT
  5
EB0
330
E9F
100
AcDbEntity
  8
SUNPOU
100
AcDbText
 10
309.8333333333333
 20
32.5
 30
0.0
 40
2.5
  1
名　　称
 72
     4
 11
315.5
 21
33.75
 31
0.0
100
AcDbText
  0
LINE
  5
EB1
330
E9F
100
AcDbEntity
  8
SUNPOU
100
AcDbLine
 10
338.0
 20
11.00000000000001
 30
0.0
 11
308.0
 21
11.00000000000001
 31
0.0
  0
LINE
  5
EB2
330
E9F
100
AcDbEntity
  8
SUNPOU
100
AcDbLine
 10
367.5
 20
4.999999999999986
 30
0.0
 11
367.5
 21
14.99999999999999
 31
0.0
  0
LINE
  5
EB3
330
E9F
100
AcDbEntity
  8
SUNPOU
100
AcDbLine
 10
360.5
 20
4.999999999999986
 30
0.0
 11
360.5
 21
14.99999999999999
 31
0.0
  0
LINE
  5
EB4
330
E9F
100
AcDbEntity
  8
SUNPOU
100
AcDbLine
 10
342.5
 20
4.999999999999995
 30
0.0
 11
342.5
 21
15.0
 31
0.0
  0
LINE
  5
EB5
330
E9F
100
AcDbEntity
  8
SUNPOU
100
AcDbLine
 10
338.0
 20
4.999999999999995
 30
0.0
 11
338.0
 21
15.0
 31
0.0
  0
LINE
  5
EB6
330
E9F
100
AcDbEntity
  8
SUNPOU
100
AcDbLine
 10
323.0
 20
15.00000000000001
 30
0.0
 11
323.0
 21
37.5
 31
0.0
  0
LINE
  5
EB7
330
E9F
100
AcDbEntity
  8
SUNPOU
100
AcDbLine
 10
360.5
 20
15.00000000000001
 30
0.0
 11
360.5
 21
30.0
 31
0.0
  0
LINE
  5
EB8
330
E9F
100
AcDbEntity
  8
SUNPOU
100
AcDbLine
 10
345.5
 20
15.00000000000001
 30
0.0
 11
345.5
 21
30.0
 31
0.0
  0
LINE
  5
EB9
330
E9F
100
AcDbEntity
  8
SUNPOU
100
AcDbLine
 10
383.0
 20
30.0
 30
0.0
 11
308.0
 21
30.0
 31
0.0
  0
LINE
  5
EBA
330
E9F
100
AcDbEntity
  8
SUNPOU
100
AcDbLine
 10
383.0
 20
25.0
 30
0.0
 11
308.0
 21
25.0
 31
0.0
  0
LINE
  5
EBB
330
E9F
100
AcDbEntity
  8
SUNPOU
100
AcDbLine
 10
383.0
 20
20.0
 30
0.0
 11
308.0
 21
20.0
 31
0.0
  0
LINE
  5
EBC
330
E9F
100
AcDbEntity
  8
SUNPOU
100
AcDbLine
 10
383.0
 20
14.99999999999999
 30
0.0
 11
308.0
 21
15.00000000000004
 31
0.0
  0
LINE
  5
EBD
330
E9F
100
AcDbEntity
  8
HAIKIN
100
AcDbLine
 10
308.0
 20
37.5
 30
0.0
 11
383.0
 21
37.5
 31
0.0
  0
LINE
  5
EBE
330
E9F
100
AcDbEntity
  8
HAIKIN
100
AcDbLine
 10
308.0
 20
5.000000000000009
 30
0.0
 11
308.0
 21
37.5
 31
0.0
  0
LINE
  5
EBF
330
E9F
100
AcDbEntity
  8
SUNPOU
100
AcDbLine
 10
0.000000000000016
 20
277.0
 30
0.0
 11
0.000000000000016
 21
272.0
 31
0.0
  0
LINE
  5
EC0
330
E9F
100
AcDbEntity
  8
SUNPOU
100
AcDbLine
 10
25.00000000000001
 20
277.0
 30
0.0
 11
0.000000000000016
 21
277.0
 31
0.0
  0
LINE
  5
EC1
330
E9F
100
AcDbEntity
  8
SUNPOU
100
AcDbLine
 10
25.00000000000001
 20
272.0
 30
0.0
 11
25.00000000000001
 21
277.0
 31
0.0
  0
LINE
  5
EC2
330
E9F
100
AcDbEntity
  8
HAIKIN
100
AcDbLine
 10
0.0000000000000004
 20
5.0
 30
0.0
 11
383.0
 21
5.0
 31
0.0
  0
LINE
  5
EC3
330
E9F
100
AcDbEntity
  8
HAIKIN
100
AcDbLine
 10
0.0000000000000158
 20
272.0
 30
0.0
 11
383.0
 21
272.0
 31
0.0
  0
LINE
  5
EC4
330
E9F
100
AcDbEntity
  8
HAIKIN
100
AcDbLine
 10
383.0
 20
272.0
 30
0.0
 11
383.0
 21
5.0
 31
0.0
  0
TEXT
  5
EC5
330
E9F
100
AcDbEntity
  8
SUNPOU
100
AcDbText
 10
3.700000000000017
 20
273.0
 30
0.0
 40
3.0
  1
Ｈ－２－共
 72
     4
 11
12.50000000000002
 21
274.5
 31
0.0
100
AcDbText
  0
LINE
  5
EC6
330
E9F
100
AcDbEntity
  8
HAIKIN
100
AcDbLine
 10
0.0000000000000004
 20
5.0
 30
0.0
 11
0.0000000000000158
 21
272.0
 31
0.0
  0
ENDBLK
  5
EC7
330
E9F
100
AcDbEntity
  8
HAIKIN
100
AcDbBlockEnd
  0
BLOCK
  5
EE1
330
ED7
100
AcDbEntity
  8
0
100
AcDbBlockBegin
  2
*D8
 70
     1
 10
0.0
 20
0.0
 30
0.0
  3
*D8
  1

  0
LINE
  5
3283
330
ED7
100
AcDbEntity
  8
SUNPOU
 62
     0
370
    -2
100
AcDbLine
 10
6103.915688024659
 20
758.8848104312929
 30
0.0
 11
6103.915688024659
 21
298.7668600133466
 31
0.0
  0
LINE
  5
3284
330
ED7
100
AcDbEntity
  8
SUNPOU
 62
     0
370
    -2
100
AcDbLine
 10
4603.915688024659
 20
758.8848104312929
 30
0.0
 11
4603.915688024659
 21
298.7668600133466
 31
0.0
  0
LINE
  5
3285
330
ED7
100
AcDbEntity
  8
SUNPOU
 62
     0
370
    -2
100
AcDbLine
 10
6058.915688024659
 20
311.2668600133466
 30
0.0
 11
4648.915688024659
 21
311.2668600133466
 31
0.0
  0
SOLID
  5
3286
330
ED7
100
AcDbEntity
  8
SUNPOU
 62
     0
100
AcDbTrace
 10
6058.915688024659
 20
318.7668600133466
 30
0.0
 11
6058.915688024659
 21
303.7668600133466
 31
0.0
 12
6103.915688024659
 22
311.2668600133466
 32
0.0
 13
6103.915688024659
 23
311.2668600133466
 33
0.0
  0
SOLID
  5
3287
330
ED7
100
AcDbEntity
  8
SUNPOU
 62
     0
100
AcDbTrace
 10
4648.915688024659
 20
318.7668600133466
 30
0.0
 11
4648.915688024659
 21
303.7668600133466
 31
0.0
 12
4603.915688024659
 22
311.2668600133466
 32
0.0
 13
4603.915688024659
 23
311.2668600133466
 33
0.0
  0
MTEXT
  5
3288
330
ED7
100
AcDbEntity
  8
SUNPOU
 62
     0
100
AcDbMText
 10
5353.915688024659
 20
360.0168600133466
 30
0.0
 40
62.5
 41
0.0
 71
     5
 72
     1
  1
\A1;1500
 73
     1
 44
1.0
  0
POINT
  5
3289
330
ED7
100
AcDbEntity
  8
DEFPOINTS
 62
     0
100
AcDbPoint
 10
6103.915688024659
 20
808.8848104312929
 30
0.0
  0
POINT
  5
328A
330
ED7
100
AcDbEntity
  8
DEFPOINTS
 62
     0
100
AcDbPoint
 10
4603.915688024659
 20
808.8848104312929
 30
0.0
  0
POINT
  5
328B
330
ED7
100
AcDbEntity
  8
DEFPOINTS
 62
     0
100
AcDbPoint
 10
4603.915688024659
 20
311.2668600133466
 30
0.0
  0
ENDBLK
  5
EE2
330
ED7
100
AcDbEntity
  8
0
100
AcDbBlockEnd
  0
BLOCK
  5
EED
330
EE3
100
AcDbEntity
  8
0
100
AcDbBlockBegin
  2
*D9
 70
     1
 10
0.0
 20
0.0
 30
0.0
  3
*D9
  1

  0
LINE
  5
328C
330
EE3
100
AcDbEntity
  8
SUNPOU
 62
     0
370
    -2
100
AcDbLine
 10
5353.915688024659
 20
758.8848104312929
 30
0.0
 11
5353.915688024659
 21
470.7811878394086
 31
0.0
  0
LINE
  5
328D
330
EE3
100
AcDbEntity
  8
SUNPOU
 62
     0
370
    -2
100
AcDbLine
 10
4978.915688024659
 20
758.8848104312929
 30
0.0
 11
4978.915688024659
 21
470.7811878394086
 31
0.0
  0
LINE
  5
328E
330
EE3
100
AcDbEntity
  8
SUNPOU
 62
     0
370
    -2
100
AcDbLine
 10
5308.915688024659
 20
483.2811878394086
 30
0.0
 11
5023.915688024659
 21
483.2811878394086
 31
0.0
  0
SOLID
  5
328F
330
EE3
100
AcDbEntity
  8
SUNPOU
 62
     0
100
AcDbTrace
 10
5308.915688024659
 20
490.7811878394086
 30
0.0
 11
5308.915688024659
 21
475.7811878394086
 31
0.0
 12
5353.915688024659
 22
483.2811878394086
 32
0.0
 13
5353.915688024659
 23
483.2811878394086
 33
0.0
  0
SOLID
  5
3290
330
EE3
100
AcDbEntity
  8
SUNPOU
 62
     0
100
AcDbTrace
 10
5023.915688024659
 20
490.7811878394086
 30
0.0
 11
5023.915688024659
 21
475.7811878394086
 31
0.0
 12
4978.915688024659
 22
483.2811878394086
 32
0.0
 13
4978.915688024659
 23
483.2811878394086
 33
0.0
  0
MTEXT
  5
3291
330
EE3
100
AcDbEntity
  8
SUNPOU
 62
     0
100
AcDbMText
 10
5166.415688024659
 20
532.0311878394086
 30
0.0
 40
62.5
 41
0.0
 71
     5
 72
     1
  1
\A1;375
 73
     1
 44
1.0
  0
POINT
  5
3292
330
EE3
100
AcDbEntity
  8
DEFPOINTS
 62
     0
100
AcDbPoint
 10
5353.915688024659
 20
808.8848104312929
 30
0.0
  0
POINT
  5
3293
330
EE3
100
AcDbEntity
  8
DEFPOINTS
 62
     0
100
AcDbPoint
 10
4978.915688024659
 20
808.8848104312929
 30
0.0
  0
POINT
  5
3294
330
EE3
100
AcDbEntity
  8
DEFPOINTS
 62
     0
100
AcDbPoint
 10
4978.915688024659
 20
483.2811878394086
 30
0.0
  0
ENDBLK
  5
EEE
330
EE3
100
AcDbEntity
  8
0
100
AcDbBlockEnd
  0
BLOCK
  5
EF9
330
EEF
100
AcDbEntity
  8
0
100
AcDbBlockBegin
  2
*D10
 70
     1
 10
0.0
 20
0.0
 30
0.0
  3
*D10
  1

  0
LINE
  5
3295
330
EEF
100
AcDbEntity
  8
SUNPOU
 62
     0
370
    -2
100
AcDbLine
 10
4978.915688024659
 20
758.8848104312929
 30
0.0
 11
4978.915688024659
 21
470.7811878394086
 31
0.0
  0
LINE
  5
3296
330
EEF
100
AcDbEntity
  8
SUNPOU
 62
     0
370
    -2
100
AcDbLine
 10
4603.915688024659
 20
758.8848104312929
 30
0.0
 11
4603.915688024659
 21
470.7811878394086
 31
0.0
  0
LINE
  5
3297
330
EEF
100
AcDbEntity
  8
SUNPOU
 62
     0
370
    -2
100
AcDbLine
 10
4933.915688024659
 20
483.2811878394086
 30
0.0
 11
4648.915688024659
 21
483.2811878394086
 31
0.0
  0
SOLID
  5
3298
330
EEF
100
AcDbEntity
  8
SUNPOU
 62
     0
100
AcDbTrace
 10
4933.915688024659
 20
490.7811878394086
 30
0.0
 11
4933.915688024659
 21
475.7811878394086
 31
0.0
 12
4978.915688024659
 22
483.2811878394086
 32
0.0
 13
4978.915688024659
 23
483.2811878394086
 33
0.0
  0
SOLID
  5
3299
330
EEF
100
AcDbEntity
  8
SUNPOU
 62
     0
100
AcDbTrace
 10
4648.915688024659
 20
490.7811878394086
 30
0.0
 11
4648.915688024659
 21
475.7811878394086
 31
0.0
 12
4603.915688024659
 22
483.2811878394086
 32
0.0
 13
4603.915688024659
 23
483.2811878394086
 33
0.0
  0
MTEXT
  5
329A
330
EEF
100
AcDbEntity
  8
SUNPOU
 62
     0
100
AcDbMText
 10
4791.415688024659
 20
532.0311878394086
 30
0.0
 40
62.5
 41
0.0
 71
     5
 72
     1
  1
\A1;375
 73
     1
 44
1.0
  0
POINT
  5
329B
330
EEF
100
AcDbEntity
  8
DEFPOINTS
 62
     0
100
AcDbPoint
 10
4978.915688024659
 20
808.8848104312929
 30
0.0
  0
POINT
  5
329C
330
EEF
100
AcDbEntity
  8
DEFPOINTS
 62
     0
100
AcDbPoint
 10
4603.915688024659
 20
808.8848104312929
 30
0.0
  0
POINT
  5
329D
330
EEF
100
AcDbEntity
  8
DEFPOINTS
 62
     0
100
AcDbPoint
 10
4603.915688024659
 20
483.2811878394086
 30
0.0
  0
ENDBLK
  5
EFA
330
EEF
100
AcDbEntity
  8
0
100
AcDbBlockEnd
  0
BLOCK
  5
F11
330
F07
100
AcDbEntity
  8
0
100
AcDbBlockBegin
  2
*D11
 70
     1
 10
0.0
 20
0.0
 30
0.0
  3
*D11
  1

  0
LINE
  5
329E
330
F07
100
AcDbEntity
  8
SUNPOU
 62
     0
370
    -2
100
AcDbLine
 10
6153.915688024659
 20
808.8848104312929
 30
0.0
 11
6506.282365201897
 21
808.8848104312927
 31
0.0
  0
LINE
  5
329F
330
F07
100
AcDbEntity
  8
SUNPOU
 62
     0
370
    -2
100
AcDbLine
 10
6153.915688024659
 20
1068.884810431293
 30
0.0
 11
6506.282365201897
 21
1068.884810431293
 31
0.0
  0
LINE
  5
32A0
330
F07
100
AcDbEntity
  8
SUNPOU
 62
     0
370
    -2
100
AcDbLine
 10
6493.782365201897
 20
853.8848104312927
 30
0.0
 11
6493.782365201897
 21
1023.884810431293
 31
0.0
  0
SOLID
  5
32A1
330
F07
100
AcDbEntity
  8
SUNPOU
 62
     0
100
AcDbTrace
 10
6486.282365201897
 20
853.8848104312927
 30
0.0
 11
6501.282365201897
 21
853.8848104312927
 31
0.0
 12
6493.782365201897
 22
808.8848104312927
 32
0.0
 13
6493.782365201897
 23
808.8848104312927
 33
0.0
  0
SOLID
  5
32A2
330
F07
100
AcDbEntity
  8
SUNPOU
 62
     0
100
AcDbTrace
 10
6486.282365201897
 20
1023.884810431293
 30
0.0
 11
6501.282365201897
 21
1023.884810431293
 31
0.0
 12
6493.782365201897
 22
1068.884810431293
 32
0.0
 13
6493.782365201897
 23
1068.884810431293
 33
0.0
  0
MTEXT
  5
32A3
330
F07
100
AcDbEntity
  8
SUNPOU
 62
     0
100
AcDbMText
 10
6445.032365201897
 20
938.8848104312939
 30
0.0
 40
62.5
 41
0.0
 71
     5
 72
     1
  1
\A1;260
 11
6.123031769111886E-17
 21
1.0
 31
0.0
 73
     1
 44
1.0
  0
POINT
  5
32A4
330
F07
100
AcDbEntity
  8
DEFPOINTS
 62
     0
100
AcDbPoint
 10
6103.915688024659
 20
808.8848104312929
 30
0.0
  0
POINT
  5
32A5
330
F07
100
AcDbEntity
  8
DEFPOINTS
 62
     0
100
AcDbPoint
 10
6103.915688024659
 20
1068.884810431293
 30
0.0
  0
POINT
  5
32A6
330
F07
100
AcDbEntity
  8
DEFPOINTS
 62
     0
100
AcDbPoint
 10
6493.782365201897
 20
1068.884810431293
 30
0.0
  0
ENDBLK
  5
F12
330
F07
100
AcDbEntity
  8
0
100
AcDbBlockEnd
  0
BLOCK
  5
F1D
330
F13
100
AcDbEntity
  8
0
100
AcDbBlockBegin
  2
*D12
 70
     1
 10
0.0
 20
0.0
 30
0.0
  3
*D12
  1

  0
LINE
  5
32A7
330
F13
100
AcDbEntity
  8
SUNPOU
 62
     0
370
    -2
100
AcDbLine
 10
6153.915688024659
 20
808.8848104312929
 30
0.0
 11
6376.145491393098
 21
808.8848104312929
 31
0.0
  0
LINE
  5
32A8
330
F13
100
AcDbEntity
  8
SUNPOU
 62
     0
370
    -2
100
AcDbLine
 10
6153.915688024659
 20
998.8848104312929
 30
0.0
 11
6376.145491393098
 21
998.8848104312929
 31
0.0
  0
LINE
  5
32A9
330
F13
100
AcDbEntity
  8
SUNPOU
 62
     0
370
    -2
100
AcDbLine
 10
6363.645491393098
 20
853.8848104312929
 30
0.0
 11
6363.645491393098
 21
953.8848104312929
 31
0.0
  0
SOLID
  5
32AA
330
F13
100
AcDbEntity
  8
SUNPOU
 62
     0
100
AcDbTrace
 10
6356.145491393098
 20
853.8848104312929
 30
0.0
 11
6371.145491393098
 21
853.8848104312929
 31
0.0
 12
6363.645491393098
 22
808.8848104312929
 32
0.0
 13
6363.645491393098
 23
808.8848104312929
 33
0.0
  0
SOLID
  5
32AB
330
F13
100
AcDbEntity
  8
SUNPOU
 62
     0
100
AcDbTrace
 10
6356.145491393098
 20
953.8848104312929
 30
0.0
 11
6371.145491393098
 21
953.8848104312929
 31
0.0
 12
6363.645491393098
 22
998.8848104312929
 32
0.0
 13
6363.645491393098
 23
998.8848104312929
 33
0.0
  0
MTEXT
  5
32AC
330
F13
100
AcDbEntity
  8
SUNPOU
 62
     0
100
AcDbMText
 10
6314.895491393098
 20
903.8848104312939
 30
0.0
 40
62.5
 41
0.0
 71
     5
 72
     1
  1
\A1;190
 11
6.123031769111886E-17
 21
1.0
 31
0.0
 73
     1
 44
1.0
  0
POINT
  5
32AD
330
F13
100
AcDbEntity
  8
DEFPOINTS
 62
     0
100
AcDbPoint
 10
6103.915688024659
 20
808.8848104312929
 30
0.0
  0
POINT
  5
32AE
330
F13
100
AcDbEntity
  8
DEFPOINTS
 62
     0
100
AcDbPoint
 10
6103.915688024659
 20
998.8848104312929
 30
0.0
  0
POINT
  5
32AF
330
F13
100
AcDbEntity
  8
DEFPOINTS
 62
     0
100
AcDbPoint
 10
6363.645491393098
 20
998.8848104312929
 30
0.0
  0
ENDBLK
  5
F1E
330
F13
100
AcDbEntity
  8
0
100
AcDbBlockEnd
  0
BLOCK
  5
F29
330
F1F
100
AcDbEntity
  8
0
100
AcDbBlockBegin
  2
*D13
 70
     1
 10
0.0
 20
0.0
 30
0.0
  3
*D13
  1

  0
LINE
  5
32B0
330
F1F
100
AcDbEntity
  8
SUNPOU
 62
     0
370
    -2
100
AcDbLine
 10
1505.791006481429
 20
1015.888558090762
 30
0.0
 11
1505.791006481429
 21
699.3601861178577
 31
0.0
  0
LINE
  5
32B1
330
F1F
100
AcDbEntity
  8
SUNPOU
 62
     0
370
    -2
100
AcDbLine
 10
2205.791006481429
 20
1015.888558090762
 30
0.0
 11
2205.791006481429
 21
699.3601861178577
 31
0.0
  0
LINE
  5
32B2
330
F1F
100
AcDbEntity
  8
SUNPOU
 62
     0
370
    -2
100
AcDbLine
 10
1550.791006481429
 20
711.8601861178577
 30
0.0
 11
2160.791006481429
 21
711.8601861178577
 31
0.0
  0
SOLID
  5
32B3
330
F1F
100
AcDbEntity
  8
SUNPOU
 62
     0
100
AcDbTrace
 10
1550.791006481429
 20
719.3601861178577
 30
0.0
 11
1550.791006481429
 21
704.3601861178577
 31
0.0
 12
1505.791006481429
 22
711.8601861178577
 32
0.0
 13
1505.791006481429
 23
711.8601861178577
 33
0.0
  0
SOLID
  5
32B4
330
F1F
100
AcDbEntity
  8
SUNPOU
 62
     0
100
AcDbTrace
 10
2160.791006481429
 20
719.3601861178577
 30
0.0
 11
2160.791006481429
 21
704.3601861178577
 31
0.0
 12
2205.791006481429
 22
711.8601861178577
 32
0.0
 13
2205.791006481429
 23
711.8601861178577
 33
0.0
  0
MTEXT
  5
32B5
330
F1F
100
AcDbEntity
  8
SUNPOU
 62
     0
100
AcDbMText
 10
1855.791006481429
 20
760.6101861178577
 30
0.0
 40
62.5
 41
0.0
 71
     5
 72
     1
  1
\A1;700
 73
     1
 44
1.0
  0
POINT
  5
32B6
330
F1F
100
AcDbEntity
  8
DEFPOINTS
 62
     0
100
AcDbPoint
 10
1505.791006481429
 20
1065.888558090762
 30
0.0
  0
POINT
  5
32B7
330
F1F
100
AcDbEntity
  8
DEFPOINTS
 62
     0
100
AcDbPoint
 10
2205.791006481429
 20
1065.888558090762
 30
0.0
  0
POINT
  5
32B8
330
F1F
100
AcDbEntity
  8
DEFPOINTS
 62
     0
100
AcDbPoint
 10
2205.791006481429
 20
711.8601861178577
 30
0.0
  0
ENDBLK
  5
F2A
330
F1F
100
AcDbEntity
  8
0
100
AcDbBlockEnd
  0
BLOCK
  5
F4D
330
F43
100
AcDbEntity
  8
0
100
AcDbBlockBegin
  2
*D14
 70
     1
 10
0.0
 20
0.0
 30
0.0
  3
*D14
  1

  0
LINE
  5
32B9
330
F43
100
AcDbEntity
  8
SUNPOU
 62
     0
370
    -2
100
AcDbLine
 10
2205.791006481429
 20
1015.888558090762
 30
0.0
 11
2205.791006481429
 21
699.3601861178577
 31
0.0
  0
LINE
  5
32BA
330
F43
100
AcDbEntity
  8
SUNPOU
 62
     0
370
    -2
100
AcDbLine
 10
2505.791006481429
 20
1015.888558090762
 30
0.0
 11
2505.791006481429
 21
699.3601861178577
 31
0.0
  0
LINE
  5
32BB
330
F43
100
AcDbEntity
  8
SUNPOU
 62
     0
370
    -2
100
AcDbLine
 10
2250.791006481429
 20
711.8601861178577
 30
0.0
 11
2460.791006481429
 21
711.8601861178577
 31
0.0
  0
SOLID
  5
32BC
330
F43
100
AcDbEntity
  8
SUNPOU
 62
     0
100
AcDbTrace
 10
2250.791006481429
 20
719.3601861178577
 30
0.0
 11
2250.791006481429
 21
704.3601861178577
 31
0.0
 12
2205.791006481429
 22
711.8601861178577
 32
0.0
 13
2205.791006481429
 23
711.8601861178577
 33
0.0
  0
SOLID
  5
32BD
330
F43
100
AcDbEntity
  8
SUNPOU
 62
     0
100
AcDbTrace
 10
2460.791006481429
 20
719.3601861178577
 30
0.0
 11
2460.791006481429
 21
704.3601861178577
 31
0.0
 12
2505.791006481429
 22
711.8601861178577
 32
0.0
 13
2505.791006481429
 23
711.8601861178577
 33
0.0
  0
MTEXT
  5
32BE
330
F43
100
AcDbEntity
  8
SUNPOU
 62
     0
100
AcDbMText
 10
2355.791006481429
 20
760.6101861178577
 30
0.0
 40
62.5
 41
0.0
 71
     5
 72
     1
  1
\A1;300
 73
     1
 44
1.0
  0
POINT
  5
32BF
330
F43
100
AcDbEntity
  8
DEFPOINTS
 62
     0
100
AcDbPoint
 10
2205.791006481429
 20
1065.888558090762
 30
0.0
  0
POINT
  5
32C0
330
F43
100
AcDbEntity
  8
DEFPOINTS
 62
     0
100
AcDbPoint
 10
2505.791006481429
 20
1065.888558090762
 30
0.0
  0
POINT
  5
32C1
330
F43
100
AcDbEntity
  8
DEFPOINTS
 62
     0
100
AcDbPoint
 10
2505.791006481429
 20
711.8601861178577
 30
0.0
  0
ENDBLK
  5
F4E
330
F43
100
AcDbEntity
  8
0
100
AcDbBlockEnd
  0
BLOCK
  5
F62
330
F58
100
AcDbEntity
  8
0
100
AcDbBlockBegin
  2
*D15
 70
     1
 10
0.0
 20
0.0
 30
0.0
  3
*D15
  1

  0
LINE
  5
32CB
330
F58
100
AcDbEntity
  8
SUNPOU
 62
     0
370
    -2
100
AcDbLine
 10
6153.915688024659
 20
998.8848104312929
 30
0.0
 11
6376.145491393098
 21
998.8848104312929
 31
0.0
  0
LINE
  5
32CC
330
F58
100
AcDbEntity
  8
SUNPOU
 62
     0
370
    -2
100
AcDbLine
 10
6153.915688024659
 20
1068.884810431293
 30
0.0
 11
6376.145491393098
 21
1068.884810431293
 31
0.0
  0
LINE
  5
32CD
330
F58
100
AcDbEntity
  8
SUNPOU
 62
     0
370
    -2
100
AcDbLine
 10
6363.645491393098
 20
953.8848104312929
 30
0.0
 11
6363.645491393098
 21
908.8848104312929
 31
0.0
  0
LINE
  5
32CE
330
F58
100
AcDbEntity
  8
SUNPOU
 62
     0
370
    -2
100
AcDbLine
 10
6363.645491393098
 20
1113.884810431293
 30
0.0
 11
6363.645491393098
 21
1158.884810431293
 31
0.0
  0
SOLID
  5
32CF
330
F58
100
AcDbEntity
  8
SUNPOU
 62
     0
100
AcDbTrace
 10
6356.145491393098
 20
953.8848104312929
 30
0.0
 11
6371.145491393098
 21
953.8848104312929
 31
0.0
 12
6363.645491393098
 22
998.8848104312929
 32
0.0
 13
6363.645491393098
 23
998.8848104312929
 33
0.0
  0
SOLID
  5
32D0
330
F58
100
AcDbEntity
  8
SUNPOU
 62
     0
100
AcDbTrace
 10
6356.145491393098
 20
1113.884810431293
 30
0.0
 11
6371.145491393098
 21
1113.884810431293
 31
0.0
 12
6363.645491393098
 22
1068.884810431293
 32
0.0
 13
6363.645491393098
 23
1068.884810431293
 33
0.0
  0
MTEXT
  5
32D1
330
F58
100
AcDbEntity
  8
SUNPOU
 62
     0
100
AcDbMText
 10
6314.895491393098
 20
1033.884810431294
 30
0.0
 40
62.5
 41
0.0
 71
     5
 72
     1
  1
\A1;70
 11
6.123031769111886E-17
 21
1.0
 31
0.0
 73
     1
 44
1.0
  0
POINT
  5
32D2
330
F58
100
AcDbEntity
  8
DEFPOINTS
 62
     0
100
AcDbPoint
 10
6103.915688024659
 20
998.8848104312929
 30
0.0
  0
POINT
  5
32D3
330
F58
100
AcDbEntity
  8
DEFPOINTS
 62
     0
100
AcDbPoint
 10
6103.915688024659
 20
1068.884810431293
 30
0.0
  0
POINT
  5
32D4
330
F58
100
AcDbEntity
  8
DEFPOINTS
 62
     0
100
AcDbPoint
 10
6363.645491393098
 20
1068.884810431293
 30
0.0
  0
ENDBLK
  5
F63
330
F58
100
AcDbEntity
  8
0
100
AcDbBlockEnd
  0
BLOCK
  5
F92
330
F88
100
AcDbEntity
  8
0
100
AcDbBlockBegin
  2
*D16
 70
     1
 10
0.0
 20
0.0
 30
0.0
  3
*D16
  1

  0
LINE
  5
32D5
330
F88
100
AcDbEntity
  8
SUNPOU
 62
     0
370
    -2
100
AcDbLine
 10
2205.791006481429
 20
1015.888558090762
 30
0.0
 11
2205.791006481429
 21
836.6369904923813
 31
0.0
  0
LINE
  5
32D6
330
F88
100
AcDbEntity
  8
SUNPOU
 62
     0
370
    -2
100
AcDbLine
 10
2435.791006481429
 20
1015.888558090762
 30
0.0
 11
2435.791006481429
 21
836.6369904923813
 31
0.0
  0
LINE
  5
32D7
330
F88
100
AcDbEntity
  8
SUNPOU
 62
     0
370
    -2
100
AcDbLine
 10
2250.791006481429
 20
849.1369904923813
 30
0.0
 11
2390.791006481429
 21
849.1369904923813
 31
0.0
  0
SOLID
  5
32D8
330
F88
100
AcDbEntity
  8
SUNPOU
 62
     0
100
AcDbTrace
 10
2250.791006481429
 20
856.6369904923813
 30
0.0
 11
2250.791006481429
 21
841.6369904923813
 31
0.0
 12
2205.791006481429
 22
849.1369904923813
 32
0.0
 13
2205.791006481429
 23
849.1369904923813
 33
0.0
  0
SOLID
  5
32D9
330
F88
100
AcDbEntity
  8
SUNPOU
 62
     0
100
AcDbTrace
 10
2390.791006481429
 20
856.6369904923813
 30
0.0
 11
2390.791006481429
 21
841.6369904923813
 31
0.0
 12
2435.791006481429
 22
849.1369904923813
 32
0.0
 13
2435.791006481429
 23
849.1369904923813
 33
0.0
  0
MTEXT
  5
32DA
330
F88
100
AcDbEntity
  8
SUNPOU
 62
     0
100
AcDbMText
 10
2320.791006481429
 20
897.8869904923813
 30
0.0
 40
62.5
 41
0.0
 71
     5
 72
     1
  1
\A1;230
 73
     1
 44
1.0
  0
POINT
  5
32DB
330
F88
100
AcDbEntity
  8
DEFPOINTS
 62
     0
100
AcDbPoint
 10
2205.791006481429
 20
1065.888558090762
 30
0.0
  0
POINT
  5
32DC
330
F88
100
AcDbEntity
  8
DEFPOINTS
 62
     0
100
AcDbPoint
 10
2435.791006481429
 20
1065.888558090762
 30
0.0
  0
POINT
  5
32DD
330
F88
100
AcDbEntity
  8
DEFPOINTS
 62
     0
100
AcDbPoint
 10
2435.791006481429
 20
849.1369904923813
 30
0.0
  0
ENDBLK
  5
F93
330
F88
100
AcDbEntity
  8
0
100
AcDbBlockEnd
  0
BLOCK
  5
F9E
330
F94
100
AcDbEntity
  8
0
100
AcDbBlockBegin
  2
*D17
 70
     1
 10
0.0
 20
0.0
 30
0.0
  3
*D17
  1

  0
LINE
  5
32DE
330
F94
100
AcDbEntity
  8
SUNPOU
 62
     0
370
    -2
100
AcDbLine
 10
2435.791006481429
 20
1015.888558090762
 30
0.0
 11
2435.791006481429
 21
836.6369904923813
 31
0.0
  0
LINE
  5
32DF
330
F94
100
AcDbEntity
  8
SUNPOU
 62
     0
370
    -2
100
AcDbLine
 10
2505.791006481429
 20
1015.888558090762
 30
0.0
 11
2505.791006481429
 21
836.6369904923813
 31
0.0
  0
LINE
  5
32E0
330
F94
100
AcDbEntity
  8
SUNPOU
 62
     0
370
    -2
100
AcDbLine
 10
2390.791006481429
 20
849.1369904923813
 30
0.0
 11
2345.791006481429
 21
849.1369904923813
 31
0.0
  0
LINE
  5
32E1
330
F94
100
AcDbEntity
  8
SUNPOU
 62
     0
370
    -2
100
AcDbLine
 10
2550.791006481429
 20
849.1369904923813
 30
0.0
 11
2595.791006481429
 21
849.1369904923813
 31
0.0
  0
SOLID
  5
32E2
330
F94
100
AcDbEntity
  8
SUNPOU
 62
     0
100
AcDbTrace
 10
2390.791006481429
 20
856.6369904923813
 30
0.0
 11
2390.791006481429
 21
841.6369904923813
 31
0.0
 12
2435.791006481429
 22
849.1369904923813
 32
0.0
 13
2435.791006481429
 23
849.1369904923813
 33
0.0
  0
SOLID
  5
32E3
330
F94
100
AcDbEntity
  8
SUNPOU
 62
     0
100
AcDbTrace
 10
2550.791006481429
 20
856.6369904923813
 30
0.0
 11
2550.791006481429
 21
841.6369904923813
 31
0.0
 12
2505.791006481429
 22
849.1369904923813
 32
0.0
 13
2505.791006481429
 23
849.1369904923813
 33
0.0
  0
MTEXT
  5
32E4
330
F94
100
AcDbEntity
  8
SUNPOU
 62
     0
100
AcDbMText
 10
2470.791006481429
 20
897.8869904923813
 30
0.0
 40
62.5
 41
0.0
 71
     5
 72
     1
  1
\A1;70
 73
     1
 44
1.0
  0
POINT
  5
32E5
330
F94
100
AcDbEntity
  8
DEFPOINTS
 62
     0
100
AcDbPoint
 10
2435.791006481429
 20
1065.888558090762
 30
0.0
  0
POINT
  5
32E6
330
F94
100
AcDbEntity
  8
DEFPOINTS
 62
     0
100
AcDbPoint
 10
2505.791006481429
 20
1065.888558090762
 30
0.0
  0
POINT
  5
32E7
330
F94
100
AcDbEntity
  8
DEFPOINTS
 62
     0
100
AcDbPoint
 10
2505.791006481429
 20
849.1369904923813
 30
0.0
  0
ENDBLK
  5
F9F
330
F94
100
AcDbEntity
  8
0
100
AcDbBlockEnd
  0
BLOCK
  5
FE0
330
FD6
100
AcDbEntity
  8
0
100
AcDbBlockBegin
  2
*D18
 70
     1
 10
0.0
 20
0.0
 30
0.0
  3
*D18
  1

  0
LINE
  5
310F
330
FD6
100
AcDbEntity
  8
SUNPOU
 62
     0
370
    -2
100
AcDbLine
 10
1205.791006481428
 20
5830.788304021587
 30
0.0
 11
1205.791006481428
 21
6132.70701761596
 31
0.0
  0
LINE
  5
3110
330
FD6
100
AcDbEntity
  8
SUNPOU
 62
     0
370
    -2
100
AcDbLine
 10
2505.791006481428
 20
5680.788304021586
 30
0.0
 11
2505.791006481428
 21
6132.70701761596
 31
0.0
  0
LINE
  5
3111
330
FD6
100
AcDbEntity
  8
SUNPOU
 62
     0
370
    -2
100
AcDbLine
 10
1250.791006481428
 20
6120.20701761596
 30
0.0
 11
2460.791006481428
 21
6120.20701761596
 31
0.0
  0
SOLID
  5
3112
330
FD6
100
AcDbEntity
  8
SUNPOU
 62
     0
100
AcDbTrace
 10
1250.791006481428
 20
6127.70701761596
 30
0.0
 11
1250.791006481428
 21
6112.70701761596
 31
0.0
 12
1205.791006481428
 22
6120.20701761596
 32
0.0
 13
1205.791006481428
 23
6120.20701761596
 33
0.0
  0
SOLID
  5
3113
330
FD6
100
AcDbEntity
  8
SUNPOU
 62
     0
100
AcDbTrace
 10
2460.791006481428
 20
6127.70701761596
 30
0.0
 11
2460.791006481428
 21
6112.70701761596
 31
0.0
 12
2505.791006481428
 22
6120.20701761596
 32
0.0
 13
2505.791006481428
 23
6120.20701761596
 33
0.0
  0
MTEXT
  5
3114
330
FD6
100
AcDbEntity
  8
SUNPOU
 62
     0
100
AcDbMText
 10
1855.791006481428
 20
6168.95701761596
 30
0.0
 40
62.5
 41
0.0
 71
     5
 72
     1
  1
\A1;1300
 73
     1
 44
1.0
  0
POINT
  5
3115
330
FD6
100
AcDbEntity
  8
DEFPOINTS
 62
     0
100
AcDbPoint
 10
1205.791006481428
 20
5780.788304021587
 30
0.0
  0
POINT
  5
3116
330
FD6
100
AcDbEntity
  8
DEFPOINTS
 62
     0
100
AcDbPoint
 10
2505.791006481428
 20
5630.788304021586
 30
0.0
  0
POINT
  5
3117
330
FD6
100
AcDbEntity
  8
DEFPOINTS
 62
     0
100
AcDbPoint
 10
2505.791006481428
 20
6120.20701761596
 30
0.0
  0
ENDBLK
  5
FE1
330
FD6
100
AcDbEntity
  8
0
100
AcDbBlockEnd
  0
BLOCK
  5
FF5
330
FEB
100
AcDbEntity
  8
0
100
AcDbBlockBegin
  2
*D19
 70
     1
 10
0.0
 20
0.0
 30
0.0
  3
*D19
  1

  0
LINE
  5
30FD
330
FEB
100
AcDbEntity
  8
SUNPOU
 62
     0
370
    -2
100
AcDbLine
 10
895.7910064814278
 20
5780.788304021587
 30
0.0
 11
533.3532480118956
 21
5780.788304021587
 31
0.0
  0
LINE
  5
30FE
330
FEB
100
AcDbEntity
  8
SUNPOU
 62
     0
370
    -2
100
AcDbLine
 10
895.7910064814278
 20
5630.788304021587
 30
0.0
 11
533.3532480118956
 21
5630.788304021587
 31
0.0
  0
LINE
  5
30FF
330
FEB
100
AcDbEntity
  8
SUNPOU
 62
     0
370
    -2
100
AcDbLine
 10
545.8532480118956
 20
5735.788304021587
 30
0.0
 11
545.8532480118956
 21
5675.788304021587
 31
0.0
  0
SOLID
  5
3100
330
FEB
100
AcDbEntity
  8
SUNPOU
 62
     0
100
AcDbTrace
 10
538.3532480118956
 20
5735.788304021587
 30
0.0
 11
553.3532480118956
 21
5735.788304021587
 31
0.0
 12
545.8532480118956
 22
5780.788304021587
 32
0.0
 13
545.8532480118956
 23
5780.788304021587
 33
0.0
  0
SOLID
  5
3101
330
FEB
100
AcDbEntity
  8
SUNPOU
 62
     0
100
AcDbTrace
 10
538.3532480118956
 20
5675.788304021587
 30
0.0
 11
553.3532480118956
 21
5675.788304021587
 31
0.0
 12
545.8532480118956
 22
5630.788304021587
 32
0.0
 13
545.8532480118956
 23
5630.788304021587
 33
0.0
  0
MTEXT
  5
3102
330
FEB
100
AcDbEntity
  8
SUNPOU
 62
     0
100
AcDbMText
 10
497.1032480118947
 20
5705.788304021587
 30
0.0
 40
62.5
 41
0.0
 71
     5
 72
     1
  1
\A1;150
 11
6.123031769111886E-17
 21
1.0
 31
0.0
 73
     1
 44
1.0
  0
POINT
  5
3103
330
FEB
100
AcDbEntity
  8
DEFPOINTS
 62
     0
100
AcDbPoint
 10
945.7910064814278
 20
5780.788304021587
 30
0.0
  0
POINT
  5
3104
330
FEB
100
AcDbEntity
  8
DEFPOINTS
 62
     0
100
AcDbPoint
 10
945.7910064814278
 20
5630.788304021587
 30
0.0
  0
POINT
  5
3105
330
FEB
100
AcDbEntity
  8
DEFPOINTS
 62
     0
100
AcDbPoint
 10
545.8532480118956
 20
5630.788304021587
 30
0.0
  0
ENDBLK
  5
FF6
330
FEB
100
AcDbEntity
  8
0
100
AcDbBlockEnd
  0
BLOCK
  5
1001
330
FF7
100
AcDbEntity
  8
0
100
AcDbBlockBegin
  2
*D20
 70
     1
 10
0.0
 20
0.0
 30
0.0
  3
*D20
  1

  0
LINE
  5
3210
330
FF7
100
AcDbEntity
  8
SUNPOU
 62
     0
370
    -2
100
AcDbLine
 10
895.7910064814278
 20
5630.788304021587
 30
0.0
 11
533.3532480118959
 21
5630.788304021587
 31
0.0
  0
LINE
  5
3211
330
FF7
100
AcDbEntity
  8
SUNPOU
 62
     0
370
    -2
100
AcDbLine
 10
1455.791006481428
 20
3880.788304021586
 30
0.0
 11
533.3532480118955
 21
3880.788304021586
 31
0.0
  0
LINE
  5
3212
330
FF7
100
AcDbEntity
  8
SUNPOU
 62
     0
370
    -2
100
AcDbLine
 10
545.8532480118959
 20
5585.788304021587
 30
0.0
 11
545.8532480118955
 21
3925.788304021586
 31
0.0
  0
SOLID
  5
3213
330
FF7
100
AcDbEntity
  8
SUNPOU
 62
     0
100
AcDbTrace
 10
538.3532480118959
 20
5585.788304021587
 30
0.0
 11
553.3532480118959
 21
5585.788304021587
 31
0.0
 12
545.8532480118959
 22
5630.788304021587
 32
0.0
 13
545.8532480118959
 23
5630.788304021587
 33
0.0
  0
SOLID
  5
3214
330
FF7
100
AcDbEntity
  8
SUNPOU
 62
     0
100
AcDbTrace
 10
538.3532480118955
 20
3925.788304021586
 30
0.0
 11
553.3532480118955
 21
3925.788304021586
 31
0.0
 12
545.8532480118955
 22
3880.788304021586
 32
0.0
 13
545.8532480118955
 23
3880.788304021586
 33
0.0
  0
MTEXT
  5
3215
330
FF7
100
AcDbEntity
  8
SUNPOU
 62
     0
100
AcDbMText
 10
497.1032480118949
 20
4755.788304021587
 30
0.0
 40
62.5
 41
0.0
 71
     5
 72
     1
  1
\A1;1750
 11
6.123031769111886E-17
 21
1.0
 31
0.0
 73
     1
 44
1.0
  0
POINT
  5
3216
330
FF7
100
AcDbEntity
  8
DEFPOINTS
 62
     0
100
AcDbPoint
 10
945.7910064814278
 20
5630.788304021587
 30
0.0
  0
POINT
  5
3217
330
FF7
100
AcDbEntity
  8
DEFPOINTS
 62
     0
100
AcDbPoint
 10
1505.791006481428
 20
3880.788304021586
 30
0.0
  0
POINT
  5
3218
330
FF7
100
AcDbEntity
  8
DEFPOINTS
 62
     0
100
AcDbPoint
 10
545.8532480118955
 20
3880.788304021586
 30
0.0
  0
ENDBLK
  5
1002
330
FF7
100
AcDbEntity
  8
0
100
AcDbBlockEnd
  0
BLOCK
  5
100D
330
1003
100
AcDbEntity
  8
0
100
AcDbBlockBegin
  2
*D21
 70
     1
 10
0.0
 20
0.0
 30
0.0
  3
*D21
  1

  0
LINE
  5
3219
330
1003
100
AcDbEntity
  8
SUNPOU
 62
     0
370
    -2
100
AcDbLine
 10
1455.791006481428
 20
3880.788304021586
 30
0.0
 11
401.1909928315649
 21
3880.788304021586
 31
0.0
  0
LINE
  5
321A
330
1003
100
AcDbEntity
  8
SUNPOU
 62
     0
370
    -2
100
AcDbLine
 10
895.7910064814278
 20
5780.788304021587
 30
0.0
 11
401.1909928315654
 21
5780.788304021587
 31
0.0
  0
LINE
  5
321B
330
1003
100
AcDbEntity
  8
SUNPOU
 62
     0
370
    -2
100
AcDbLine
 10
413.6909928315649
 20
3925.788304021586
 30
0.0
 11
413.6909928315653
 21
5735.788304021587
 31
0.0
  0
SOLID
  5
321C
330
1003
100
AcDbEntity
  8
SUNPOU
 62
     0
100
AcDbTrace
 10
406.1909928315649
 20
3925.788304021586
 30
0.0
 11
421.1909928315649
 21
3925.788304021586
 31
0.0
 12
413.6909928315649
 22
3880.788304021586
 32
0.0
 13
413.6909928315649
 23
3880.788304021586
 33
0.0
  0
SOLID
  5
321D
330
1003
100
AcDbEntity
  8
SUNPOU
 62
     0
100
AcDbTrace
 10
406.1909928315653
 20
5735.788304021587
 30
0.0
 11
421.1909928315653
 21
5735.788304021587
 31
0.0
 12
413.6909928315654
 22
5780.788304021587
 32
0.0
 13
413.6909928315654
 23
5780.788304021587
 33
0.0
  0
MTEXT
  5
321E
330
1003
100
AcDbEntity
  8
SUNPOU
 62
     0
100
AcDbMText
 10
364.9409928315644
 20
4830.788304021587
 30
0.0
 40
62.5
 41
0.0
 71
     5
 72
     1
  1
\A1;1900
 11
6.123031769111886E-17
 21
1.0
 31
0.0
 73
     1
 44
1.0
  0
POINT
  5
321F
330
1003
100
AcDbEntity
  8
DEFPOINTS
 62
     0
100
AcDbPoint
 10
1505.791006481428
 20
3880.788304021586
 30
0.0
  0
POINT
  5
3220
330
1003
100
AcDbEntity
  8
DEFPOINTS
 62
     0
100
AcDbPoint
 10
945.7910064814278
 20
5780.788304021587
 30
0.0
  0
POINT
  5
3221
330
1003
100
AcDbEntity
  8
DEFPOINTS
 62
     0
100
AcDbPoint
 10
413.6909928315654
 20
5780.788304021587
 30
0.0
  0
ENDBLK
  5
100E
330
1003
100
AcDbEntity
  8
0
100
AcDbBlockEnd
  0
BLOCK
  5
1032
330
1028
100
AcDbEntity
  8
0
100
AcDbBlockBegin
  2
*D22
 70
     1
 10
0.0
 20
0.0
 30
0.0
  3
*D22
  1

  0
LINE
  5
3106
330
1028
100
AcDbEntity
  8
SUNPOU
 62
     0
370
    -2
100
AcDbLine
 10
945.7910064814278
 20
5830.788304021587
 30
0.0
 11
945.7910064814278
 21
6132.70701761596
 31
0.0
  0
LINE
  5
3107
330
1028
100
AcDbEntity
  8
SUNPOU
 62
     0
370
    -2
100
AcDbLine
 10
1205.791006481429
 20
5830.788304021587
 30
0.0
 11
1205.791006481429
 21
6132.70701761596
 31
0.0
  0
LINE
  5
3108
330
1028
100
AcDbEntity
  8
SUNPOU
 62
     0
370
    -2
100
AcDbLine
 10
990.7910064814278
 20
6120.20701761596
 30
0.0
 11
1160.791006481429
 21
6120.20701761596
 31
0.0
  0
SOLID
  5
3109
330
1028
100
AcDbEntity
  8
SUNPOU
 62
     0
100
AcDbTrace
 10
990.7910064814278
 20
6127.70701761596
 30
0.0
 11
990.7910064814278
 21
6112.70701761596
 31
0.0
 12
945.7910064814278
 22
6120.20701761596
 32
0.0
 13
945.7910064814278
 23
6120.20701761596
 33
0.0
  0
SOLID
  5
310A
330
1028
100
AcDbEntity
  8
SUNPOU
 62
     0
100
AcDbTrace
 10
1160.791006481429
 20
6127.70701761596
 30
0.0
 11
1160.791006481429
 21
6112.70701761596
 31
0.0
 12
1205.791006481429
 22
6120.20701761596
 32
0.0
 13
1205.791006481429
 23
6120.20701761596
 33
0.0
  0
MTEXT
  5
310B
330
1028
100
AcDbEntity
  8
SUNPOU
 62
     0
100
AcDbMText
 10
1075.791006481428
 20
6168.95701761596
 30
0.0
 40
62.5
 41
0.0
 71
     5
 72
     1
  1
\A1;260
 73
     1
 44
1.0
  0
POINT
  5
310C
330
1028
100
AcDbEntity
  8
DEFPOINTS
 62
     0
100
AcDbPoint
 10
945.7910064814278
 20
5780.788304021587
 30
0.0
  0
POINT
  5
310D
330
1028
100
AcDbEntity
  8
DEFPOINTS
 62
     0
100
AcDbPoint
 10
1205.791006481429
 20
5780.788304021587
 30
0.0
  0
POINT
  5
310E
330
1028
100
AcDbEntity
  8
DEFPOINTS
 62
     0
100
AcDbPoint
 10
1205.791006481429
 20
6120.20701761596
 30
0.0
  0
ENDBLK
  5
1033
330
1028
100
AcDbEntity
  8
0
100
AcDbBlockEnd
  0
BLOCK
  5
10B7
330
10AC
100
AcDbEntity
  8
0
100
AcDbBlockBegin
  2
*D23
 70
     1
 10
0.0
 20
0.0
 30
0.0
  3
*D23
  1

  0
LINE
  5
3118
330
10AC
100
AcDbEntity
  8
SUNPOU
 62
     0
370
    -2
100
AcDbLine
 10
4553.915688024659
 20
5780.788304021586
 30
0.0
 11
4183.760144769323
 21
5780.788304021586
 31
0.0
  0
LINE
  5
3119
330
10AC
100
AcDbEntity
  8
SUNPOU
 62
     0
370
    -2
100
AcDbLine
 10
4553.915688024659
 20
5630.788304021586
 30
0.0
 11
4183.760144769323
 21
5630.788304021586
 31
0.0
  0
LINE
  5
311A
330
10AC
100
AcDbEntity
  8
SUNPOU
 62
     0
370
    -2
100
AcDbLine
 10
4196.260144769323
 20
5735.788304021586
 30
0.0
 11
4196.260144769323
 21
5675.788304021586
 31
0.0
  0
SOLID
  5
311B
330
10AC
100
AcDbEntity
  8
SUNPOU
 62
     0
100
AcDbTrace
 10
4188.760144769323
 20
5735.788304021586
 30
0.0
 11
4203.760144769323
 21
5735.788304021586
 31
0.0
 12
4196.260144769323
 22
5780.788304021586
 32
0.0
 13
4196.260144769323
 23
5780.788304021586
 33
0.0
  0
SOLID
  5
311C
330
10AC
100
AcDbEntity
  8
SUNPOU
 62
     0
100
AcDbTrace
 10
4188.760144769323
 20
5675.788304021586
 30
0.0
 11
4203.760144769323
 21
5675.788304021586
 31
0.0
 12
4196.260144769323
 22
5630.788304021586
 32
0.0
 13
4196.260144769323
 23
5630.788304021586
 33
0.0
  0
MTEXT
  5
311D
330
10AC
100
AcDbEntity
  8
SUNPOU
 62
     0
100
AcDbMText
 10
4147.510144769322
 20
5705.788304021587
 30
0.0
 40
62.5
 41
0.0
 71
     5
 72
     1
  1
\A1;150
 11
6.123031769111886E-17
 21
1.0
 31
0.0
 73
     1
 44
1.0
  0
POINT
  5
311E
330
10AC
100
AcDbEntity
  8
DEFPOINTS
 62
     0
100
AcDbPoint
 10
4603.915688024659
 20
5780.788304021586
 30
0.0
  0
POINT
  5
311F
330
10AC
100
AcDbEntity
  8
DEFPOINTS
 62
     0
100
AcDbPoint
 10
4603.915688024659
 20
5630.788304021586
 30
0.0
  0
POINT
  5
3120
330
10AC
100
AcDbEntity
  8
DEFPOINTS
 62
     0
100
AcDbPoint
 10
4196.260144769323
 20
5630.788304021586
 30
0.0
  0
ENDBLK
  5
10B8
330
10AC
100
AcDbEntity
  8
0
100
AcDbBlockEnd
  0
BLOCK
  5
10C3
330
10B9
100
AcDbEntity
  8
0
100
AcDbBlockBegin
  2
*D24
 70
     1
 10
0.0
 20
0.0
 30
0.0
  3
*D24
  1

  0
LINE
  5
3222
330
10B9
100
AcDbEntity
  8
SUNPOU
 62
     0
370
    -2
100
AcDbLine
 10
4553.915688024659
 20
5630.788304021586
 30
0.0
 11
4183.760144769323
 21
5630.788304021586
 31
0.0
  0
LINE
  5
3223
330
10B9
100
AcDbEntity
  8
SUNPOU
 62
     0
370
    -2
100
AcDbLine
 10
4547.915688024659
 20
3880.788304021586
 30
0.0
 11
4183.760144769323
 21
3880.788304021586
 31
0.0
  0
LINE
  5
3224
330
10B9
100
AcDbEntity
  8
SUNPOU
 62
     0
370
    -2
100
AcDbLine
 10
4196.260144769323
 20
5585.788304021586
 30
0.0
 11
4196.260144769323
 21
3925.788304021586
 31
0.0
  0
SOLID
  5
3225
330
10B9
100
AcDbEntity
  8
SUNPOU
 62
     0
100
AcDbTrace
 10
4188.760144769323
 20
5585.788304021586
 30
0.0
 11
4203.760144769323
 21
5585.788304021586
 31
0.0
 12
4196.260144769323
 22
5630.788304021586
 32
0.0
 13
4196.260144769323
 23
5630.788304021586
 33
0.0
  0
SOLID
  5
3226
330
10B9
100
AcDbEntity
  8
SUNPOU
 62
     0
100
AcDbTrace
 10
4188.760144769323
 20
3925.788304021586
 30
0.0
 11
4203.760144769323
 21
3925.788304021586
 31
0.0
 12
4196.260144769323
 22
3880.788304021586
 32
0.0
 13
4196.260144769323
 23
3880.788304021586
 33
0.0
  0
MTEXT
  5
3227
330
10B9
100
AcDbEntity
  8
SUNPOU
 62
     0
100
AcDbMText
 10
4147.510144769322
 20
4755.788304021587
 30
0.0
 40
62.5
 41
0.0
 71
     5
 72
     1
  1
\A1;1750
 11
6.123031769111886E-17
 21
1.0
 31
0.0
 73
     1
 44
1.0
  0
POINT
  5
3228
330
10B9
100
AcDbEntity
  8
DEFPOINTS
 62
     0
100
AcDbPoint
 10
4603.915688024659
 20
5630.788304021586
 30
0.0
  0
POINT
  5
3229
330
10B9
100
AcDbEntity
  8
DEFPOINTS
 62
     0
100
AcDbPoint
 10
4597.915688024659
 20
3880.788304021586
 30
0.0
  0
POINT
  5
322A
330
10B9
100
AcDbEntity
  8
DEFPOINTS
 62
     0
100
AcDbPoint
 10
4196.260144769323
 20
3880.788304021586
 30
0.0
  0
ENDBLK
  5
10C4
330
10B9
100
AcDbEntity
  8
0
100
AcDbBlockEnd
  0
BLOCK
  5
10CF
330
10C5
100
AcDbEntity
  8
0
100
AcDbBlockBegin
  2
*D25
 70
     1
 10
0.0
 20
0.0
 30
0.0
  3
*D25
  1

  0
LINE
  5
312A
330
10C5
100
AcDbEntity
  8
SUNPOU
 62
     0
370
    -2
100
AcDbLine
 10
4597.915688024659
 20
5830.788304021587
 30
0.0
 11
4597.915688024659
 21
6232.148522736118
 31
0.0
  0
LINE
  5
312B
330
10C5
100
AcDbEntity
  8
SUNPOU
 62
     0
370
    -2
100
AcDbLine
 10
6097.91568802466
 20
5830.788304021587
 30
0.0
 11
6097.91568802466
 21
6232.148522736118
 31
0.0
  0
LINE
  5
312C
330
10C5
100
AcDbEntity
  8
SUNPOU
 62
     0
370
    -2
100
AcDbLine
 10
4642.915688024659
 20
6219.648522736118
 30
0.0
 11
6052.91568802466
 21
6219.648522736118
 31
0.0
  0
SOLID
  5
312D
330
10C5
100
AcDbEntity
  8
SUNPOU
 62
     0
100
AcDbTrace
 10
4642.915688024659
 20
6227.148522736118
 30
0.0
 11
4642.915688024659
 21
6212.148522736118
 31
0.0
 12
4597.915688024659
 22
6219.648522736118
 32
0.0
 13
4597.915688024659
 23
6219.648522736118
 33
0.0
  0
SOLID
  5
312E
330
10C5
100
AcDbEntity
  8
SUNPOU
 62
     0
100
AcDbTrace
 10
6052.91568802466
 20
6227.148522736118
 30
0.0
 11
6052.91568802466
 21
6212.148522736118
 31
0.0
 12
6097.91568802466
 22
6219.648522736118
 32
0.0
 13
6097.91568802466
 23
6219.648522736118
 33
0.0
  0
MTEXT
  5
312F
330
10C5
100
AcDbEntity
  8
SUNPOU
 62
     0
100
AcDbMText
 10
5347.915688024659
 20
6268.398522736118
 30
0.0
 40
62.5
 41
0.0
 71
     5
 72
     1
  1
\A1;1500
 73
     1
 44
1.0
  0
POINT
  5
3130
330
10C5
100
AcDbEntity
  8
DEFPOINTS
 62
     0
100
AcDbPoint
 10
4597.915688024659
 20
5780.788304021587
 30
0.0
  0
POINT
  5
3131
330
10C5
100
AcDbEntity
  8
DEFPOINTS
 62
     0
100
AcDbPoint
 10
6097.91568802466
 20
5780.788304021587
 30
0.0
  0
POINT
  5
3132
330
10C5
100
AcDbEntity
  8
DEFPOINTS
 62
     0
100
AcDbPoint
 10
6097.91568802466
 20
6219.648522736118
 30
0.0
  0
ENDBLK
  5
10D0
330
10C5
100
AcDbEntity
  8
0
100
AcDbBlockEnd
  0
BLOCK
  5
10DB
330
10D1
100
AcDbEntity
  8
0
100
AcDbBlockBegin
  2
*D26
 70
     1
 10
0.0
 20
0.0
 30
0.0
  3
*D26
  1

  0
LINE
  5
3133
330
10D1
100
AcDbEntity
  8
SUNPOU
 62
     0
370
    -2
100
AcDbLine
 10
4597.915688024659
 20
5830.788304021587
 30
0.0
 11
4597.915688024659
 21
6080.348631303025
 31
0.0
  0
LINE
  5
3134
330
10D1
100
AcDbEntity
  8
SUNPOU
 62
     0
370
    -2
100
AcDbLine
 10
4972.915688024659
 20
5830.788304021587
 30
0.0
 11
4972.915688024659
 21
6080.348631303025
 31
0.0
  0
LINE
  5
3135
330
10D1
100
AcDbEntity
  8
SUNPOU
 62
     0
370
    -2
100
AcDbLine
 10
4642.915688024659
 20
6067.848631303025
 30
0.0
 11
4927.915688024659
 21
6067.848631303025
 31
0.0
  0
SOLID
  5
3136
330
10D1
100
AcDbEntity
  8
SUNPOU
 62
     0
100
AcDbTrace
 10
4642.915688024659
 20
6075.348631303025
 30
0.0
 11
4642.915688024659
 21
6060.348631303025
 31
0.0
 12
4597.915688024659
 22
6067.848631303025
 32
0.0
 13
4597.915688024659
 23
6067.848631303025
 33
0.0
  0
SOLID
  5
3137
330
10D1
100
AcDbEntity
  8
SUNPOU
 62
     0
100
AcDbTrace
 10
4927.915688024659
 20
6075.348631303025
 30
0.0
 11
4927.915688024659
 21
6060.348631303025
 31
0.0
 12
4972.915688024659
 22
6067.848631303025
 32
0.0
 13
4972.915688024659
 23
6067.848631303025
 33
0.0
  0
MTEXT
  5
3138
330
10D1
100
AcDbEntity
  8
SUNPOU
 62
     0
100
AcDbMText
 10
4785.415688024659
 20
6116.598631303025
 30
0.0
 40
62.5
 41
0.0
 71
     5
 72
     1
  1
\A1;375
 73
     1
 44
1.0
  0
POINT
  5
3139
330
10D1
100
AcDbEntity
  8
DEFPOINTS
 62
     0
100
AcDbPoint
 10
4597.915688024659
 20
5780.788304021587
 30
0.0
  0
POINT
  5
313A
330
10D1
100
AcDbEntity
  8
DEFPOINTS
 62
     0
100
AcDbPoint
 10
4972.915688024659
 20
5780.788304021587
 30
0.0
  0
POINT
  5
313B
330
10D1
100
AcDbEntity
  8
DEFPOINTS
 62
     0
100
AcDbPoint
 10
4972.915688024659
 20
6067.848631303025
 30
0.0
  0
ENDBLK
  5
10DC
330
10D1
100
AcDbEntity
  8
0
100
AcDbBlockEnd
  0
BLOCK
  5
10E7
330
10DD
100
AcDbEntity
  8
0
100
AcDbBlockBegin
  2
*D27
 70
     1
 10
0.0
 20
0.0
 30
0.0
  3
*D27
  1

  0
LINE
  5
313C
330
10DD
100
AcDbEntity
  8
SUNPOU
 62
     0
370
    -2
100
AcDbLine
 10
4972.915688024659
 20
5830.788304021587
 30
0.0
 11
4972.915688024659
 21
6080.348631303025
 31
0.0
  0
LINE
  5
313D
330
10DD
100
AcDbEntity
  8
SUNPOU
 62
     0
370
    -2
100
AcDbLine
 10
5722.915688024659
 20
5830.788304021587
 30
0.0
 11
5722.915688024659
 21
6080.348631303025
 31
0.0
  0
LINE
  5
313E
330
10DD
100
AcDbEntity
  8
SUNPOU
 62
     0
370
    -2
100
AcDbLine
 10
5017.915688024659
 20
6067.848631303025
 30
0.0
 11
5677.915688024659
 21
6067.848631303025
 31
0.0
  0
SOLID
  5
313F
330
10DD
100
AcDbEntity
  8
SUNPOU
 62
     0
100
AcDbTrace
 10
5017.915688024659
 20
6075.348631303025
 30
0.0
 11
5017.915688024659
 21
6060.348631303025
 31
0.0
 12
4972.915688024659
 22
6067.848631303025
 32
0.0
 13
4972.915688024659
 23
6067.848631303025
 33
0.0
  0
SOLID
  5
3140
330
10DD
100
AcDbEntity
  8
SUNPOU
 62
     0
100
AcDbTrace
 10
5677.915688024659
 20
6075.348631303025
 30
0.0
 11
5677.915688024659
 21
6060.348631303025
 31
0.0
 12
5722.915688024659
 22
6067.848631303025
 32
0.0
 13
5722.915688024659
 23
6067.848631303025
 33
0.0
  0
MTEXT
  5
3141
330
10DD
100
AcDbEntity
  8
SUNPOU
 62
     0
100
AcDbMText
 10
5347.915688024659
 20
6116.598631303025
 30
0.0
 40
62.5
 41
0.0
 71
     5
 72
     1
  1
\A1;750
 73
     1
 44
1.0
  0
POINT
  5
3142
330
10DD
100
AcDbEntity
  8
DEFPOINTS
 62
     0
100
AcDbPoint
 10
4972.915688024659
 20
5780.788304021587
 30
0.0
  0
POINT
  5
3143
330
10DD
100
AcDbEntity
  8
DEFPOINTS
 62
     0
100
AcDbPoint
 10
5722.915688024659
 20
5780.788304021587
 30
0.0
  0
POINT
  5
3144
330
10DD
100
AcDbEntity
  8
DEFPOINTS
 62
     0
100
AcDbPoint
 10
5722.915688024659
 20
6067.848631303025
 30
0.0
  0
ENDBLK
  5
10E8
330
10DD
100
AcDbEntity
  8
0
100
AcDbBlockEnd
  0
BLOCK
  5
10F3
330
10E9
100
AcDbEntity
  8
0
100
AcDbBlockBegin
  2
*D28
 70
     1
 10
0.0
 20
0.0
 30
0.0
  3
*D28
  1

  0
LINE
  5
3145
330
10E9
100
AcDbEntity
  8
SUNPOU
 62
     0
370
    -2
100
AcDbLine
 10
5722.915688024659
 20
5830.788304021587
 30
0.0
 11
5722.915688024659
 21
6080.348631303025
 31
0.0
  0
LINE
  5
3146
330
10E9
100
AcDbEntity
  8
SUNPOU
 62
     0
370
    -2
100
AcDbLine
 10
6097.915688024659
 20
5830.788304021587
 30
0.0
 11
6097.915688024659
 21
6080.348631303025
 31
0.0
  0
LINE
  5
3147
330
10E9
100
AcDbEntity
  8
SUNPOU
 62
     0
370
    -2
100
AcDbLine
 10
5767.915688024659
 20
6067.848631303025
 30
0.0
 11
6052.915688024659
 21
6067.848631303025
 31
0.0
  0
SOLID
  5
3148
330
10E9
100
AcDbEntity
  8
SUNPOU
 62
     0
100
AcDbTrace
 10
5767.915688024659
 20
6075.348631303025
 30
0.0
 11
5767.915688024659
 21
6060.348631303025
 31
0.0
 12
5722.915688024659
 22
6067.848631303025
 32
0.0
 13
5722.915688024659
 23
6067.848631303025
 33
0.0
  0
SOLID
  5
3149
330
10E9
100
AcDbEntity
  8
SUNPOU
 62
     0
100
AcDbTrace
 10
6052.915688024659
 20
6075.348631303025
 30
0.0
 11
6052.915688024659
 21
6060.348631303025
 31
0.0
 12
6097.915688024659
 22
6067.848631303025
 32
0.0
 13
6097.915688024659
 23
6067.848631303025
 33
0.0
  0
MTEXT
  5
314A
330
10E9
100
AcDbEntity
  8
SUNPOU
 62
     0
100
AcDbMText
 10
5910.415688024659
 20
6116.598631303025
 30
0.0
 40
62.5
 41
0.0
 71
     5
 72
     1
  1
\A1;375
 73
     1
 44
1.0
  0
POINT
  5
314B
330
10E9
100
AcDbEntity
  8
DEFPOINTS
 62
     0
100
AcDbPoint
 10
5722.915688024659
 20
5780.788304021587
 30
0.0
  0
POINT
  5
314C
330
10E9
100
AcDbEntity
  8
DEFPOINTS
 62
     0
100
AcDbPoint
 10
6097.915688024659
 20
5780.788304021587
 30
0.0
  0
POINT
  5
314D
330
10E9
100
AcDbEntity
  8
DEFPOINTS
 62
     0
100
AcDbPoint
 10
6097.915688024659
 20
6067.848631303025
 30
0.0
  0
ENDBLK
  5
10F4
330
10E9
100
AcDbEntity
  8
0
100
AcDbBlockEnd
  0
BLOCK
  5
1EE9
330
1EDF
100
AcDbEntity
  8
0
100
AcDbBlockBegin
  2
*D29
 70
     1
 10
0.0
 20
0.0
 30
0.0
  3
*D29
  1

  0
LINE
  5
3232
330
1EDF
100
AcDbEntity
  8
SUNPOU
 62
     0
370
    -2
100
AcDbLine
 10
3275.791006481429
 20
3830.788304021586
 30
0.0
 11
3275.791006481429
 21
3496.801893753895
 31
0.0
  0
LINE
  5
3233
330
1EDF
100
AcDbEntity
  8
SUNPOU
 62
     0
370
    -2
100
AcDbLine
 10
2505.791006481429
 20
3830.788304021586
 30
0.0
 11
2505.791006481429
 21
3496.801893753895
 31
0.0
  0
LINE
  5
3234
330
1EDF
100
AcDbEntity
  8
SUNPOU
 62
     0
370
    -2
100
AcDbLine
 10
3230.791006481429
 20
3509.301893753895
 30
0.0
 11
2550.791006481429
 21
3509.301893753895
 31
0.0
  0
SOLID
  5
3235
330
1EDF
100
AcDbEntity
  8
SUNPOU
 62
     0
100
AcDbTrace
 10
3230.791006481429
 20
3516.801893753895
 30
0.0
 11
3230.791006481429
 21
3501.801893753895
 31
0.0
 12
3275.791006481429
 22
3509.301893753895
 32
0.0
 13
3275.791006481429
 23
3509.301893753895
 33
0.0
  0
SOLID
  5
3236
330
1EDF
100
AcDbEntity
  8
SUNPOU
 62
     0
100
AcDbTrace
 10
2550.791006481429
 20
3516.801893753895
 30
0.0
 11
2550.791006481429
 21
3501.801893753895
 31
0.0
 12
2505.791006481429
 22
3509.301893753895
 32
0.0
 13
2505.791006481429
 23
3509.301893753895
 33
0.0
  0
MTEXT
  5
3237
330
1EDF
100
AcDbEntity
  8
SUNPOU
 62
     0
100
AcDbMText
 10
2890.791006481429
 20
3558.051893753895
 30
0.0
 40
62.5
 41
0.0
 71
     5
 72
     1
  1
\A1;770
 73
     1
 44
1.0
  0
POINT
  5
3238
330
1EDF
100
AcDbEntity
  8
DEFPOINTS
 62
     0
100
AcDbPoint
 10
3275.791006481429
 20
3880.788304021586
 30
0.0
  0
POINT
  5
3239
330
1EDF
100
AcDbEntity
  8
DEFPOINTS
 62
     0
100
AcDbPoint
 10
2505.791006481429
 20
3880.788304021586
 30
0.0
  0
POINT
  5
323A
330
1EDF
100
AcDbEntity
  8
DEFPOINTS
 62
     0
100
AcDbPoint
 10
2505.791006481429
 20
3509.301893753895
 30
0.0
  0
ENDBLK
  5
1EEA
330
1EDF
100
AcDbEntity
  8
0
100
AcDbBlockEnd
  0
BLOCK
  5
1EF6
330
1EEC
100
AcDbEntity
  8
0
100
AcDbBlockBegin
  2
*D30
 70
     1
 10
0.0
 20
0.0
 30
0.0
  3
*D30
  1

  0
LINE
  5
31E2
330
1EEC
100
AcDbEntity
  8
SUNPOU
 62
     0
370
    -2
100
AcDbLine
 10
2505.791006481429
 20
3830.788304021586
 30
0.0
 11
2505.791006481429
 21
3496.801893753895
 31
0.0
  0
LINE
  5
31E3
330
1EEC
100
AcDbEntity
  8
SUNPOU
 62
     0
370
    -2
100
AcDbLine
 10
2205.791006481429
 20
3830.788304021586
 30
0.0
 11
2205.791006481429
 21
3496.801893753895
 31
0.0
  0
LINE
  5
31E4
330
1EEC
100
AcDbEntity
  8
SUNPOU
 62
     0
370
    -2
100
AcDbLine
 10
2460.791006481429
 20
3509.301893753895
 30
0.0
 11
2250.791006481429
 21
3509.301893753895
 31
0.0
  0
SOLID
  5
31E5
330
1EEC
100
AcDbEntity
  8
SUNPOU
 62
     0
100
AcDbTrace
 10
2460.791006481429
 20
3516.801893753895
 30
0.0
 11
2460.791006481429
 21
3501.801893753895
 31
0.0
 12
2505.791006481429
 22
3509.301893753895
 32
0.0
 13
2505.791006481429
 23
3509.301893753895
 33
0.0
  0
SOLID
  5
31E6
330
1EEC
100
AcDbEntity
  8
SUNPOU
 62
     0
100
AcDbTrace
 10
2250.791006481429
 20
3516.801893753895
 30
0.0
 11
2250.791006481429
 21
3501.801893753895
 31
0.0
 12
2205.791006481429
 22
3509.301893753895
 32
0.0
 13
2205.791006481429
 23
3509.301893753895
 33
0.0
  0
MTEXT
  5
31E7
330
1EEC
100
AcDbEntity
  8
SUNPOU
 62
     0
100
AcDbMText
 10
2355.791006481429
 20
3558.051893753895
 30
0.0
 40
62.5
 41
0.0
 71
     5
 72
     1
  1
\A1;300
 73
     1
 44
1.0
  0
POINT
  5
31E8
330
1EEC
100
AcDbEntity
  8
DEFPOINTS
 62
     0
100
AcDbPoint
 10
2505.791006481429
 20
3880.788304021586
 30
0.0
  0
POINT
  5
31E9
330
1EEC
100
AcDbEntity
  8
DEFPOINTS
 62
     0
100
AcDbPoint
 10
2205.791006481429
 20
3880.788304021586
 30
0.0
  0
POINT
  5
31EA
330
1EEC
100
AcDbEntity
  8
DEFPOINTS
 62
     0
100
AcDbPoint
 10
2205.791006481429
 20
3509.301893753895
 30
0.0
  0
ENDBLK
  5
1EF7
330
1EEC
100
AcDbEntity
  8
0
100
AcDbBlockEnd
  0
BLOCK
  5
1F03
330
1EF9
100
AcDbEntity
  8
0
100
AcDbBlockBegin
  2
*D31
 70
     1
 10
0.0
 20
0.0
 30
0.0
  3
*D31
  1

  0
LINE
  5
31EB
330
1EF9
100
AcDbEntity
  8
SUNPOU
 62
     0
370
    -2
100
AcDbLine
 10
2205.791006481429
 20
3830.788304021586
 30
0.0
 11
2205.791006481429
 21
3496.801893753895
 31
0.0
  0
LINE
  5
31EC
330
1EF9
100
AcDbEntity
  8
SUNPOU
 62
     0
370
    -2
100
AcDbLine
 10
1505.791006481428
 20
3830.788304021586
 30
0.0
 11
1505.791006481428
 21
3496.801893753895
 31
0.0
  0
LINE
  5
31ED
330
1EF9
100
AcDbEntity
  8
SUNPOU
 62
     0
370
    -2
100
AcDbLine
 10
2160.791006481429
 20
3509.301893753895
 30
0.0
 11
1550.791006481428
 21
3509.301893753895
 31
0.0
  0
SOLID
  5
31EE
330
1EF9
100
AcDbEntity
  8
SUNPOU
 62
     0
100
AcDbTrace
 10
2160.791006481429
 20
3516.801893753895
 30
0.0
 11
2160.791006481429
 21
3501.801893753895
 31
0.0
 12
2205.791006481429
 22
3509.301893753895
 32
0.0
 13
2205.791006481429
 23
3509.301893753895
 33
0.0
  0
SOLID
  5
31EF
330
1EF9
100
AcDbEntity
  8
SUNPOU
 62
     0
100
AcDbTrace
 10
1550.791006481428
 20
3516.801893753895
 30
0.0
 11
1550.791006481428
 21
3501.801893753895
 31
0.0
 12
1505.791006481428
 22
3509.301893753895
 32
0.0
 13
1505.791006481428
 23
3509.301893753895
 33
0.0
  0
MTEXT
  5
31F0
330
1EF9
100
AcDbEntity
  8
SUNPOU
 62
     0
100
AcDbMText
 10
1855.791006481428
 20
3558.051893753895
 30
0.0
 40
62.5
 41
0.0
 71
     5
 72
     1
  1
\A1;700
 73
     1
 44
1.0
  0
POINT
  5
31F1
330
1EF9
100
AcDbEntity
  8
DEFPOINTS
 62
     0
100
AcDbPoint
 10
2205.791006481429
 20
3880.788304021586
 30
0.0
  0
POINT
  5
31F2
330
1EF9
100
AcDbEntity
  8
DEFPOINTS
 62
     0
100
AcDbPoint
 10
1505.791006481428
 20
3880.788304021586
 30
0.0
  0
POINT
  5
31F3
330
1EF9
100
AcDbEntity
  8
DEFPOINTS
 62
     0
100
AcDbPoint
 10
1505.791006481428
 20
3509.301893753895
 30
0.0
  0
ENDBLK
  5
1F04
330
1EF9
100
AcDbEntity
  8
0
100
AcDbBlockEnd
  0
BLOCK
  5
1F2B
330
1F21
100
AcDbEntity
  8
0
100
AcDbBlockBegin
  2
*D32
 70
     1
 10
0.0
 20
0.0
 30
0.0
  3
*D32
  1

  0
LINE
  5
32E8
330
1F21
100
AcDbEntity
  8
SUNPOU
 62
     0
370
    -2
100
AcDbLine
 10
4553.915688024659
 20
808.8848104312933
 30
0.0
 11
4189.760144769323
 21
808.8848104312934
 31
0.0
  0
LINE
  5
32E9
330
1F21
100
AcDbEntity
  8
SUNPOU
 62
     0
370
    -2
100
AcDbLine
 10
4553.915688024659
 20
2368.884810431294
 30
0.0
 11
4189.760144769324
 21
2368.884810431294
 31
0.0
  0
LINE
  5
32EA
330
1F21
100
AcDbEntity
  8
SUNPOU
 62
     0
370
    -2
100
AcDbLine
 10
4202.260144769323
 20
853.8848104312934
 30
0.0
 11
4202.260144769324
 21
2323.884810431294
 31
0.0
  0
SOLID
  5
32EB
330
1F21
100
AcDbEntity
  8
SUNPOU
 62
     0
100
AcDbTrace
 10
4194.760144769323
 20
853.8848104312934
 30
0.0
 11
4209.760144769323
 21
853.8848104312934
 31
0.0
 12
4202.260144769323
 22
808.8848104312934
 32
0.0
 13
4202.260144769323
 23
808.8848104312934
 33
0.0
  0
SOLID
  5
32EC
330
1F21
100
AcDbEntity
  8
SUNPOU
 62
     0
100
AcDbTrace
 10
4194.760144769324
 20
2323.884810431294
 30
0.0
 11
4209.760144769324
 21
2323.884810431294
 31
0.0
 12
4202.260144769324
 22
2368.884810431294
 32
0.0
 13
4202.260144769324
 23
2368.884810431294
 33
0.0
  0
MTEXT
  5
32ED
330
1F21
100
AcDbEntity
  8
SUNPOU
 62
     0
100
AcDbMText
 10
4153.510144769323
 20
1588.884810431294
 30
0.0
 40
62.5
 41
0.0
 71
     5
 72
     1
  1
\A1;1560
 11
6.123031769111886E-17
 21
1.0
 31
0.0
 73
     1
 44
1.0
  0
POINT
  5
32EE
330
1F21
100
AcDbEntity
  8
DEFPOINTS
 62
     0
100
AcDbPoint
 10
4603.915688024659
 20
808.8848104312933
 30
0.0
  0
POINT
  5
32EF
330
1F21
100
AcDbEntity
  8
DEFPOINTS
 62
     0
100
AcDbPoint
 10
4603.915688024659
 20
2368.884810431294
 30
0.0
  0
POINT
  5
32F0
330
1F21
100
AcDbEntity
  8
DEFPOINTS
 62
     0
100
AcDbPoint
 10
4202.260144769324
 20
2368.884810431294
 30
0.0
  0
ENDBLK
  5
1F2C
330
1F21
100
AcDbEntity
  8
0
100
AcDbBlockEnd
  0
BLOCK
  5
1F39
330
1F2E
100
AcDbEntity
  8
0
100
AcDbBlockBegin
  2
*D33
 70
     1
 10
0.0
 20
0.0
 30
0.0
  3
*D33
  1

  0
LINE
  5
31F4
330
1F2E
100
AcDbEntity
  8
SUNPOU
 62
     0
370
    -2
100
AcDbLine
 10
2505.791006481429
 20
3830.788304021586
 30
0.0
 11
2505.791006481429
 21
3634.628888276224
 31
0.0
  0
LINE
  5
31F5
330
1F2E
100
AcDbEntity
  8
SUNPOU
 62
     0
370
    -2
100
AcDbLine
 10
2435.791006481429
 20
3830.788304021586
 30
0.0
 11
2435.791006481429
 21
3634.628888276224
 31
0.0
  0
LINE
  5
31F6
330
1F2E
100
AcDbEntity
  8
SUNPOU
 62
     0
370
    -2
100
AcDbLine
 10
2550.791006481429
 20
3647.128888276224
 30
0.0
 11
2595.791006481429
 21
3647.128888276224
 31
0.0
  0
LINE
  5
31F7
330
1F2E
100
AcDbEntity
  8
SUNPOU
 62
     0
370
    -2
100
AcDbLine
 10
2390.791006481429
 20
3647.128888276224
 30
0.0
 11
2345.791006481429
 21
3647.128888276224
 31
0.0
  0
SOLID
  5
31F8
330
1F2E
100
AcDbEntity
  8
SUNPOU
 62
     0
100
AcDbTrace
 10
2550.791006481429
 20
3654.628888276224
 30
0.0
 11
2550.791006481429
 21
3639.628888276224
 31
0.0
 12
2505.791006481429
 22
3647.128888276224
 32
0.0
 13
2505.791006481429
 23
3647.128888276224
 33
0.0
  0
SOLID
  5
31F9
330
1F2E
100
AcDbEntity
  8
SUNPOU
 62
     0
100
AcDbTrace
 10
2390.791006481429
 20
3654.628888276224
 30
0.0
 11
2390.791006481429
 21
3639.628888276224
 31
0.0
 12
2435.791006481429
 22
3647.128888276224
 32
0.0
 13
2435.791006481429
 23
3647.128888276224
 33
0.0
  0
MTEXT
  5
31FA
330
1F2E
100
AcDbEntity
  8
SUNPOU
 62
     0
100
AcDbMText
 10
2470.791006481429
 20
3695.878888276224
 30
0.0
 40
62.5
 41
0.0
 71
     5
 72
     1
  1
\A1;70
 73
     1
 44
1.0
  0
POINT
  5
31FB
330
1F2E
100
AcDbEntity
  8
DEFPOINTS
 62
     0
100
AcDbPoint
 10
2505.791006481429
 20
3880.788304021586
 30
0.0
  0
POINT
  5
31FC
330
1F2E
100
AcDbEntity
  8
DEFPOINTS
 62
     0
100
AcDbPoint
 10
2435.791006481429
 20
3880.788304021586
 30
0.0
  0
POINT
  5
31FD
330
1F2E
100
AcDbEntity
  8
DEFPOINTS
 62
     0
100
AcDbPoint
 10
2435.791006481429
 20
3647.128888276224
 30
0.0
  0
ENDBLK
  5
1F3A
330
1F2E
100
AcDbEntity
  8
0
100
AcDbBlockEnd
  0
BLOCK
  5
1F46
330
1F3C
100
AcDbEntity
  8
0
100
AcDbBlockBegin
  2
*D34
 70
     1
 10
0.0
 20
0.0
 30
0.0
  3
*D34
  1

  0
LINE
  5
31FE
330
1F3C
100
AcDbEntity
  8
SUNPOU
 62
     0
370
    -2
100
AcDbLine
 10
2435.791006481429
 20
3830.788304021586
 30
0.0
 11
2435.791006481429
 21
3634.628888276224
 31
0.0
  0
LINE
  5
31FF
330
1F3C
100
AcDbEntity
  8
SUNPOU
 62
     0
370
    -2
100
AcDbLine
 10
2205.791006481429
 20
3830.788304021586
 30
0.0
 11
2205.791006481429
 21
3634.628888276224
 31
0.0
  0
LINE
  5
3200
330
1F3C
100
AcDbEntity
  8
SUNPOU
 62
     0
370
    -2
100
AcDbLine
 10
2390.791006481429
 20
3647.128888276224
 30
0.0
 11
2250.791006481429
 21
3647.128888276224
 31
0.0
  0
SOLID
  5
3201
330
1F3C
100
AcDbEntity
  8
SUNPOU
 62
     0
100
AcDbTrace
 10
2390.791006481429
 20
3654.628888276224
 30
0.0
 11
2390.791006481429
 21
3639.628888276224
 31
0.0
 12
2435.791006481429
 22
3647.128888276224
 32
0.0
 13
2435.791006481429
 23
3647.128888276224
 33
0.0
  0
SOLID
  5
3202
330
1F3C
100
AcDbEntity
  8
SUNPOU
 62
     0
100
AcDbTrace
 10
2250.791006481429
 20
3654.628888276224
 30
0.0
 11
2250.791006481429
 21
3639.628888276224
 31
0.0
 12
2205.791006481429
 22
3647.128888276224
 32
0.0
 13
2205.791006481429
 23
3647.128888276224
 33
0.0
  0
MTEXT
  5
3203
330
1F3C
100
AcDbEntity
  8
SUNPOU
 62
     0
100
AcDbMText
 10
2320.791006481429
 20
3695.878888276224
 30
0.0
 40
62.5
 41
0.0
 71
     5
 72
     1
  1
\A1;230
 73
     1
 44
1.0
  0
POINT
  5
3204
330
1F3C
100
AcDbEntity
  8
DEFPOINTS
 62
     0
100
AcDbPoint
 10
2435.791006481429
 20
3880.788304021586
 30
0.0
  0
POINT
  5
3205
330
1F3C
100
AcDbEntity
  8
DEFPOINTS
 62
     0
100
AcDbPoint
 10
2205.791006481429
 20
3880.788304021586
 30
0.0
  0
POINT
  5
3206
330
1F3C
100
AcDbEntity
  8
DEFPOINTS
 62
     0
100
AcDbPoint
 10
2205.791006481429
 20
3647.128888276224
 30
0.0
  0
ENDBLK
  5
1F47
330
1F3C
100
AcDbEntity
  8
0
100
AcDbBlockEnd
  0
BLOCK
  5
1FC9
330
1FBF
100
AcDbEntity
  8
0
100
AcDbBlockBegin
  2
*D35
 70
     1
 10
0.0
 20
0.0
 30
0.0
  3
*D35
  1

  0
LINE
  5
3197
330
1FBF
100
AcDbEntity
  8
SUNPOU
 62
     0
370
    -2
100
AcDbLine
 10
945.7910064814278
 20
5830.788304021587
 30
0.0
 11
945.7910064814278
 21
6260.029289220385
 31
0.0
  0
LINE
  5
3198
330
1FBF
100
AcDbEntity
  8
SUNPOU
 62
     0
370
    -2
100
AcDbLine
 10
2505.791006481428
 20
5680.788304021586
 30
0.0
 11
2505.791006481428
 21
6260.029289220385
 31
0.0
  0
LINE
  5
3199
330
1FBF
100
AcDbEntity
  8
SUNPOU
 62
     0
370
    -2
100
AcDbLine
 10
990.7910064814278
 20
6247.529289220385
 30
0.0
 11
2460.791006481428
 21
6247.529289220385
 31
0.0
  0
SOLID
  5
319A
330
1FBF
100
AcDbEntity
  8
SUNPOU
 62
     0
100
AcDbTrace
 10
990.7910064814278
 20
6255.029289220385
 30
0.0
 11
990.7910064814278
 21
6240.029289220385
 31
0.0
 12
945.7910064814278
 22
6247.529289220385
 32
0.0
 13
945.7910064814278
 23
6247.529289220385
 33
0.0
  0
SOLID
  5
319B
330
1FBF
100
AcDbEntity
  8
SUNPOU
 62
     0
100
AcDbTrace
 10
2460.791006481428
 20
6255.029289220385
 30
0.0
 11
2460.791006481428
 21
6240.029289220385
 31
0.0
 12
2505.791006481428
 22
6247.529289220385
 32
0.0
 13
2505.791006481428
 23
6247.529289220385
 33
0.0
  0
MTEXT
  5
319C
330
1FBF
100
AcDbEntity
  8
SUNPOU
 62
     0
100
AcDbMText
 10
1725.791006481428
 20
6296.279289220385
 30
0.0
 40
62.5
 41
0.0
 71
     5
 72
     1
  1
\A1;1560
 73
     1
 44
1.0
  0
POINT
  5
319D
330
1FBF
100
AcDbEntity
  8
DEFPOINTS
 62
     0
100
AcDbPoint
 10
945.7910064814278
 20
5780.788304021587
 30
0.0
  0
POINT
  5
319E
330
1FBF
100
AcDbEntity
  8
DEFPOINTS
 62
     0
100
AcDbPoint
 10
2505.791006481428
 20
5630.788304021586
 30
0.0
  0
POINT
  5
319F
330
1FBF
100
AcDbEntity
  8
DEFPOINTS
 62
     0
100
AcDbPoint
 10
2505.791006481428
 20
6247.529289220385
 30
0.0
  0
ENDBLK
  5
1FCA
330
1FBF
100
AcDbEntity
  8
0
100
AcDbBlockEnd
  0
BLOCK
  5
2017
330
200D
100
AcDbEntity
  8
0
100
AcDbBlockBegin
  2
*D36
 70
     1
 10
0.0
 20
0.0
 30
0.0
  3
*D36
  1

  0
LINE
  5
323B
330
200D
100
AcDbEntity
  8
SUNPOU
 62
     0
370
    -2
100
AcDbLine
 10
1505.791006481428
 20
3830.788304021586
 30
0.0
 11
1505.791006481428
 21
3352.510546190941
 31
0.0
  0
LINE
  5
323C
330
200D
100
AcDbEntity
  8
SUNPOU
 62
     0
370
    -2
100
AcDbLine
 10
3275.791006481429
 20
3830.788304021586
 30
0.0
 11
3275.791006481429
 21
3352.510546190941
 31
0.0
  0
LINE
  5
323D
330
200D
100
AcDbEntity
  8
SUNPOU
 62
     0
370
    -2
100
AcDbLine
 10
1550.791006481428
 20
3365.010546190941
 30
0.0
 11
3230.791006481429
 21
3365.010546190941
 31
0.0
  0
SOLID
  5
323E
330
200D
100
AcDbEntity
  8
SUNPOU
 62
     0
100
AcDbTrace
 10
1550.791006481428
 20
3372.510546190941
 30
0.0
 11
1550.791006481428
 21
3357.510546190941
 31
0.0
 12
1505.791006481428
 22
3365.010546190941
 32
0.0
 13
1505.791006481428
 23
3365.010546190941
 33
0.0
  0
SOLID
  5
323F
330
200D
100
AcDbEntity
  8
SUNPOU
 62
     0
100
AcDbTrace
 10
3230.791006481429
 20
3372.510546190941
 30
0.0
 11
3230.791006481429
 21
3357.510546190941
 31
0.0
 12
3275.791006481429
 22
3365.010546190941
 32
0.0
 13
3275.791006481429
 23
3365.010546190941
 33
0.0
  0
MTEXT
  5
3240
330
200D
100
AcDbEntity
  8
SUNPOU
 62
     0
100
AcDbMText
 10
2390.791006481428
 20
3413.760546190941
 30
0.0
 40
62.5
 41
0.0
 71
     5
 72
     1
  1
\A1;1770
 73
     1
 44
1.0
  0
POINT
  5
3241
330
200D
100
AcDbEntity
  8
DEFPOINTS
 62
     0
100
AcDbPoint
 10
1505.791006481428
 20
3880.788304021586
 30
0.0
  0
POINT
  5
3242
330
200D
100
AcDbEntity
  8
DEFPOINTS
 62
     0
100
AcDbPoint
 10
3275.791006481429
 20
3880.788304021586
 30
0.0
  0
POINT
  5
3243
330
200D
100
AcDbEntity
  8
DEFPOINTS
 62
     0
100
AcDbPoint
 10
3275.791006481429
 20
3365.010546190941
 30
0.0
  0
ENDBLK
  5
2018
330
200D
100
AcDbEntity
  8
0
100
AcDbBlockEnd
  0
BLOCK
  5
20E2
330
20D8
100
AcDbEntity
  8
0
100
AcDbBlockBegin
  2
*D37
 70
     1
 10
0.0
 20
0.0
 30
0.0
  3
*D37
  1

  0
LINE
  5
32F1
330
20D8
100
AcDbEntity
  8
SUNPOU
 62
     0
370
    -2
100
AcDbLine
 10
5353.915688024659
 20
758.8848104312929
 30
0.0
 11
5353.915688024659
 21
470.7811878394086
 31
0.0
  0
LINE
  5
32F2
330
20D8
100
AcDbEntity
  8
SUNPOU
 62
     0
370
    -2
100
AcDbLine
 10
5728.915688024659
 20
758.8848104312929
 30
0.0
 11
5728.915688024659
 21
470.7811878394086
 31
0.0
  0
LINE
  5
32F3
330
20D8
100
AcDbEntity
  8
SUNPOU
 62
     0
370
    -2
100
AcDbLine
 10
5398.915688024659
 20
483.2811878394086
 30
0.0
 11
5683.915688024659
 21
483.2811878394086
 31
0.0
  0
SOLID
  5
32F4
330
20D8
100
AcDbEntity
  8
SUNPOU
 62
     0
100
AcDbTrace
 10
5398.915688024659
 20
490.7811878394086
 30
0.0
 11
5398.915688024659
 21
475.7811878394086
 31
0.0
 12
5353.915688024659
 22
483.2811878394086
 32
0.0
 13
5353.915688024659
 23
483.2811878394086
 33
0.0
  0
SOLID
  5
32F5
330
20D8
100
AcDbEntity
  8
SUNPOU
 62
     0
100
AcDbTrace
 10
5683.915688024659
 20
490.7811878394086
 30
0.0
 11
5683.915688024659
 21
475.7811878394086
 31
0.0
 12
5728.915688024659
 22
483.2811878394086
 32
0.0
 13
5728.915688024659
 23
483.2811878394086
 33
0.0
  0
MTEXT
  5
32F6
330
20D8
100
AcDbEntity
  8
SUNPOU
 62
     0
100
AcDbMText
 10
5541.415688024659
 20
532.0311878394086
 30
0.0
 40
62.5
 41
0.0
 71
     5
 72
     1
  1
\A1;375
 73
     1
 44
1.0
  0
POINT
  5
32F7
330
20D8
100
AcDbEntity
  8
DEFPOINTS
 62
     0
100
AcDbPoint
 10
5353.915688024659
 20
808.8848104312929
 30
0.0
  0
POINT
  5
32F8
330
20D8
100
AcDbEntity
  8
DEFPOINTS
 62
     0
100
AcDbPoint
 10
5728.915688024659
 20
808.8848104312929
 30
0.0
  0
POINT
  5
32F9
330
20D8
100
AcDbEntity
  8
DEFPOINTS
 62
     0
100
AcDbPoint
 10
5728.915688024659
 20
483.2811878394086
 30
0.0
  0
ENDBLK
  5
20E3
330
20D8
100
AcDbEntity
  8
0
100
AcDbBlockEnd
  0
BLOCK
  5
20EE
330
20E4
100
AcDbEntity
  8
0
100
AcDbBlockBegin
  2
*D38
 70
     1
 10
0.0
 20
0.0
 30
0.0
  3
*D38
  1

  0
LINE
  5
32FA
330
20E4
100
AcDbEntity
  8
SUNPOU
 62
     0
370
    -2
100
AcDbLine
 10
5728.915688024659
 20
758.8848104312929
 30
0.0
 11
5728.915688024659
 21
470.7811878394086
 31
0.0
  0
LINE
  5
32FB
330
20E4
100
AcDbEntity
  8
SUNPOU
 62
     0
370
    -2
100
AcDbLine
 10
6103.915688024659
 20
758.8848104312929
 30
0.0
 11
6103.915688024659
 21
470.7811878394086
 31
0.0
  0
LINE
  5
32FC
330
20E4
100
AcDbEntity
  8
SUNPOU
 62
     0
370
    -2
100
AcDbLine
 10
5773.915688024659
 20
483.2811878394086
 30
0.0
 11
6058.915688024659
 21
483.2811878394086
 31
0.0
  0
SOLID
  5
32FD
330
20E4
100
AcDbEntity
  8
SUNPOU
 62
     0
100
AcDbTrace
 10
5773.915688024659
 20
490.7811878394086
 30
0.0
 11
5773.915688024659
 21
475.7811878394086
 31
0.0
 12
5728.915688024659
 22
483.2811878394086
 32
0.0
 13
5728.915688024659
 23
483.2811878394086
 33
0.0
  0
SOLID
  5
32FE
330
20E4
100
AcDbEntity
  8
SUNPOU
 62
     0
100
AcDbTrace
 10
6058.915688024659
 20
490.7811878394086
 30
0.0
 11
6058.915688024659
 21
475.7811878394086
 31
0.0
 12
6103.915688024659
 22
483.2811878394086
 32
0.0
 13
6103.915688024659
 23
483.2811878394086
 33
0.0
  0
MTEXT
  5
32FF
330
20E4
100
AcDbEntity
  8
SUNPOU
 62
     0
100
AcDbMText
 10
5916.415688024659
 20
532.0311878394086
 30
0.0
 40
62.5
 41
0.0
 71
     5
 72
     1
  1
\A1;375
 73
     1
 44
1.0
  0
POINT
  5
3300
330
20E4
100
AcDbEntity
  8
DEFPOINTS
 62
     0
100
AcDbPoint
 10
5728.915688024659
 20
808.8848104312929
 30
0.0
  0
POINT
  5
3301
330
20E4
100
AcDbEntity
  8
DEFPOINTS
 62
     0
100
AcDbPoint
 10
6103.915688024659
 20
808.8848104312929
 30
0.0
  0
POINT
  5
3302
330
20E4
100
AcDbEntity
  8
DEFPOINTS
 62
     0
100
AcDbPoint
 10
6103.915688024659
 20
483.2811878394086
 30
0.0
  0
ENDBLK
  5
20EF
330
20E4
100
AcDbEntity
  8
0
100
AcDbBlockEnd
  0
BLOCK
  5
22D8
330
22CD
100
AcDbEntity
  8
0
100
AcDbBlockBegin
  2
*D39
 70
     1
 10
0.0
 20
0.0
 30
0.0
  3
*D39
  1

  0
LINE
  5
31A9
330
22CD
100
AcDbEntity
  8
SUNPOU
 62
     0
370
    -2
100
AcDbLine
 10
4862.915688024661
 20
4994.440722334757
 30
0.0
 11
4862.915688024661
 21
5090.703465173733
 31
0.0
  0
LINE
  5
31AA
330
22CD
100
AcDbEntity
  8
SUNPOU
 62
     0
370
    -2
100
AcDbLine
 10
4882.915688024659
 20
4994.440722334757
 30
0.0
 11
4882.915688024659
 21
5090.703465173733
 31
0.0
  0
LINE
  5
31AB
330
22CD
100
AcDbEntity
  8
SUNPOU
 62
     0
370
    -2
100
AcDbLine
 10
4817.915688024661
 20
5078.203465173733
 30
0.0
 11
4772.915688024661
 21
5078.203465173733
 31
0.0
  0
LINE
  5
31AC
330
22CD
100
AcDbEntity
  8
SUNPOU
 62
     0
370
    -2
100
AcDbLine
 10
4927.915688024659
 20
5078.203465173733
 30
0.0
 11
4972.915688024659
 21
5078.203465173733
 31
0.0
  0
MTEXT
  5
31AD
330
22CD
100
AcDbEntity
  8
SUNPOU
 62
     0
100
AcDbMText
 10
4811.195711577519
 20
5126.953465173733
 30
0.0
 40
62.5
 41
0.0
 71
     5
 72
     1
  1
\A1;20
 73
     1
 44
1.0
  0
SOLID
  5
31AE
330
22CD
100
AcDbEntity
  8
SUNPOU
 62
     0
100
AcDbTrace
 10
4817.915688024661
 20
5085.703465173733
 30
0.0
 11
4817.915688024661
 21
5070.703465173733
 31
0.0
 12
4862.915688024661
 22
5078.203465173733
 32
0.0
 13
4862.915688024661
 23
5078.203465173733
 33
0.0
  0
SOLID
  5
31AF
330
22CD
100
AcDbEntity
  8
SUNPOU
 62
     0
100
AcDbTrace
 10
4927.915688024659
 20
5085.703465173733
 30
0.0
 11
4927.915688024659
 21
5070.703465173733
 31
0.0
 12
4882.915688024659
 22
5078.203465173733
 32
0.0
 13
4882.915688024659
 23
5078.203465173733
 33
0.0
  0
POINT
  5
31B0
330
22CD
100
AcDbEntity
  8
DEFPOINTS
 62
     0
100
AcDbPoint
 10
4862.915688024661
 20
4944.440722334757
 30
0.0
  0
POINT
  5
31B1
330
22CD
100
AcDbEntity
  8
DEFPOINTS
 62
     0
100
AcDbPoint
 10
4882.915688024659
 20
4944.440722334757
 30
0.0
  0
POINT
  5
31B2
330
22CD
100
AcDbEntity
  8
DEFPOINTS
 62
     0
100
AcDbPoint
 10
4882.915688024659
 20
5078.203465173733
 30
0.0
  0
ENDBLK
  5
22D9
330
22CD
100
AcDbEntity
  8
0
100
AcDbBlockEnd
  0
BLOCK
  5
22E5
330
22DB
100
AcDbEntity
  8
0
100
AcDbBlockBegin
  2
*D40
 70
     1
 10
0.0
 20
0.0
 30
0.0
  3
*D40
  1

  0
LINE
  5
31B3
330
22DB
100
AcDbEntity
  8
SUNPOU
 62
     0
370
    -2
100
AcDbLine
 10
4882.915688024659
 20
4994.440722334757
 30
0.0
 11
4882.915688024659
 21
5090.703465173733
 31
0.0
  0
LINE
  5
31B4
330
22DB
100
AcDbEntity
  8
SUNPOU
 62
     0
370
    -2
100
AcDbLine
 10
5062.915688024661
 20
4994.440722334757
 30
0.0
 11
5062.915688024661
 21
5090.703465173733
 31
0.0
  0
LINE
  5
31B5
330
22DB
100
AcDbEntity
  8
SUNPOU
 62
     0
370
    -2
100
AcDbLine
 10
4927.915688024659
 20
5078.203465173733
 30
0.0
 11
5017.915688024661
 21
5078.203465173733
 31
0.0
  0
SOLID
  5
31B6
330
22DB
100
AcDbEntity
  8
SUNPOU
 62
     0
100
AcDbTrace
 10
4927.915688024659
 20
5085.703465173733
 30
0.0
 11
4927.915688024659
 21
5070.703465173733
 31
0.0
 12
4882.915688024659
 22
5078.203465173733
 32
0.0
 13
4882.915688024659
 23
5078.203465173733
 33
0.0
  0
SOLID
  5
31B7
330
22DB
100
AcDbEntity
  8
SUNPOU
 62
     0
100
AcDbTrace
 10
5017.915688024661
 20
5085.703465173733
 30
0.0
 11
5017.915688024661
 21
5070.703465173733
 31
0.0
 12
5062.915688024661
 22
5078.203465173733
 32
0.0
 13
5062.915688024661
 23
5078.203465173733
 33
0.0
  0
MTEXT
  5
31B8
330
22DB
100
AcDbEntity
  8
SUNPOU
 62
     0
100
AcDbMText
 10
4972.91568802466
 20
5126.953465173733
 30
0.0
 40
62.5
 41
0.0
 71
     5
 72
     1
  1
\A1;180
 73
     1
 44
1.0
  0
POINT
  5
31B9
330
22DB
100
AcDbEntity
  8
DEFPOINTS
 62
     0
100
AcDbPoint
 10
4882.915688024659
 20
4944.440722334757
 30
0.0
  0
POINT
  5
31BA
330
22DB
100
AcDbEntity
  8
DEFPOINTS
 62
     0
100
AcDbPoint
 10
5062.915688024661
 20
4944.440722334757
 30
0.0
  0
POINT
  5
31BB
330
22DB
100
AcDbEntity
  8
DEFPOINTS
 62
     0
100
AcDbPoint
 10
5062.915688024661
 20
5078.203465173733
 30
0.0
  0
ENDBLK
  5
22E6
330
22DB
100
AcDbEntity
  8
0
100
AcDbBlockEnd
  0
BLOCK
  5
22F3
330
22E8
100
AcDbEntity
  8
0
100
AcDbBlockBegin
  2
*D41
 70
     1
 10
0.0
 20
0.0
 30
0.0
  3
*D41
  1

  0
LINE
  5
31BC
330
22E8
100
AcDbEntity
  8
SUNPOU
 62
     0
370
    -2
100
AcDbLine
 10
5062.915688024661
 20
4994.440722334757
 30
0.0
 11
5062.915688024661
 21
5090.703465173733
 31
0.0
  0
LINE
  5
31BD
330
22E8
100
AcDbEntity
  8
SUNPOU
 62
     0
370
    -2
100
AcDbLine
 10
5082.91568802466
 20
4994.440722334757
 30
0.0
 11
5082.91568802466
 21
5090.703465173733
 31
0.0
  0
LINE
  5
31BE
330
22E8
100
AcDbEntity
  8
SUNPOU
 62
     0
370
    -2
100
AcDbLine
 10
5017.915688024661
 20
5078.203465173733
 30
0.0
 11
4972.915688024661
 21
5078.203465173733
 31
0.0
  0
LINE
  5
31BF
330
22E8
100
AcDbEntity
  8
SUNPOU
 62
     0
370
    -2
100
AcDbLine
 10
5127.91568802466
 20
5078.203465173733
 30
0.0
 11
5172.91568802466
 21
5078.203465173733
 31
0.0
  0
MTEXT
  5
31C0
330
22E8
100
AcDbEntity
  8
SUNPOU
 62
     0
100
AcDbMText
 10
5128.672548204992
 20
5126.953465173733
 30
0.0
 40
62.5
 41
0.0
 71
     5
 72
     1
  1
\A1;20
 73
     1
 44
1.0
  0
SOLID
  5
31C1
330
22E8
100
AcDbEntity
  8
SUNPOU
 62
     0
100
AcDbTrace
 10
5017.915688024661
 20
5085.703465173733
 30
0.0
 11
5017.915688024661
 21
5070.703465173733
 31
0.0
 12
5062.915688024661
 22
5078.203465173733
 32
0.0
 13
5062.915688024661
 23
5078.203465173733
 33
0.0
  0
SOLID
  5
31C2
330
22E8
100
AcDbEntity
  8
SUNPOU
 62
     0
100
AcDbTrace
 10
5127.91568802466
 20
5085.703465173733
 30
0.0
 11
5127.91568802466
 21
5070.703465173733
 31
0.0
 12
5082.91568802466
 22
5078.203465173733
 32
0.0
 13
5082.91568802466
 23
5078.203465173733
 33
0.0
  0
POINT
  5
31C3
330
22E8
100
AcDbEntity
  8
DEFPOINTS
 62
     0
100
AcDbPoint
 10
5062.915688024661
 20
4944.440722334757
 30
0.0
  0
POINT
  5
31C4
330
22E8
100
AcDbEntity
  8
DEFPOINTS
 62
     0
100
AcDbPoint
 10
5082.91568802466
 20
4944.440722334757
 30
0.0
  0
POINT
  5
31C5
330
22E8
100
AcDbEntity
  8
DEFPOINTS
 62
     0
100
AcDbPoint
 10
5082.91568802466
 20
5078.203465173733
 30
0.0
  0
ENDBLK
  5
22F4
330
22E8
100
AcDbEntity
  8
0
100
AcDbBlockEnd
  0
BLOCK
  5
25A0
330
2596
100
AcDbEntity
  8
0
100
AcDbBlockBegin
  2
*D42
 70
     1
 10
0.0
 20
0.0
 30
0.0
  3
*D42
  1

  0
LINE
  5
31C6
330
2596
100
AcDbEntity
  8
SUNPOU
 62
     0
370
    -2
100
AcDbLine
 10
945.7910064814278
 20
5830.788304021587
 30
0.0
 11
945.7910064814278
 21
6007.569925088672
 31
0.0
  0
LINE
  5
31C7
330
2596
100
AcDbEntity
  8
SUNPOU
 62
     0
370
    -2
100
AcDbLine
 10
1135.791006481428
 20
5830.788304021587
 30
0.0
 11
1135.791006481428
 21
6007.569925088672
 31
0.0
  0
LINE
  5
31C8
330
2596
100
AcDbEntity
  8
SUNPOU
 62
     0
370
    -2
100
AcDbLine
 10
990.7910064814278
 20
5995.069925088672
 30
0.0
 11
1090.791006481428
 21
5995.069925088672
 31
0.0
  0
SOLID
  5
31C9
330
2596
100
AcDbEntity
  8
SUNPOU
 62
     0
100
AcDbTrace
 10
990.7910064814278
 20
6002.569925088672
 30
0.0
 11
990.7910064814278
 21
5987.569925088672
 31
0.0
 12
945.7910064814278
 22
5995.069925088672
 32
0.0
 13
945.7910064814278
 23
5995.069925088672
 33
0.0
  0
SOLID
  5
31CA
330
2596
100
AcDbEntity
  8
SUNPOU
 62
     0
100
AcDbTrace
 10
1090.791006481428
 20
6002.569925088672
 30
0.0
 11
1090.791006481428
 21
5987.569925088672
 31
0.0
 12
1135.791006481428
 22
5995.069925088672
 32
0.0
 13
1135.791006481428
 23
5995.069925088672
 33
0.0
  0
MTEXT
  5
31CB
330
2596
100
AcDbEntity
  8
SUNPOU
 62
     0
100
AcDbMText
 10
1040.791006481428
 20
6043.819925088672
 30
0.0
 40
62.5
 41
0.0
 71
     5
 72
     1
  1
\A1;190
 73
     1
 44
1.0
  0
POINT
  5
31CC
330
2596
100
AcDbEntity
  8
DEFPOINTS
 62
     0
100
AcDbPoint
 10
945.7910064814278
 20
5780.788304021587
 30
0.0
  0
POINT
  5
31CD
330
2596
100
AcDbEntity
  8
DEFPOINTS
 62
     0
100
AcDbPoint
 10
1135.791006481428
 20
5780.788304021587
 30
0.0
  0
POINT
  5
31CE
330
2596
100
AcDbEntity
  8
DEFPOINTS
 62
     0
100
AcDbPoint
 10
1135.791006481428
 20
5995.069925088672
 30
0.0
  0
ENDBLK
  5
25A1
330
2596
100
AcDbEntity
  8
0
100
AcDbBlockEnd
  0
BLOCK
  5
25AE
330
25A3
100
AcDbEntity
  8
0
100
AcDbBlockBegin
  2
*D43
 70
     1
 10
0.0
 20
0.0
 30
0.0
  3
*D43
  1

  0
LINE
  5
31CF
330
25A3
100
AcDbEntity
  8
SUNPOU
 62
     0
370
    -2
100
AcDbLine
 10
1135.791006481428
 20
5830.788304021587
 30
0.0
 11
1135.791006481428
 21
6007.569925088672
 31
0.0
  0
LINE
  5
31D0
330
25A3
100
AcDbEntity
  8
SUNPOU
 62
     0
370
    -2
100
AcDbLine
 10
1205.791006481428
 20
5680.788304021586
 30
0.0
 11
1205.791006481428
 21
6007.569925088672
 31
0.0
  0
LINE
  5
31D1
330
25A3
100
AcDbEntity
  8
SUNPOU
 62
     0
370
    -2
100
AcDbLine
 10
1090.791006481428
 20
5995.069925088672
 30
0.0
 11
1045.791006481428
 21
5995.069925088672
 31
0.0
  0
LINE
  5
31D2
330
25A3
100
AcDbEntity
  8
SUNPOU
 62
     0
370
    -2
100
AcDbLine
 10
1250.791006481428
 20
5995.069925088672
 30
0.0
 11
1295.791006481428
 21
5995.069925088672
 31
0.0
  0
SOLID
  5
31D3
330
25A3
100
AcDbEntity
  8
SUNPOU
 62
     0
100
AcDbTrace
 10
1090.791006481428
 20
6002.569925088672
 30
0.0
 11
1090.791006481428
 21
5987.569925088672
 31
0.0
 12
1135.791006481428
 22
5995.069925088672
 32
0.0
 13
1135.791006481428
 23
5995.069925088672
 33
0.0
  0
SOLID
  5
31D4
330
25A3
100
AcDbEntity
  8
SUNPOU
 62
     0
100
AcDbTrace
 10
1250.791006481428
 20
6002.569925088672
 30
0.0
 11
1250.791006481428
 21
5987.569925088672
 31
0.0
 12
1205.791006481428
 22
5995.069925088672
 32
0.0
 13
1205.791006481428
 23
5995.069925088672
 33
0.0
  0
MTEXT
  5
31D5
330
25A3
100
AcDbEntity
  8
SUNPOU
 62
     0
100
AcDbMText
 10
1170.791006481428
 20
6043.819925088672
 30
0.0
 40
62.5
 41
0.0
 71
     5
 72
     1
  1
\A1;70
 73
     1
 44
1.0
  0
POINT
  5
31D6
330
25A3
100
AcDbEntity
  8
DEFPOINTS
 62
     0
100
AcDbPoint
 10
1135.791006481428
 20
5780.788304021587
 30
0.0
  0
POINT
  5
31D7
330
25A3
100
AcDbEntity
  8
DEFPOINTS
 62
     0
100
AcDbPoint
 10
1205.791006481428
 20
5630.788304021586
 30
0.0
  0
POINT
  5
31D8
330
25A3
100
AcDbEntity
  8
DEFPOINTS
 62
     0
100
AcDbPoint
 10
1205.791006481428
 20
5995.069925088672
 30
0.0
  0
ENDBLK
  5
25AF
330
25A3
100
AcDbEntity
  8
0
100
AcDbBlockEnd
  0
BLOCK
  5
2C1A
330
2C10
100
AcDbEntity
  8
0
100
AcDbBlockBegin
  2
*D44
 70
     1
 10
0.0
 20
0.0
 30
0.0
  3
*D44
  1

  0
LINE
  5
3303
330
2C10
100
AcDbEntity
  8
SUNPOU
 62
     0
370
    -2
100
AcDbLine
 10
1455.791006481429
 20
2565.888558090762
 30
0.0
 11
989.2277716675237
 21
2565.888558090762
 31
0.0
  0
LINE
  5
3304
330
2C10
100
AcDbEntity
  8
SUNPOU
 62
     0
370
    -2
100
AcDbLine
 10
1455.791006481428
 20
1065.888558090762
 30
0.0
 11
989.2277716675234
 21
1065.888558090762
 31
0.0
  0
LINE
  5
3305
330
2C10
100
AcDbEntity
  8
SUNPOU
 62
     0
370
    -2
100
AcDbLine
 10
1001.727771667524
 20
2520.888558090762
 30
0.0
 11
1001.727771667523
 21
1110.888558090762
 31
0.0
  0
SOLID
  5
3306
330
2C10
100
AcDbEntity
  8
SUNPOU
 62
     0
100
AcDbTrace
 10
994.2277716675237
 20
2520.888558090762
 30
0.0
 11
1009.227771667524
 21
2520.888558090762
 31
0.0
 12
1001.727771667524
 22
2565.888558090762
 32
0.0
 13
1001.727771667524
 23
2565.888558090762
 33
0.0
  0
SOLID
  5
3307
330
2C10
100
AcDbEntity
  8
SUNPOU
 62
     0
100
AcDbTrace
 10
994.2277716675234
 20
1110.888558090762
 30
0.0
 11
1009.227771667523
 21
1110.888558090762
 31
0.0
 12
1001.727771667523
 22
1065.888558090762
 32
0.0
 13
1001.727771667523
 23
1065.888558090762
 33
0.0
  0
MTEXT
  5
3308
330
2C10
100
AcDbEntity
  8
SUNPOU
 62
     0
100
AcDbMText
 10
952.9777716675233
 20
1815.888558090762
 30
0.0
 40
62.5
 41
0.0
 71
     5
 72
     1
  1
\A1;1500
 11
6.123031769111886E-17
 21
1.0
 31
0.0
 73
     1
 44
1.0
  0
POINT
  5
3309
330
2C10
100
AcDbEntity
  8
DEFPOINTS
 62
     0
100
AcDbPoint
 10
1505.791006481429
 20
2565.888558090762
 30
0.0
  0
POINT
  5
330A
330
2C10
100
AcDbEntity
  8
DEFPOINTS
 62
     0
100
AcDbPoint
 10
1505.791006481428
 20
1065.888558090762
 30
0.0
  0
POINT
  5
330B
330
2C10
100
AcDbEntity
  8
DEFPOINTS
 62
     0
100
AcDbPoint
 10
1001.727771667523
 20
1065.888558090762
 30
0.0
  0
ENDBLK
  5
2C1B
330
2C10
100
AcDbEntity
  8
0
100
AcDbBlockEnd
  0
BLOCK
  5
2C31
330
2C27
100
AcDbEntity
  8
0
100
AcDbBlockBegin
  2
*D45
 70
     1
 10
0.0
 20
0.0
 30
0.0
  3
*D45
  1

  0
LINE
  5
330C
330
2C27
100
AcDbEntity
  8
SUNPOU
 62
     0
370
    -2
100
AcDbLine
 10
1505.791006481428
 20
1015.888558090762
 30
0.0
 11
1505.791006481428
 21
547.2077397403555
 31
0.0
  0
LINE
  5
330D
330
2C27
100
AcDbEntity
  8
SUNPOU
 62
     0
370
    -2
100
AcDbLine
 10
3275.791006481425
 20
1056.242548138702
 30
0.0
 11
3275.791006481425
 21
547.2077397403555
 31
0.0
  0
LINE
  5
330E
330
2C27
100
AcDbEntity
  8
SUNPOU
 62
     0
370
    -2
100
AcDbLine
 10
1550.791006481428
 20
559.7077397403555
 30
0.0
 11
3230.791006481425
 21
559.7077397403555
 31
0.0
  0
SOLID
  5
330F
330
2C27
100
AcDbEntity
  8
SUNPOU
 62
     0
100
AcDbTrace
 10
1550.791006481428
 20
567.2077397403555
 30
0.0
 11
1550.791006481428
 21
552.2077397403555
 31
0.0
 12
1505.791006481428
 22
559.7077397403555
 32
0.0
 13
1505.791006481428
 23
559.7077397403555
 33
0.0
  0
SOLID
  5
3310
330
2C27
100
AcDbEntity
  8
SUNPOU
 62
     0
100
AcDbTrace
 10
3230.791006481425
 20
567.2077397403555
 30
0.0
 11
3230.791006481425
 21
552.2077397403555
 31
0.0
 12
3275.791006481425
 22
559.7077397403555
 32
0.0
 13
3275.791006481425
 23
559.7077397403555
 33
0.0
  0
MTEXT
  5
3311
330
2C27
100
AcDbEntity
  8
SUNPOU
 62
     0
100
AcDbMText
 10
2390.791006481427
 20
608.4577397403555
 30
0.0
 40
62.5
 41
0.0
 71
     5
 72
     1
  1
\A1;1770
 73
     1
 44
1.0
  0
POINT
  5
3312
330
2C27
100
AcDbEntity
  8
DEFPOINTS
 62
     0
100
AcDbPoint
 10
1505.791006481428
 20
1065.888558090762
 30
0.0
  0
POINT
  5
3313
330
2C27
100
AcDbEntity
  8
DEFPOINTS
 62
     0
100
AcDbPoint
 10
3275.791006481425
 20
1106.242548138702
 30
0.0
  0
POINT
  5
3314
330
2C27
100
AcDbEntity
  8
DEFPOINTS
 62
     0
100
AcDbPoint
 10
3275.791006481425
 20
559.7077397403555
 30
0.0
  0
ENDBLK
  5
2C32
330
2C27
100
AcDbEntity
  8
0
100
AcDbBlockEnd
  0
BLOCK
  5
2CE8
330
2CDE
100
AcDbEntity
  8
0
100
AcDbBlockBegin
  2
*D46
 70
     1
 10
0.0
 20
0.0
 30
0.0
  3
*D46
  1

  0
LINE
  5
3315
330
2CDE
100
AcDbEntity
  8
SUNPOU
 62
     0
370
    -2
100
AcDbLine
 10
3325.791006481425
 20
1106.242548138702
 30
0.0
 11
3621.78212944093
 21
1106.242548138702
 31
0.0
  0
LINE
  5
3316
330
2CDE
100
AcDbEntity
  8
SUNPOU
 62
     0
370
    -2
100
AcDbLine
 10
3325.791006481428
 20
2525.534568042821
 30
0.0
 11
3621.78212944093
 21
2525.534568042821
 31
0.0
  0
LINE
  5
3317
330
2CDE
100
AcDbEntity
  8
SUNPOU
 62
     0
370
    -2
100
AcDbLine
 10
3609.28212944093
 20
1151.242548138702
 30
0.0
 11
3609.28212944093
 21
2480.534568042821
 31
0.0
  0
SOLID
  5
3318
330
2CDE
100
AcDbEntity
  8
SUNPOU
 62
     0
100
AcDbTrace
 10
3601.78212944093
 20
1151.242548138702
 30
0.0
 11
3616.78212944093
 21
1151.242548138702
 31
0.0
 12
3609.28212944093
 22
1106.242548138702
 32
0.0
 13
3609.28212944093
 23
1106.242548138702
 33
0.0
  0
SOLID
  5
3319
330
2CDE
100
AcDbEntity
  8
SUNPOU
 62
     0
100
AcDbTrace
 10
3601.78212944093
 20
2480.534568042821
 30
0.0
 11
3616.78212944093
 21
2480.534568042821
 31
0.0
 12
3609.28212944093
 22
2525.534568042821
 32
0.0
 13
3609.28212944093
 23
2525.534568042821
 33
0.0
  0
MTEXT
  5
331A
330
2CDE
100
AcDbEntity
  8
SUNPOU
 62
     0
100
AcDbMText
 10
3560.53212944093
 20
1815.888558090762
 30
0.0
 40
62.5
 41
0.0
 71
     5
 72
     1
  1
\A1;1419
 11
6.123031769111886E-17
 21
1.0
 31
0.0
 73
     1
 44
1.0
  0
POINT
  5
331B
330
2CDE
100
AcDbEntity
  8
DEFPOINTS
 62
     0
100
AcDbPoint
 10
3275.791006481425
 20
1106.242548138702
 30
0.0
  0
POINT
  5
331C
330
2CDE
100
AcDbEntity
  8
DEFPOINTS
 62
     0
100
AcDbPoint
 10
3275.791006481428
 20
2525.534568042821
 30
0.0
  0
POINT
  5
331D
330
2CDE
100
AcDbEntity
  8
DEFPOINTS
 62
     0
100
AcDbPoint
 10
3609.28212944093
 20
2525.534568042821
 30
0.0
  0
ENDBLK
  5
2CE9
330
2CDE
100
AcDbEntity
  8
0
100
AcDbBlockEnd
  0
ENDSEC
  0
SECTION
  2
ENTITIES
  0
LINE
  5
22F
330
18
100
AcDbEntity
  8
SEIHIN
 48
2.0
100
AcDbLine
 10
5353.915688024659
 20
998.8848104312929
 30
0.0
 11
6103.915688024659
 21
998.8848104312929
 31
0.0
  0
LINE
  5
230
330
18
100
AcDbEntity
  8
SEIHIN
 48
2.0
100
AcDbLine
 10
5353.915688024659
 20
1068.884810431293
 30
0.0
 11
6103.915688024659
 21
1068.884810431293
 31
0.0
  0
LWPOLYLINE
  5
245
330
18
100
AcDbEntity
  8
SEIHIN
100
AcDbPolyline
 90
        2
 70
     0
 43
0.0
 10
4603.915688024659
 20
2368.884810431293
 10
6103.915688024659
 20
2368.884810431293
  0
LWPOLYLINE
  5
249
330
18
100
AcDbEntity
  8
SEIHIN
 48
2.0
100
AcDbPolyline
 90
        2
 70
     0
 43
0.0
 10
4606.536076988811
 20
2418.884810431293
 10
6101.295299060507
 20
2418.884810431293
  0
LINE
  5
24D
330
18
100
AcDbEntity
  8
SEIHIN
  6
DASHED2
 62
     7
 48
2.0
100
AcDbLine
 10
5830.425755138753
 20
2068.884810431293
 30
0.0
 11
5627.405620910566
 21
2068.884810431293
 31
0.0
  0
LINE
  5
24E
330
18
100
AcDbEntity
  8
SEIHIN
  6
DASHED2
 62
     7
 48
2.0
100
AcDbLine
 10
5080.425755138753
 20
2068.884810431293
 30
0.0
 11
4877.405620910566
 21
2068.884810431293
 31
0.0
  0
LINE
  5
260
330
18
100
AcDbEntity
  8
SEIHIN
100
AcDbLine
 10
5347.915688024659
 20
3970.788304021586
 30
0.0
 11
6097.915688024659
 21
3970.788304021586
 31
0.0
  0
LINE
  5
276
330
18
100
AcDbEntity
  8
SEIHIN
  6
DASHED2
 62
     1
 48
2.0
100
AcDbLine
 10
5812.915688024658
 20
5464.776739243425
 30
0.0
 11
5632.915688024658
 21
5464.776739243426
 31
0.0
  0
LWPOLYLINE
  5
277
330
18
100
AcDbEntity
  8
SEIHIN
100
AcDbPolyline
 90
        4
 70
     0
 43
0.0
 10
5347.915688024656
 20
5560.788304021587
 10
5665.065688024656
 20
5560.788304021587
 10
5612.915688024658
 20
5546.784881265885
 10
5347.915688024657
 20
5546.784881265885
  0
LINE
  5
27D
330
18
100
AcDbEntity
  8
SEIHIN
100
AcDbLine
 10
5667.915688024658
 20
5530.788304021585
 30
0.0
 11
5632.915688024658
 21
5464.776739243427
 31
0.0
  0
LINE
  5
27E
330
18
100
AcDbEntity
  8
SEIHIN
100
AcDbLine
 10
5777.915688024658
 20
5530.788304021588
 30
0.0
 11
5812.915688024658
 21
5464.776739243426
 31
0.0
  0
LINE
  5
27F
330
18
100
AcDbEntity
  8
SEIHIN
100
AcDbLine
 10
5667.915688024658
 20
5530.788304021586
 30
0.0
 11
5665.065688024658
 21
5560.788304021587
 31
0.0
  0
LINE
  5
280
330
18
100
AcDbEntity
  8
SEIHIN
100
AcDbLine
 10
5777.915688024658
 20
5530.788304021586
 30
0.0
 11
5667.915688024658
 21
5530.788304021586
 31
0.0
  0
LINE
  5
281
330
18
100
AcDbEntity
  8
SEIHIN
100
AcDbLine
 10
5780.765688024661
 20
5560.788304021586
 30
0.0
 11
5777.915688024658
 21
5530.788304021586
 31
0.0
  0
LWPOLYLINE
  5
28A
330
18
100
AcDbEntity
  8
SEIHIN
100
AcDbPolyline
 90
        4
 70
     0
 43
0.0
 10
6097.915688024659
 20
5560.788304021587
 10
5780.76568802466
 20
5560.788304021587
 10
5832.915688024659
 20
5546.784881265885
 10
6097.91568802466
 20
5546.784881265885
  0
LINE
  5
290
330
18
100
AcDbEntity
  8
SEIHIN
  6
DASHED2
 62
     1
 48
2.0
100
AcDbLine
 10
5632.915688024658
 20
5235.261684106608
 30
0.0
 11
5812.915688024658
 21
5235.261684106608
 31
0.0
  0
LINE
  5
291
330
18
100
AcDbEntity
  8
SEIHIN
  6
DASHED2
 62
     1
 48
2.0
100
AcDbLine
 10
5812.915688024661
 20
4194.440722334757
 30
0.0
 11
5632.915688024659
 21
4194.440722334757
 31
0.0
  0
DIMENSION
  5
2B9
330
18
100
AcDbEntity
  8
SUNPOU
100
AcDbDimension
  2
*D19
 10
545.8532480118956
 20
5630.788304021587
 30
0.0
 11
497.1032480118947
 21
5705.788304021587
 31
0.0
 70
    32
 71
     5
 42
150.0
  3
A3-25
100
AcDbAlignedDimension
 13
945.7910064814278
 23
5780.788304021587
 33
0.0
 14
945.7910064814278
 24
5630.788304021587
 34
0.0
 50
90.0
100
AcDbRotatedDimension
  0
DIMENSION
  5
2BB
330
18
100
AcDbEntity
  8
SUNPOU
100
AcDbDimension
  2
*D22
 10
1205.791006481429
 20
6120.20701761596
 30
0.0
 11
1075.791006481428
 21
6168.95701761596
 31
0.0
 70
    32
 71
     5
 42
260.0000000000009
  3
A3-25
100
AcDbAlignedDimension
 13
945.7910064814278
 23
5780.788304021587
 33
0.0
 14
1205.791006481429
 24
5780.788304021587
 34
0.0
100
AcDbRotatedDimension
  0
DIMENSION
  5
2BC
330
18
100
AcDbEntity
  8
SUNPOU
100
AcDbDimension
  2
*D18
 10
2505.791006481428
 20
6120.20701761596
 30
0.0
 11
1855.791006481428
 21
6168.95701761596
 31
0.0
 70
    32
 71
     5
 42
1300.0
  3
A3-25
100
AcDbAlignedDimension
 13
1205.791006481428
 23
5780.788304021587
 33
0.0
 14
2505.791006481428
 24
5630.788304021586
 34
0.0
100
AcDbRotatedDimension
  0
DIMENSION
  5
2BF
330
18
100
AcDbEntity
  8
SUNPOU
100
AcDbDimension
  2
*D8
 10
4603.915688024659
 20
311.2668600133466
 30
0.0
 11
5353.915688024659
 21
360.0168600133466
 31
0.0
 70
    32
 71
     5
 42
1500.0
  3
A3-25
100
AcDbAlignedDimension
 13
6103.915688024659
 23
808.8848104312929
 33
0.0
 14
4603.915688024659
 24
808.8848104312929
 34
0.0
 50
180.0
100
AcDbRotatedDimension
  0
DIMENSION
  5
2C0
330
18
100
AcDbEntity
  8
SUNPOU
100
AcDbDimension
  2
*D9
 10
4978.915688024659
 20
483.2811878394086
 30
0.0
 11
5166.415688024659
 21
532.0311878394086
 31
0.0
 70
    32
 71
     5
 42
375.0
  3
A3-25
100
AcDbAlignedDimension
 13
5353.915688024659
 23
808.8848104312929
 33
0.0
 14
4978.915688024659
 24
808.8848104312929
 34
0.0
 50
180.0
100
AcDbRotatedDimension
  0
DIMENSION
  5
2C1
330
18
100
AcDbEntity
  8
SUNPOU
100
AcDbDimension
  2
*D10
 10
4603.915688024659
 20
483.2811878394086
 30
0.0
 11
4791.415688024659
 21
532.0311878394086
 31
0.0
 70
    32
 71
     5
 42
375.0
  3
A3-25
100
AcDbAlignedDimension
 13
4978.915688024659
 23
808.8848104312929
 33
0.0
 14
4603.915688024659
 24
808.8848104312929
 34
0.0
 50
180.0
100
AcDbRotatedDimension
  0
LWPOLYLINE
  5
2C2
330
18
100
AcDbEntity
  8
SEIHIN
  6
DASHED2
 62
     7
 48
2.0
100
AcDbPolyline
 90
        4
 70
     0
 43
0.0
 10
995.7910064814278
 20
5780.788304021585
 10
1005.791006481428
 20
5580.788304021585
 10
1085.791006481428
 20
5580.788304021585
 10
1095.791006481428
 20
5780.788304021585
  0
DIMENSION
  5
2C9
330
18
100
AcDbEntity
  8
SUNPOU
100
AcDbDimension
  2
*D23
 10
4196.260144769323
 20
5630.788304021586
 30
0.0
 11
4147.510144769322
 21
5705.788304021587
 31
0.0
 70
    32
 71
     5
 42
150.0
  3
A3-25
100
AcDbAlignedDimension
 13
4603.915688024659
 23
5780.788304021586
 33
0.0
 14
4603.915688024659
 24
5630.788304021586
 34
0.0
 50
90.0
100
AcDbRotatedDimension
  0
DIMENSION
  5
2CA
330
18
100
AcDbEntity
  8
SUNPOU
100
AcDbDimension
  2
*D24
 10
4196.260144769323
 20
3880.788304021586
 30
0.0
 11
4147.510144769322
 21
4755.788304021587
 31
0.0
 70
    32
 71
     5
 42
1750.0
  3
A3-25
100
AcDbAlignedDimension
 13
4603.915688024659
 23
5630.788304021586
 33
0.0
 14
4597.915688024659
 24
3880.788304021586
 34
0.0
 50
90.0
100
AcDbRotatedDimension
  0
DIMENSION
  5
2CB
330
18
100
AcDbEntity
  8
SUNPOU
100
AcDbDimension
  2
*D25
 10
6097.91568802466
 20
6219.648522736118
 30
0.0
 11
5347.915688024659
 21
6268.398522736118
 31
0.0
 70
    32
 71
     5
 42
1500.000000000001
  3
A3-25
100
AcDbAlignedDimension
 13
4597.915688024659
 23
5780.788304021587
 33
0.0
 14
6097.91568802466
 24
5780.788304021587
 34
0.0
100
AcDbRotatedDimension
  0
DIMENSION
  5
2CC
330
18
100
AcDbEntity
  8
SUNPOU
100
AcDbDimension
  2
*D26
 10
4972.915688024659
 20
6067.848631303025
 30
0.0
 11
4785.415688024659
 21
6116.598631303025
 31
0.0
 70
    32
 71
     5
 42
375.0
  3
A3-25
100
AcDbAlignedDimension
 13
4597.915688024659
 23
5780.788304021587
 33
0.0
 14
4972.915688024659
 24
5780.788304021587
 34
0.0
100
AcDbRotatedDimension
  0
DIMENSION
  5
2CD
330
18
100
AcDbEntity
  8
SUNPOU
100
AcDbDimension
  2
*D27
 10
5722.915688024659
 20
6067.848631303025
 30
0.0
 11
5347.915688024659
 21
6116.598631303025
 31
0.0
 70
    32
 71
     5
 42
750.0
  3
A3-25
100
AcDbAlignedDimension
 13
4972.915688024659
 23
5780.788304021587
 33
0.0
 14
5722.915688024659
 24
5780.788304021587
 34
0.0
100
AcDbRotatedDimension
  0
DIMENSION
  5
2CE
330
18
100
AcDbEntity
  8
SUNPOU
100
AcDbDimension
  2
*D28
 10
6097.915688024659
 20
6067.848631303025
 30
0.0
 11
5910.415688024659
 21
6116.598631303025
 31
0.0
 70
    32
 71
     5
 42
375.0
  3
A3-25
100
AcDbAlignedDimension
 13
5722.915688024659
 23
5780.788304021587
 33
0.0
 14
6097.915688024659
 24
5780.788304021587
 34
0.0
100
AcDbRotatedDimension
  0
LWPOLYLINE
  5
2D9
330
18
100
AcDbEntity
  8
SEIHIN
100
AcDbPolyline
 90
        2
 70
     0
 43
0.0
 10
5632.915688024658
 20
5464.776739243427
 10
5632.915688024657
 20
4194.440722334757
  0
LWPOLYLINE
  5
2DD
330
18
100
AcDbEntity
  8
SEIHIN
100
AcDbPolyline
 90
        2
 70
     0
 43
0.0
 10
5812.915688024658
 20
5464.776739243427
 10
5812.915688024659
 20
4194.440722334757
  0
LINE
  5
2E1
330
18
100
AcDbEntity
  8
SEIHIN
100
AcDbLine
 10
5632.915688024657
 20
4194.440722334757
 30
0.0
 11
5643.415688024659
 21
3979.320838934647
 31
0.0
  0
LINE
  5
2E2
330
18
100
AcDbEntity
  8
SEIHIN
100
AcDbLine
 10
5812.915688024658
 20
4194.440722334757
 30
0.0
 11
5802.41568802466
 21
3979.320838934647
 31
0.0
  0
DIMENSION
  5
2FD
330
18
100
AcDbEntity
  8
SUNPOU
100
AcDbDimension
  2
*D11
 10
6493.782365201897
 20
1068.884810431293
 30
0.0
 11
6445.032365201897
 21
938.8848104312939
 31
0.0
 70
    32
 71
     5
 42
260.0
  3
A3-25
100
AcDbAlignedDimension
 13
6103.915688024659
 23
808.8848104312929
 33
0.0
 14
6103.915688024659
 24
1068.884810431293
 34
0.0
 50
90.0
100
AcDbRotatedDimension
  0
DIMENSION
  5
2FE
330
18
100
AcDbEntity
  8
SUNPOU
100
AcDbDimension
  2
*D12
 10
6363.645491393098
 20
998.8848104312929
 30
0.0
 11
6314.895491393098
 21
903.8848104312939
 31
0.0
 70
    32
 71
     5
 42
190.0
  3
A3-25
100
AcDbAlignedDimension
 13
6103.915688024659
 23
808.8848104312929
 33
0.0
 14
6103.915688024659
 24
998.8848104312929
 34
0.0
 50
90.0
100
AcDbRotatedDimension
  0
CIRCLE
  5
2FF
330
18
100
AcDbEntity
  8
SEIHIN
100
AcDbCircle
 10
5353.915688024659
 20
1103.884810431293
 30
0.0
 40
11.0
  0
CIRCLE
  5
30C
330
18
100
AcDbEntity
  8
SEIHIN
100
AcDbCircle
 10
5347.91568802466
 20
4330.788304021586
 30
0.0
 40
60.0
  0
CIRCLE
  5
30D
330
18
100
AcDbEntity
  8
SEIHIN
100
AcDbCircle
 10
5347.91568802466
 20
4330.788304021586
 30
0.0
 40
40.0
  0
CIRCLE
  5
30F
330
18
100
AcDbEntity
  8
SUNPOU
100
AcDbCircle
 10
5567.91568802466
 20
5260.788304021586
 30
0.0
 40
11.0
  0
DIMENSION
  5
319
330
18
100
AcDbEntity
  8
SUNPOU
100
AcDbDimension
  2
*D4
 10
3275.791006481429
 20
6247.529289220385
 30
0.0
 11
2890.791006481429
 21
6296.279289220385
 31
0.0
 70
    32
 71
     5
 42
770.0000000000014
  3
A3-25
100
AcDbAlignedDimension
 13
2505.791006481428
 23
5630.788304021586
 33
0.0
 14
3275.791006481429
 24
5630.788304021587
 34
0.0
100
AcDbRotatedDimension
  0
DIMENSION
  5
3B3
330
18
100
AcDbEntity
  8
SUNPOU
100
AcDbDimension
  2
*D20
 10
545.8532480118955
 20
3880.788304021586
 30
0.0
 11
497.1032480118949
 21
4755.788304021587
 31
0.0
 70
    32
 71
     5
 42
1750.0
  3
A3-25
100
AcDbAlignedDimension
 13
945.7910064814278
 23
5630.788304021587
 33
0.0
 14
1505.791006481428
 24
3880.788304021586
 34
0.0
 50
90.0
100
AcDbRotatedDimension
  0
LINE
  5
3B4
330
18
100
AcDbEntity
  8
1HASEN
 48
2.0
100
AcDbLine
 10
5353.915688024659
 20
718.9152311295866
 30
0.0
 11
5353.915688024659
 21
3251.062196369468
 31
0.0
  0
LINE
  5
441
330
18
100
AcDbEntity
  8
1HASEN
100
AcDbLine
 10
1369.046998081823
 20
1815.888558090762
 30
0.0
 11
3339.590101428657
 21
1815.888558090761
 31
0.0
  0
DIMENSION
  5
449
330
18
100
AcDbEntity
  8
SUNPOU
100
AcDbDimension
  2
*D13
 10
2205.791006481429
 20
711.8601861178577
 30
0.0
 11
1855.791006481429
 21
760.6101861178577
 31
0.0
 70
    32
 71
     5
 42
700.0
  3
A3-25
100
AcDbAlignedDimension
 13
1505.791006481429
 23
1065.888558090762
 33
0.0
 14
2205.791006481429
 24
1065.888558090762
 34
0.0
100
AcDbRotatedDimension
  0
LINE
  5
44C
330
18
100
AcDbEntity
  8
SEIHIN
  6
DASHED2
 62
     7
 48
2.0
100
AcDbLine
 10
2205.791006481429
 20
2089.378490976668
 30
0.0
 11
2205.791006481429
 21
2292.398625204856
 31
0.0
  0
LWPOLYLINE
  5
44D
330
18
100
AcDbEntity
  8
SEIHIN
  6
DASHED2
 62
     7
 48
2.0
100
AcDbPolyline
 90
        2
 70
     0
 43
0.0
 10
2505.791006481429
 20
2565.888558090762
 10
2505.791006481428
 20
1065.888558090761
  0
LINE
  5
451
330
18
100
AcDbEntity
  8
1HASEN
100
AcDbLine
 10
5347.915688024659
 20
5875.295555769418
 30
0.0
 11
5347.915688024659
 21
3774.504344400938
 31
0.0
  0
LWPOLYLINE
  5
46A
330
18
100
AcDbEntity
  8
SEIHIN
  6
DASHED2
 62
     7
 48
2.0
100
AcDbPolyline
 90
        3
 70
     0
 43
0.0
 10
5437.915688024659
 20
5780.788304021587
 10
5427.915688024658
 20
5580.788304021587
 10
5347.915688024659
 20
5580.788304021587
  0
DIMENSION
  5
48B
330
18
100
AcDbEntity
  8
SUNPOU
100
AcDbDimension
  2
*D14
 10
2505.791006481429
 20
711.8601861178577
 30
0.0
 11
2355.791006481429
 21
760.6101861178577
 31
0.0
 70
    32
 71
     5
 42
300.0
  3
A3-25
100
AcDbAlignedDimension
 13
2205.791006481429
 23
1065.888558090762
 33
0.0
 14
2505.791006481429
 24
1065.888558090762
 34
0.0
100
AcDbRotatedDimension
  0
DIMENSION
  5
48C
330
18
100
AcDbEntity
  8
SUNPOU
100
AcDbDimension
  2
*D5
 10
3275.791006481425
 20
711.8601861178577
 30
0.0
 11
2890.791006481427
 21
760.6101861178577
 31
0.0
 70
    32
 71
     5
 42
769.9999999999968
  3
A3-25
100
AcDbAlignedDimension
 13
2505.791006481429
 23
1065.888558090762
 33
0.0
 14
3275.791006481425
 24
1106.242548138702
 34
0.0
100
AcDbRotatedDimension
  0
LWPOLYLINE
  5
48F
330
18
100
AcDbEntity
  8
SEIHIN
  6
DASHED2
 62
     7
 48
2.0
100
AcDbPolyline
 90
        6
 70
     0
 43
0.0
 10
2435.791006481429
 20
2565.888558090762
 10
2435.791006481429
 20
2300.888558090762
 10
1770.791006481427
 20
2276.34157822499
 10
1770.791006481427
 20
2105.435537956534
 10
2435.791006481429
 20
2080.888558090762
 10
2435.791006481429
 20
1815.888558090762
  0
LWPOLYLINE
  5
497
330
18
100
AcDbEntity
  8
SEIHIN
  6
DASHED2
 62
     7
 48
2.0
100
AcDbPolyline
 90
        6
 70
     0
 43
0.0
 10
2435.791006481428
 20
1065.888558090761
 10
2435.791006481428
 20
1330.888558090762
 10
1770.791006481426
 20
1355.435537956533
 10
1770.791006481426
 20
1526.341578224989
 10
2435.791006481428
 20
1550.888558090762
 10
2435.791006481429
 20
1815.888558090762
  0
DIMENSION
  5
547
330
18
100
AcDbEntity
  8
SUNPOU
100
AcDbDimension
  2
*D21
 10
413.6909928315654
 20
5780.788304021587
 30
0.0
 11
364.9409928315644
 21
4830.788304021587
 31
0.0
 70
    32
 71
     5
 42
1900.0
  3
A3-25
100
AcDbAlignedDimension
 13
1505.791006481428
 23
3880.788304021586
 33
0.0
 14
945.7910064814278
 24
5780.788304021587
 34
0.0
 50
90.0
100
AcDbRotatedDimension
  0
DIMENSION
  5
63C
330
18
100
AcDbEntity
  8
SUNPOU
100
AcDbDimension
  2
*D15
 10
6363.645491393098
 20
1068.884810431293
 30
0.0
 11
6314.895491393098
 21
1033.884810431294
 31
0.0
 70
    32
 71
     5
 42
70.0
  3
A3-25
100
AcDbAlignedDimension
 13
6103.915688024659
 23
998.8848104312929
 33
0.0
 14
6103.915688024659
 24
1068.884810431293
 34
0.0
 50
90.0
100
AcDbRotatedDimension
  0
LINE
  5
673
330
18
100
AcDbEntity
  8
SEIHIN
  6
DASHED2
 62
     1
 48
2.0
100
AcDbLine
 10
5612.915688024658
 20
4194.440722334759
 30
0.0
 11
5347.915688024659
 21
4194.440722334759
 31
0.0
  0
LINE
  5
674
330
18
100
AcDbEntity
  8
SEIHIN
  6
DASHED2
 62
     1
 48
2.0
100
AcDbLine
 10
5832.915688024657
 20
4194.440722334762
 30
0.0
 11
6097.915688024659
 21
4194.440722334762
 31
0.0
  0
DIMENSION
  5
680
330
18
100
AcDbEntity
  8
SUNPOU
100
AcDbDimension
  2
*D16
 10
2435.791006481429
 20
849.1369904923813
 30
0.0
 11
2320.791006481429
 21
897.8869904923813
 31
0.0
 70
    32
 71
     5
 42
230.0
  3
A3-25
100
AcDbAlignedDimension
 13
2205.791006481429
 23
1065.888558090762
 33
0.0
 14
2435.791006481429
 24
1065.888558090762
 34
0.0
100
AcDbRotatedDimension
  0
DIMENSION
  5
681
330
18
100
AcDbEntity
  8
SUNPOU
100
AcDbDimension
  2
*D17
 10
2505.791006481429
 20
849.1369904923813
 30
0.0
 11
2470.791006481429
 21
897.8869904923813
 31
0.0
 70
    32
 71
     5
 42
70.0
  3
A3-25
100
AcDbAlignedDimension
 13
2435.791006481429
 23
1065.888558090762
 33
0.0
 14
2505.791006481429
 24
1065.888558090762
 34
0.0
100
AcDbRotatedDimension
  0
INSERT
  5
75F
330
18
100
AcDbEntity
  8
SEIHIN
100
AcDbBlockReference
  2
FGG
 10
6097.915688024659
 20
4280.788304021585
 30
0.0
  0
LWPOLYLINE
  5
9F9
330
18
100
AcDbEntity
  8
SEIHIN
 48
2.0
100
AcDbPolyline
 90
        4
 70
     0
 43
0.0
 10
5353.915688024659
 20
958.8848104312929
 10
5313.915697059434
 20
958.8848104312929
 42
1.000000180695494
 10
5313.915697059434
 20
858.8848104312929
 10
5353.915688024659
 20
858.8848104312929
 42
0.9999999999999999
  0
TEXT
  5
ED3
330
18
100
AcDbEntity
  8
SUNPOU
100
AcDbText
 10
8949.673517259176
 20
164.9007621036908
 30
0.0
 40
75.0
  1
25
100
AcDbText
  0
INSERT
  5
ED4
330
18
100
AcDbEntity
  8
HAIKIN
100
AcDbBlockReference
  2
SA3
 10
-250.3264827408202
 20
-235.0992378963092
 30
0.0
 41
25.0
 42
25.0
 43
25.0
  0
TEXT
  5
FA1
330
18
100
AcDbEntity
  8
SUNPOU
100
AcDbText
 10
7870.21975396926
 20
560.7416919043794
 30
0.0
 40
65.0
  1
ロードエル
100
AcDbText
  0
TEXT
  5
FA2
330
18
100
AcDbEntity
  8
SUNPOU
100
AcDbText
 10
8299.56394136224
 20
560.7416919043794
 30
0.0
 40
65.0
  1
Ｈ＝１７５０
100
AcDbText
  0
TEXT
  5
1DA3
330
18
100
AcDbEntity
  8
SUNPOU
100
AcDbText
 10
8904.03059845566
 20
560.7416919043794
 30
0.0
 40
65.0
  1
(μ=0.6)
 41
0.8
100
AcDbText
  0
ARC
  5
1ECE
330
18
100
AcDbEntity
  8
SEIHIN
100
AcDbCircle
 10
1755.791006481428
 20
4429.086890387513
 30
0.0
 40
450.0000000000004
100
AcDbArc
 50
271.8476102659637
 51
0.0
  0
LINE
  5
1ECF
330
18
100
AcDbEntity
  8
SEIHIN
100
AcDbLine
 10
2205.791006481415
 20
4429.086890387513
 30
0.0
 11
2205.791006481429
 21
5235.261684106608
 31
0.0
  0
ARC
  5
1ED0
330
18
100
AcDbEntity
  8
SEIHIN
100
AcDbCircle
 10
1975.791006481428
 20
5235.261684106608
 30
0.0
 40
230.0000000000002
100
AcDbArc
 50
0.0
 51
86.27868673524092
  0
LINE
  5
1ED1
330
18
100
AcDbEntity
  8
SEIHIN
100
AcDbLine
 10
1990.718814945611
 20
5464.776739243427
 30
0.0
 11
975.7910064814278
 21
5530.788304021586
 31
0.0
  0
LINE
  5
1ED2
330
18
100
AcDbEntity
  8
SEIHIN
100
AcDbLine
 10
975.7910064814278
 20
5530.788304021586
 30
0.0
 11
945.7910064814278
 21
5560.788304021587
 31
0.0
  0
LINE
  5
1ED3
330
18
100
AcDbEntity
  8
SEIHIN
100
AcDbLine
 10
945.7910064814278
 20
5560.788304021587
 30
0.0
 11
945.7910064814278
 21
5780.788304021587
 31
0.0
  0
LINE
  5
1ED4
330
18
100
AcDbEntity
  8
SEIHIN
100
AcDbLine
 10
945.7910064814278
 20
5780.788304021587
 30
0.0
 11
1135.791006481428
 21
5780.788304021587
 31
0.0
  0
LINE
  5
1ED5
330
18
100
AcDbEntity
  8
SEIHIN
100
AcDbLine
 10
1135.791006481428
 20
5780.788304021587
 30
0.0
 11
1205.791006481428
 21
5630.788304021586
 31
0.0
  0
LINE
  5
1ED6
330
18
100
AcDbEntity
  8
SEIHIN
100
AcDbLine
 10
1205.791006481428
 20
5630.788304021586
 30
0.0
 11
2505.791006481428
 21
5630.788304021586
 31
0.0
  0
LINE
  5
1ED7
330
18
100
AcDbEntity
  8
SEIHIN
100
AcDbLine
 10
2505.791006481428
 20
5630.788304021586
 30
0.0
 11
2505.791006481428
 21
4100.788304021585
 31
0.0
  0
LINE
  5
1ED8
330
18
100
AcDbEntity
  8
SEIHIN
100
AcDbLine
 10
2505.791006481428
 20
4100.788304021585
 30
0.0
 11
2555.571840715327
 21
4046.111922623855
 31
0.0
  0
LINE
  5
1ED9
330
18
100
AcDbEntity
  8
SEIHIN
100
AcDbLine
 10
2555.571840715327
 20
4046.111922623855
 30
0.0
 11
3275.791006481429
 21
3990.788304021586
 31
0.0
  0
LINE
  5
1EDB
330
18
100
AcDbEntity
  8
SEIHIN
100
AcDbLine
 10
3275.791006481429
 20
3880.788304021586
 30
0.0
 11
1505.791006481428
 21
3880.788304021586
 31
0.0
  0
LINE
  5
1EDC
330
18
100
AcDbEntity
  8
SEIHIN
100
AcDbLine
 10
1505.791006481428
 20
3880.788304021586
 30
0.0
 11
1505.791006481428
 21
3970.788304021586
 31
0.0
  0
LINE
  5
1EDD
330
18
100
AcDbEntity
  8
SEIHIN
100
AcDbLine
 10
1505.791006481428
 20
3970.788304021586
 30
0.0
 11
1770.299588786357
 21
3979.320838934647
 31
0.0
  0
DIMENSION
  5
1EDE
330
18
100
AcDbEntity
  8
SUNPOU
100
AcDbDimension
  2
*D29
 10
2505.791006481429
 20
3509.301893753895
 30
0.0
 11
2890.791006481429
 21
3558.051893753895
 31
0.0
 70
    32
 71
     5
 42
770.0
  3
A3-25
100
AcDbAlignedDimension
 13
3275.791006481429
 23
3880.788304021586
 33
0.0
 14
2505.791006481429
 24
3880.788304021586
 34
0.0
100
AcDbRotatedDimension
  0
DIMENSION
  5
1EEB
330
18
100
AcDbEntity
  8
SUNPOU
100
AcDbDimension
  2
*D30
 10
2205.791006481429
 20
3509.301893753895
 30
0.0
 11
2355.791006481429
 21
3558.051893753895
 31
0.0
 70
    32
 71
     5
 42
300.0
  3
A3-25
100
AcDbAlignedDimension
 13
2505.791006481429
 23
3880.788304021586
 33
0.0
 14
2205.791006481429
 24
3880.788304021586
 34
0.0
100
AcDbRotatedDimension
  0
DIMENSION
  5
1EF8
330
18
100
AcDbEntity
  8
SUNPOU
100
AcDbDimension
  2
*D31
 10
1505.791006481428
 20
3509.301893753895
 30
0.0
 11
1855.791006481428
 21
3558.051893753895
 31
0.0
 70
    32
 71
     5
 42
700.0000000000009
  3
A3-25
100
AcDbAlignedDimension
 13
2205.791006481429
 23
3880.788304021586
 33
0.0
 14
1505.791006481428
 24
3880.788304021586
 34
0.0
100
AcDbRotatedDimension
  0
LINE
  5
1F0E
330
18
100
AcDbEntity
  8
SEIHIN
  6
DASHED2
 62
     7
 48
2.0
100
AcDbLine
 10
4603.915688024659
 20
2298.884810431294
 30
0.0
 11
4868.915688024659
 21
2298.884810431293
 31
0.0
  0
LINE
  5
1F0F
330
18
100
AcDbEntity
  8
SEIHIN
  6
DASHED2
 62
     7
 48
2.0
100
AcDbLine
 10
4868.915688024659
 20
2298.884810431293
 30
0.0
 11
4923.915688024659
 21
808.8848104312929
 31
0.0
  0
LINE
  5
1F10
330
18
100
AcDbEntity
  8
SEIHIN
  6
DASHED2
 62
     7
 48
2.0
100
AcDbLine
 10
4923.915688024659
 20
808.8848104312929
 30
0.0
 11
5033.915688024659
 21
808.8848104312929
 31
0.0
  0
LINE
  5
1F11
330
18
100
AcDbEntity
  8
SEIHIN
  6
DASHED2
 62
     7
 48
2.0
100
AcDbLine
 10
5033.915688024659
 20
808.8848104312929
 30
0.0
 11
5088.915688024659
 21
2298.884810431293
 31
0.0
  0
LINE
  5
1F12
330
18
100
AcDbEntity
  8
SEIHIN
  6
DASHED2
 62
     7
 48
2.0
100
AcDbLine
 10
5088.915688024659
 20
2298.884810431293
 30
0.0
 11
5353.915688024659
 21
2298.884810431293
 31
0.0
  0
LINE
  5
1F13
330
18
100
AcDbEntity
  8
SEIHIN
  6
DASHED2
 62
     7
 48
2.0
100
AcDbLine
 10
5618.915688024659
 20
2298.884810431293
 30
0.0
 11
5673.915688024659
 21
808.8848104312929
 31
0.0
  0
LINE
  5
1F14
330
18
100
AcDbEntity
  8
SEIHIN
  6
DASHED2
 62
     7
 48
2.0
100
AcDbLine
 10
5673.915688024659
 20
808.8848104312929
 30
0.0
 11
5783.915688024659
 21
808.8848104312929
 31
0.0
  0
LINE
  5
1F15
330
18
100
AcDbEntity
  8
SEIHIN
  6
DASHED2
 62
     7
 48
2.0
100
AcDbLine
 10
5783.915688024659
 20
808.8848104312929
 30
0.0
 11
5838.915688024659
 21
2298.884810431293
 31
0.0
  0
LINE
  5
1F16
330
18
100
AcDbEntity
  8
SEIHIN
  6
DASHED2
 62
     7
 48
2.0
100
AcDbLine
 10
5838.915688024659
 20
2298.884810431293
 30
0.0
 11
6103.915688024659
 21
2298.884810431293
 31
0.0
  0
LINE
  5
1F17
330
18
100
AcDbEntity
  8
SEIHIN
  6
DASHED2
 62
     7
 48
2.0
100
AcDbLine
 10
5353.915688024659
 20
2298.884810431293
 30
0.0
 11
5618.915688024659
 21
2298.884810431293
 31
0.0
  0
LINE
  5
1F18
330
18
100
AcDbEntity
  8
SEIHIN
 48
2.0
100
AcDbLine
 10
4603.915688024659
 20
998.8848104312929
 30
0.0
 11
5353.915688024659
 21
998.8848104312929
 31
0.0
  0
LINE
  5
1F19
330
18
100
AcDbEntity
  8
SEIHIN
 48
2.0
100
AcDbLine
 10
4603.915688024659
 20
1068.884810431293
 30
0.0
 11
5353.915688024659
 21
1068.884810431293
 31
0.0
  0
LINE
  5
1F1A
330
18
100
AcDbEntity
  8
SEIHIN
 48
2.0
100
AcDbLine
 10
4644.269678072598
 20
3138.884810431294
 30
0.0
 11
4603.915688024659
 21
2368.884810431294
 31
0.0
  0
LINE
  5
1F1B
330
18
100
AcDbEntity
  8
SEIHIN
100
AcDbLine
 10
4603.915688024659
 20
2368.884810431294
 30
0.0
 11
4603.915688024659
 21
808.8848104312933
 31
0.0
  0
LINE
  5
1F1C
330
18
100
AcDbEntity
  8
SEIHIN
100
AcDbLine
 10
4603.915688024659
 20
808.8848104312933
 30
0.0
 11
6103.915688024659
 21
808.8848104312929
 31
0.0
  0
LINE
  5
1F1D
330
18
100
AcDbEntity
  8
SEIHIN
100
AcDbLine
 10
6103.915688024659
 20
808.8848104312929
 30
0.0
 11
6103.915688024659
 21
2368.884810431293
 31
0.0
  0
LINE
  5
1F1E
330
18
100
AcDbEntity
  8
SEIHIN
 48
2.0
100
AcDbLine
 10
6103.915688024659
 20
2368.884810431293
 30
0.0
 11
6063.561697976717
 21
3138.884810431293
 31
0.0
  0
LINE
  5
1F1F
330
18
100
AcDbEntity
  8
SEIHIN
 48
2.0
100
AcDbLine
 10
6063.561697976717
 20
3138.884810431293
 30
0.0
 11
4644.269678072598
 21
3138.884810431294
 31
0.0
  0
DIMENSION
  5
1F20
330
18
100
AcDbEntity
  8
SUNPOU
100
AcDbDimension
  2
*D32
 10
4202.260144769324
 20
2368.884810431294
 30
0.0
 11
4153.510144769323
 21
1588.884810431294
 31
0.0
 70
    32
 71
     5
 42
1560.0
  3
A3-25
100
AcDbAlignedDimension
 13
4603.915688024659
 23
808.8848104312933
 33
0.0
 14
4603.915688024659
 24
2368.884810431294
 34
0.0
 50
90.0
100
AcDbRotatedDimension
  0
DIMENSION
  5
1F2D
330
18
100
AcDbEntity
  8
SUNPOU
100
AcDbDimension
  2
*D33
 10
2435.791006481429
 20
3647.128888276224
 30
0.0
 11
2470.791006481429
 21
3695.878888276224
 31
0.0
 70
    32
 71
     5
 42
70.0
  3
A3-25
100
AcDbAlignedDimension
 13
2505.791006481429
 23
3880.788304021586
 33
0.0
 14
2435.791006481429
 24
3880.788304021586
 34
0.0
100
AcDbRotatedDimension
  0
DIMENSION
  5
1F3B
330
18
100
AcDbEntity
  8
SUNPOU
100
AcDbDimension
  2
*D34
 10
2205.791006481429
 20
3647.128888276224
 30
0.0
 11
2320.791006481429
 21
3695.878888276224
 31
0.0
 70
    32
 71
     5
 42
230.0
  3
A3-25
100
AcDbAlignedDimension
 13
2435.791006481429
 23
3880.788304021586
 33
0.0
 14
2205.791006481429
 24
3880.788304021586
 34
0.0
100
AcDbRotatedDimension
  0
DIMENSION
  5
1FBE
330
18
100
AcDbEntity
  8
SUNPOU
100
AcDbDimension
  2
*D35
 10
2505.791006481428
 20
6247.529289220385
 30
0.0
 11
1725.791006481428
 21
6296.279289220385
 31
0.0
 70
    32
 71
     5
 42
1560.0
  3
A3-25
100
AcDbAlignedDimension
 13
945.7910064814278
 23
5780.788304021587
 33
0.0
 14
2505.791006481428
 24
5630.788304021586
 34
0.0
100
AcDbRotatedDimension
  0
DIMENSION
  5
200C
330
18
100
AcDbEntity
  8
SUNPOU
100
AcDbDimension
  2
*D36
 10
3275.791006481429
 20
3365.010546190941
 30
0.0
 11
2390.791006481428
 21
3413.760546190941
 31
0.0
 70
    32
 71
     5
 42
1770.000000000001
  3
A3-25
100
AcDbAlignedDimension
 13
1505.791006481428
 23
3880.788304021586
 33
0.0
 14
3275.791006481429
 24
3880.788304021586
 34
0.0
100
AcDbRotatedDimension
  0
TEXT
  5
206D
330
18
100
AcDbEntity
  8
SUNPOU
100
AcDbText
 10
8969.261562770427
 20
728.0942574439146
 30
0.0
 40
65.0
  1
(製品図)
100
AcDbText
  0
LWPOLYLINE
  5
20B0
330
18
100
AcDbEntity
  8
SEIHIN
 48
2.0
100
AcDbPolyline
 90
        4
 70
     0
 43
0.0
 10
5353.915688024659
 20
948.8848104312929
 10
5313.915697059434
 20
948.8848104312929
 42
1.000000171926097
 10
5313.915695252479
 20
868.8848104312929
 10
5353.915688024659
 20
868.8848104312929
  0
LWPOLYLINE
  5
20B2
330
18
100
AcDbEntity
  8
SEIHIN
 48
2.0
100
AcDbPolyline
 90
        4
 70
     0
 43
0.0
 10
5353.915688024659
 20
958.8848104312929
 10
5393.915678989884
 20
958.8848104312929
 42
-1.000000180695494
 10
5393.915678989884
 20
858.8848104312929
 10
5353.915688024659
 20
858.8848104312929
 42
-0.9999999999999999
  0
LWPOLYLINE
  5
20B3
330
18
100
AcDbEntity
  8
SEIHIN
 48
2.0
100
AcDbPolyline
 90
        4
 70
     0
 43
0.0
 10
5353.915688024659
 20
948.8848104312929
 10
5393.915678989884
 20
948.8848104312929
 42
-1.000000171926097
 10
5393.915680796838
 20
868.8848104312929
 10
5353.915688024659
 20
868.8848104312929
  0
DIMENSION
  5
20D6
330
18
100
AcDbEntity
  8
SUNPOU
100
AcDbDimension
  2
*D37
 10
5728.915688024659
 20
483.2811878394086
 30
0.0
 11
5541.415688024659
 21
532.0311878394086
 31
0.0
 70
    32
 71
     5
 42
375.0
  3
A3-25
100
AcDbAlignedDimension
 13
5353.915688024659
 23
808.8848104312929
 33
0.0
 14
5728.915688024659
 24
808.8848104312929
 34
0.0
100
AcDbRotatedDimension
  0
DIMENSION
  5
20D7
330
18
100
AcDbEntity
  8
SUNPOU
100
AcDbDimension
  2
*D38
 10
6103.915688024659
 20
483.2811878394086
 30
0.0
 11
5916.415688024659
 21
532.0311878394086
 31
0.0
 70
    32
 71
     5
 42
375.0
  3
A3-25
100
AcDbAlignedDimension
 13
5728.915688024659
 23
808.8848104312929
 33
0.0
 14
6103.915688024659
 24
808.8848104312929
 34
0.0
100
AcDbRotatedDimension
  0
TEXT
  5
212B
330
18
100
AcDbEntity
  8
SUNPOU
100
AcDbText
 10
6230.432291885471
 20
1485.403120518414
 30
0.0
 40
60.0
  1
水抜き孔
 41
0.8
100
AcDbText
  0
LINE
  5
212C
330
18
100
AcDbEntity
  8
SUNPOU
100
AcDbLine
 10
6204.246071705832
 20
1473.232373960715
 30
0.0
 11
6474.479724403817
 21
1473.232373960715
 31
0.0
  0
LEADER
  5
212F
330
18
100
AcDbEntity
  8
SUNPOU
100
AcDbLeader
  3
A3-25
 76
     2
 10
5353.915688024659
 20
1103.884810431293
 30
0.0
 10
6204.246071705832
 20
1473.232373960715
 30
0.0
1001
ACAD
1000
DSTYLE
1002
{
1070
   147
1040
0.7
1070
    77
1070
     0
1002
}
  0
TEXT
  5
2130
330
18
100
AcDbEntity
  8
SUNPOU
100
AcDbText
 10
6230.432291885471
 20
1310.907543959222
 30
0.0
 40
60.0
  1
防護柵取付用ホール
 41
0.8
100
AcDbText
  0
LINE
  5
2131
330
18
100
AcDbEntity
  8
SUNPOU
100
AcDbLine
 10
6204.246071705832
 20
1298.736797401524
 30
0.0
 11
6760.104332127285
 21
1298.736797401524
 31
0.0
  0
LEADER
  5
2132
330
18
100
AcDbEntity
  8
SUNPOU
100
AcDbLeader
  3
A3-25
 76
     2
 10
5353.915688024659
 20
929.3892338721016
 30
0.0
 10
6204.246071705832
 20
1298.736797401524
 30
0.0
1001
ACAD
1000
DSTYLE
1002
{
1070
   147
1040
0.7
1070
    77
1070
     0
1002
}
  0
TEXT
  5
220F
330
18
100
AcDbEntity
  8
SUNPOU
100
AcDbText
 10
3672.195083197959
 20
3003.131434694336
 30
0.0
 40
90.0
  1
平面図(頂版)
 72
     1
 11
3987.195083197959
 21
3003.131434694336
 31
0.0
100
AcDbText
  0
LWPOLYLINE
  5
2210
330
18
100
AcDbEntity
  8
SUNPOU
100
AcDbPolyline
 90
        4
 70
     1
 43
0.0
 10
3647.060753927955
 20
3116.844329830343
 10
4344.29829620029
 20
3116.844329830343
 10
4344.29829620029
 20
2973.758477312218
 10
3647.060753927955
 20
2973.758477312218
  0
LINE
  5
2249
330
18
100
AcDbEntity
  8
SEIHIN
100
AcDbLine
 10
5347.915688024659
 20
3970.788304021586
 30
0.0
 11
4597.915688024659
 21
3970.788304021586
 31
0.0
  0
LINE
  5
224A
330
18
100
AcDbEntity
  8
SEIHIN
  6
DASHED2
 62
     1
 48
2.0
100
AcDbLine
 10
4882.91568802466
 20
5464.776739243425
 30
0.0
 11
5062.91568802466
 21
5464.776739243426
 31
0.0
  0
LWPOLYLINE
  5
224B
330
18
100
AcDbEntity
  8
SEIHIN
100
AcDbPolyline
 90
        4
 70
     0
 43
0.0
 10
5347.915688024662
 20
5560.788304021587
 10
5030.765688024662
 20
5560.788304021587
 10
5082.91568802466
 20
5546.784881265885
 10
5347.915688024661
 20
5546.784881265885
  0
LINE
  5
224C
330
18
100
AcDbEntity
  8
SEIHIN
100
AcDbLine
 10
5027.91568802466
 20
5530.788304021585
 30
0.0
 11
5062.91568802466
 21
5464.776739243427
 31
0.0
  0
LINE
  5
224D
330
18
100
AcDbEntity
  8
SEIHIN
100
AcDbLine
 10
4917.91568802466
 20
5530.788304021588
 30
0.0
 11
4882.91568802466
 21
5464.776739243426
 31
0.0
  0
LINE
  5
224E
330
18
100
AcDbEntity
  8
SEIHIN
100
AcDbLine
 10
5027.91568802466
 20
5530.788304021586
 30
0.0
 11
5030.76568802466
 21
5560.788304021587
 31
0.0
  0
LINE
  5
224F
330
18
100
AcDbEntity
  8
SEIHIN
100
AcDbLine
 10
4917.91568802466
 20
5530.788304021586
 30
0.0
 11
5027.91568802466
 21
5530.788304021586
 31
0.0
  0
LINE
  5
2250
330
18
100
AcDbEntity
  8
SEIHIN
100
AcDbLine
 10
4915.065688024657
 20
5560.788304021586
 30
0.0
 11
4917.91568802466
 21
5530.788304021586
 31
0.0
  0
LWPOLYLINE
  5
2252
330
18
100
AcDbEntity
  8
SEIHIN
100
AcDbPolyline
 90
        4
 70
     0
 43
0.0
 10
4597.915688024659
 20
5560.788304021587
 10
4915.065688024659
 20
5560.788304021587
 10
4862.915688024659
 20
5546.784881265885
 10
4597.915688024658
 20
5546.784881265885
  0
LINE
  5
2253
330
18
100
AcDbEntity
  8
SEIHIN
  6
DASHED2
 62
     1
 48
2.0
100
AcDbLine
 10
5062.91568802466
 20
5235.261684106608
 30
0.0
 11
4882.91568802466
 21
5235.261684106608
 31
0.0
  0
LINE
  5
2254
330
18
100
AcDbEntity
  8
SEIHIN
  6
DASHED2
 62
     1
 48
2.0
100
AcDbLine
 10
4882.915688024657
 20
4194.440722334757
 30
0.0
 11
5062.915688024659
 21
4194.440722334757
 31
0.0
  0
LWPOLYLINE
  5
2255
330
18
100
AcDbEntity
  8
SEIHIN
100
AcDbPolyline
 90
        2
 70
     0
 43
0.0
 10
5062.91568802466
 20
5464.776739243427
 10
5062.915688024661
 20
4194.440722334757
  0
LWPOLYLINE
  5
2256
330
18
100
AcDbEntity
  8
SEIHIN
100
AcDbPolyline
 90
        2
 70
     0
 43
0.0
 10
4882.91568802466
 20
5464.776739243427
 10
4882.915688024659
 20
4194.440722334757
  0
LINE
  5
2257
330
18
100
AcDbEntity
  8
SEIHIN
100
AcDbLine
 10
5062.915688024661
 20
4194.440722334757
 30
0.0
 11
5052.415688024659
 21
3979.320838934647
 31
0.0
  0
LINE
  5
2258
330
18
100
AcDbEntity
  8
SEIHIN
100
AcDbLine
 10
4882.91568802466
 20
4194.440722334757
 30
0.0
 11
4893.415688024658
 21
3979.320838934647
 31
0.0
  0
CIRCLE
  5
2259
330
18
100
AcDbEntity
  8
SUNPOU
100
AcDbCircle
 10
5127.915688024658
 20
5260.788304021586
 30
0.0
 40
11.00000000000001
  0
LWPOLYLINE
  5
225A
330
18
100
AcDbEntity
  8
SEIHIN
  6
DASHED2
 62
     7
 48
2.0
100
AcDbPolyline
 90
        3
 70
     0
 43
0.0
 10
5257.915688024659
 20
5780.788304021587
 10
5267.91568802466
 20
5580.788304021587
 10
5347.915688024659
 20
5580.788304021587
  0
LINE
  5
225B
330
18
100
AcDbEntity
  8
SEIHIN
  6
DASHED2
 62
     1
 48
2.0
100
AcDbLine
 10
5082.91568802466
 20
4194.440722334759
 30
0.0
 11
5347.915688024659
 21
4194.440722334759
 31
0.0
  0
LINE
  5
225C
330
18
100
AcDbEntity
  8
SEIHIN
  6
DASHED2
 62
     1
 48
2.0
100
AcDbLine
 10
4862.915688024661
 20
4194.440722334762
 30
0.0
 11
4597.915688024659
 21
4194.440722334762
 31
0.0
  0
INSERT
  5
225D
330
18
100
AcDbEntity
  8
SEIHIN
100
AcDbBlockReference
  2
FGG
 10
4597.915688024659
 20
4280.788304021585
 30
0.0
 41
-1.0
  0
LINE
  5
225E
330
18
100
AcDbEntity
  8
SEIHIN
100
AcDbLine
 10
5347.91568802466
 20
5780.788304021587
 30
0.0
 11
6091.915688024659
 21
5780.788304021586
 31
0.0
  0
LINE
  5
225F
330
18
100
AcDbEntity
  8
SEIHIN
100
AcDbLine
 10
6091.915688024659
 20
5780.788304021586
 30
0.0
 11
6091.915688024659
 21
5615.788304021586
 31
0.0
  0
LINE
  5
2260
330
18
100
AcDbEntity
  8
SEIHIN
100
AcDbLine
 10
6091.915688024659
 20
5615.788304021586
 30
0.0
 11
6085.915688024659
 21
5612.288304021587
 31
0.0
  0
LINE
  5
2261
330
18
100
AcDbEntity
  8
SEIHIN
100
AcDbLine
 10
6085.915688024659
 20
5612.288304021587
 30
0.0
 11
6085.915688024659
 21
5600.288304021587
 31
0.0
  0
LINE
  5
2262
330
18
100
AcDbEntity
  8
SEIHIN
100
AcDbLine
 10
6085.915688024659
 20
5600.288304021587
 30
0.0
 11
6091.915688024659
 21
5596.788304021586
 31
0.0
  0
LINE
  5
2263
330
18
100
AcDbEntity
  8
SEIHIN
100
AcDbLine
 10
6091.915688024659
 20
5596.788304021586
 30
0.0
 11
6091.915688024659
 21
5588.288304021587
 31
0.0
  0
LINE
  5
2264
330
18
100
AcDbEntity
  8
SEIHIN
100
AcDbLine
 10
6091.915688024659
 20
5588.288304021587
 30
0.0
 11
6085.915688024659
 21
5584.788304021586
 31
0.0
  0
LINE
  5
2265
330
18
100
AcDbEntity
  8
SEIHIN
100
AcDbLine
 10
6085.915688024659
 20
5584.788304021586
 30
0.0
 11
6085.915688024659
 21
5578.788304021586
 31
0.0
  0
LINE
  5
2266
330
18
100
AcDbEntity
  8
SEIHIN
100
AcDbLine
 10
6085.915688024659
 20
5578.788304021586
 30
0.0
 11
6097.915688024659
 21
5575.788304021587
 31
0.0
  0
LINE
  5
2267
330
18
100
AcDbEntity
  8
SEIHIN
100
AcDbLine
 10
6097.915688024659
 20
5575.788304021587
 30
0.0
 11
6097.915688024659
 21
3880.788304021586
 31
0.0
  0
LINE
  5
2268
330
18
100
AcDbEntity
  8
SEIHIN
100
AcDbLine
 10
6097.915688024659
 20
3880.788304021586
 30
0.0
 11
4597.915688024659
 21
3880.788304021586
 31
0.0
  0
LINE
  5
2269
330
18
100
AcDbEntity
  8
SEIHIN
100
AcDbLine
 10
4597.915688024659
 20
3880.788304021586
 30
0.0
 11
4597.915688024659
 21
5575.788304021587
 31
0.0
  0
LINE
  5
226A
330
18
100
AcDbEntity
  8
SEIHIN
100
AcDbLine
 10
4597.915688024659
 20
5575.788304021587
 30
0.0
 11
4609.915688024659
 21
5578.788304021586
 31
0.0
  0
LINE
  5
226B
330
18
100
AcDbEntity
  8
SEIHIN
100
AcDbLine
 10
4609.915688024659
 20
5578.788304021586
 30
0.0
 11
4609.915688024659
 21
5584.788304021586
 31
0.0
  0
LINE
  5
226C
330
18
100
AcDbEntity
  8
SEIHIN
100
AcDbLine
 10
4609.915688024659
 20
5584.788304021586
 30
0.0
 11
4603.915688024659
 21
5588.288304021587
 31
0.0
  0
LINE
  5
226D
330
18
100
AcDbEntity
  8
SEIHIN
100
AcDbLine
 10
4603.915688024659
 20
5588.288304021587
 30
0.0
 11
4603.915688024659
 21
5596.788304021586
 31
0.0
  0
LINE
  5
226E
330
18
100
AcDbEntity
  8
SEIHIN
100
AcDbLine
 10
4603.915688024659
 20
5596.788304021586
 30
0.0
 11
4609.915688024659
 21
5600.288304021587
 31
0.0
  0
LINE
  5
226F
330
18
100
AcDbEntity
  8
SEIHIN
100
AcDbLine
 10
4609.915688024659
 20
5600.288304021587
 30
0.0
 11
4609.915688024659
 21
5612.288304021587
 31
0.0
  0
LINE
  5
2270
330
18
100
AcDbEntity
  8
SEIHIN
100
AcDbLine
 10
4609.915688024659
 20
5612.288304021587
 30
0.0
 11
4603.915688024659
 21
5615.788304021586
 31
0.0
  0
LINE
  5
2271
330
18
100
AcDbEntity
  8
SEIHIN
100
AcDbLine
 10
4603.915688024659
 20
5615.788304021586
 30
0.0
 11
4603.915688024659
 21
5630.788304021586
 31
0.0
  0
LINE
  5
2272
330
18
100
AcDbEntity
  8
SEIHIN
  6
DASHED2
 62
     7
 48
2.0
100
AcDbLine
 10
4603.915688024659
 20
5630.788304021586
 30
0.0
 11
5347.91568802466
 21
5630.788304021587
 31
0.0
  0
LINE
  5
2273
330
18
100
AcDbEntity
  8
SEIHIN
100
AcDbLine
 10
5347.915688024658
 20
5780.788304021587
 30
0.0
 11
4603.915688024659
 21
5780.788304021586
 31
0.0
  0
LINE
  5
2274
330
18
100
AcDbEntity
  8
SEIHIN
100
AcDbLine
 10
4603.915688024659
 20
5780.788304021586
 30
0.0
 11
4603.915688024659
 21
5615.788304021586
 31
0.0
  0
LINE
  5
2276
330
18
100
AcDbEntity
  8
SEIHIN
  6
DASHED2
 62
     7
 48
2.0
100
AcDbLine
 10
6091.915688024659
 20
5630.788304021586
 30
0.0
 11
5347.915688024658
 21
5630.788304021587
 31
0.0
  0
TEXT
  5
22CA
330
18
100
AcDbEntity
  8
SUNPOU
100
AcDbText
 10
3935.773388780552
 20
6223.03174706615
 30
0.0
 40
90.0
  1
正 面 図
 72
     1
 11
4136.773388780552
 21
6223.03174706615
 31
0.0
100
AcDbText
  0
LWPOLYLINE
  5
22CB
330
18
100
AcDbEntity
  8
SUNPOU
100
AcDbPolyline
 90
        4
 70
     1
 43
0.0
 10
3910.195692616864
 20
6336.744642202157
 10
4377.481107903855
 20
6336.744642202157
 10
4377.481107903855
 20
6193.658789684032
 10
3910.195692616864
 20
6193.658789684032
  0
DIMENSION
  5
22CC
330
18
100
AcDbEntity
  8
SUNPOU
100
AcDbDimension
  2
*D39
 10
4882.915688024659
 20
5078.203465173733
 30
0.0
 11
4811.195711577519
 21
5126.953465173733
 31
0.0
 70
   160
 71
     5
 42
19.99999999999818
  3
A3-25
100
AcDbAlignedDimension
 13
4862.915688024661
 23
4944.440722334757
 33
0.0
 14
4882.915688024659
 24
4944.440722334757
 34
0.0
100
AcDbRotatedDimension
  0
DIMENSION
  5
22DA
330
18
100
AcDbEntity
  8
SUNPOU
100
AcDbDimension
  2
*D40
 10
5062.915688024661
 20
5078.203465173733
 30
0.0
 11
4972.91568802466
 21
5126.953465173733
 31
0.0
 70
    32
 71
     5
 42
180.0000000000018
  3
A3-25
100
AcDbAlignedDimension
 13
4882.915688024659
 23
4944.440722334757
 33
0.0
 14
5062.915688024661
 24
4944.440722334757
 34
0.0
100
AcDbRotatedDimension
  0
DIMENSION
  5
22E7
330
18
100
AcDbEntity
  8
SUNPOU
100
AcDbDimension
  2
*D41
 10
5082.91568802466
 20
5078.203465173733
 30
0.0
 11
5128.672548204992
 21
5126.953465173733
 31
0.0
 70
   160
 71
     5
 42
19.99999999999909
  3
A3-25
100
AcDbAlignedDimension
 13
5062.915688024661
 23
4944.440722334757
 33
0.0
 14
5082.91568802466
 24
4944.440722334757
 34
0.0
100
AcDbRotatedDimension
  0
TEXT
  5
2309
330
18
100
AcDbEntity
  8
SUNPOU
100
AcDbText
 10
5541.74607023165
 20
3743.521163432309
 30
0.0
 40
60.0
  1
水抜き孔
 41
0.8
100
AcDbText
  0
LINE
  5
230A
330
18
100
AcDbEntity
  8
SUNPOU
100
AcDbLine
 10
5515.559850052011
 20
3731.35041687461
 30
0.0
 11
5785.793502749996
 21
3731.35041687461
 31
0.0
  0
LEADER
  5
230B
330
18
100
AcDbEntity
  8
SUNPOU
100
AcDbLeader
  3
A3-25
 76
     2
 10
5347.91568802466
 20
4330.788304021586
 30
0.0
 10
5515.559850052011
 20
3731.35041687461
 30
0.0
1001
ACAD
1000
DSTYLE
1002
{
1070
   147
1040
0.7
1070
    77
1070
     0
1002
}
  0
TEXT
  5
230D
330
18
100
AcDbEntity
  8
SUNPOU
100
AcDbText
 10
6242.84558134226
 20
4123.308796844917
 30
0.0
 40
60.0
  1
ジョイント金具
 41
0.8
100
AcDbText
  0
LINE
  5
230E
330
18
100
AcDbEntity
  8
SUNPOU
100
AcDbLine
 10
6216.65936116262
 20
4111.138050287219
 30
0.0
 11
6654.828785172319
 21
4111.138050287219
 31
0.0
  0
LEADER
  5
230F
330
18
100
AcDbEntity
  8
SUNPOU
100
AcDbLeader
  3
A3-25
 76
     2
 10
6093.415688024658
 20
4280.788304021585
 30
0.0
 10
6216.65936116262
 20
4111.138050287219
 30
0.0
1001
ACAD
1000
DSTYLE
1002
{
1070
   147
1040
0.7
1070
    77
1070
     0
1002
}
  0
LINE
  5
2311
330
18
100
AcDbEntity
  8
1HASEN
100
AcDbLine
 10
4972.915688024659
 20
5780.788304021586
 30
0.0
 11
4972.915688024659
 21
3880.788304021586
 31
0.0
  0
LINE
  5
2312
330
18
100
AcDbEntity
  8
1HASEN
100
AcDbLine
 10
5722.915688024659
 20
5780.788304021586
 30
0.0
 11
5722.915688024659
 21
3880.788304021586
 31
0.0
  0
TEXT
  5
2593
330
18
100
AcDbEntity
  8
SUNPOU
100
AcDbText
 10
211.483200614508
 20
6223.03174706615
 30
0.0
 40
90.0
  1
側 面 図
 72
     1
 11
412.483200614508
 21
6223.03174706615
 31
0.0
100
AcDbText
  0
LWPOLYLINE
  5
2594
330
18
100
AcDbEntity
  8
SUNPOU
100
AcDbPolyline
 90
        4
 70
     1
 43
0.0
 10
185.9055044508204
 20
6336.744642202157
 10
653.1909197378118
 20
6336.744642202157
 10
653.1909197378118
 20
6193.658789684032
 10
185.9055044508204
 20
6193.658789684032
  0
DIMENSION
  5
2595
330
18
100
AcDbEntity
  8
SUNPOU
100
AcDbDimension
  2
*D42
 10
1135.791006481428
 20
5995.069925088672
 30
0.0
 11
1040.791006481428
 21
6043.819925088672
 31
0.0
 70
    32
 71
     5
 42
190.0
  3
A3-25
100
AcDbAlignedDimension
 13
945.7910064814278
 23
5780.788304021587
 33
0.0
 14
1135.791006481428
 24
5780.788304021587
 34
0.0
100
AcDbRotatedDimension
  0
DIMENSION
  5
25A2
330
18
100
AcDbEntity
  8
SUNPOU
100
AcDbDimension
  2
*D43
 10
1205.791006481428
 20
5995.069925088672
 30
0.0
 11
1170.791006481428
 21
6043.819925088672
 31
0.0
 70
    32
 71
     5
 42
70.0
  3
A3-25
100
AcDbAlignedDimension
 13
1135.791006481428
 23
5780.788304021587
 33
0.0
 14
1205.791006481428
 24
5630.788304021586
 34
0.0
100
AcDbRotatedDimension
  0
LWPOLYLINE
  5
25B7
330
18
100
AcDbEntity
  8
SUNPOU
100
AcDbPolyline
 90
        4
 70
     1
 43
0.0
 10
2455.791006481428
 20
5583.788304021586
 10
2505.791006481428
 20
5583.788304021586
 10
2505.791006481428
 20
5517.788304021586
 10
2455.791006481428
 20
5517.788304021586
  0
CIRCLE
  5
25B8
330
18
100
AcDbEntity
  8
SUNPOU
100
AcDbCircle
 10
2480.791006481428
 20
5550.788304021586
 30
0.0
 40
8.0
  0
LINE
  5
25C2
330
18
100
AcDbEntity
  8
SEIHIN
  6
DASHED2
 62
     7
100
AcDbLine
 10
2435.791006481429
 20
4390.788304021584
 30
0.0
 11
2505.791006481428
 21
4370.788304021585
 31
0.0
  0
LINE
  5
25C3
330
18
100
AcDbEntity
  8
SEIHIN
  6
DASHED2
 62
     7
100
AcDbLine
 10
2435.791006481429
 20
4270.788304021585
 30
0.0
 11
2505.791006481428
 21
4290.788304021584
 31
0.0
  0
LWPOLYLINE
  5
25C4
330
18
100
AcDbEntity
  8
SUNPOU
100
AcDbPolyline
 90
        4
 70
     1
 43
0.0
 10
2435.791006481429
 20
4313.788304021586
 10
2485.791006481429
 20
4313.788304021586
 10
2485.791006481429
 20
4247.788304021586
 10
2435.791006481429
 20
4247.788304021586
  0
CIRCLE
  5
25C5
330
18
100
AcDbEntity
  8
SUNPOU
100
AcDbCircle
 10
2460.791006481429
 20
4280.788304021586
 30
0.0
 40
8.0
  0
TEXT
  5
2662
330
18
100
AcDbEntity
  8
SUNPOU
100
AcDbText
 10
2744.801425238853
 20
5357.262058046475
 30
0.0
 40
60.0
  1
ジョイント金具
 41
0.8
100
AcDbText
  0
LINE
  5
2663
330
18
100
AcDbEntity
  8
SUNPOU
100
AcDbLine
 10
2718.615205059214
 20
5345.091311488777
 30
0.0
 11
3156.784629068912
 21
5345.091311488777
 31
0.0
  0
LEADER
  5
2666
330
18
100
AcDbEntity
  8
SUNPOU
100
AcDbLeader
  3
A3-25
 76
     2
 10
2497.306968422577
 20
5532.044015942625
 30
0.0
 10
2718.615205059214
 20
5345.091311488777
 30
0.0
1001
ACAD
1000
DSTYLE
1002
{
1070
   147
1040
0.7
1070
    77
1070
     0
1002
}
  0
TEXT
  5
2C0C
330
18
100
AcDbEntity
  8
SUNPOU
100
AcDbText
 10
391.2387938505926
 20
3003.131434694336
 30
0.0
 40
90.0
  1
平面図(底版)
 72
     1
 11
706.2387938505926
 21
3003.131434694336
 31
0.0
100
AcDbText
  0
LWPOLYLINE
  5
2C0D
330
18
100
AcDbEntity
  8
SUNPOU
100
AcDbPolyline
 90
        4
 70
     1
 43
0.0
 10
366.1044645805887
 20
3116.844329830343
 10
1063.342006852923
 20
3116.844329830343
 10
1063.342006852923
 20
2973.758477312218
 10
366.1044645805887
 20
2973.758477312218
  0
LINE
  5
2C0E
330
18
100
AcDbEntity
  8
SEIHIN
  6
DASHED2
 62
     7
 48
2.0
100
AcDbLine
 10
2205.791006481429
 20
1542.398625204853
 30
0.0
 11
2205.791006481429
 21
1339.378490976665
 31
0.0
  0
DIMENSION
  5
2C0F
330
18
100
AcDbEntity
  8
SUNPOU
100
AcDbDimension
  2
*D44
 10
1001.727771667523
 20
1065.888558090762
 30
0.0
 11
952.9777716675233
 21
1815.888558090762
 31
0.0
 70
    32
 71
     5
 42
1500.0
  3
A3-25
100
AcDbAlignedDimension
 13
1505.791006481429
 23
2565.888558090762
 33
0.0
 14
1505.791006481428
 24
1065.888558090762
 34
0.0
 50
90.0
100
AcDbRotatedDimension
  0
DIMENSION
  5
2C26
330
18
100
AcDbEntity
  8
SUNPOU
100
AcDbDimension
  2
*D45
 10
3275.791006481425
 20
559.7077397403555
 30
0.0
 11
2390.791006481427
 21
608.4577397403555
 31
0.0
 70
    32
 71
     5
 42
1769.999999999998
  3
A3-25
100
AcDbAlignedDimension
 13
1505.791006481428
 23
1065.888558090762
 33
0.0
 14
3275.791006481425
 24
1106.242548138702
 34
0.0
100
AcDbRotatedDimension
  0
LINE
  5
2CD7
330
18
100
AcDbEntity
  8
SEIHIN
100
AcDbLine
 10
3275.791006481428
 20
2525.534568042821
 30
0.0
 11
2505.79100648143
 21
2565.888558090762
 31
0.0
  0
LINE
  5
2CD8
330
18
100
AcDbEntity
  8
SEIHIN
100
AcDbLine
 10
2505.79100648143
 20
2565.888558090762
 30
0.0
 11
1505.791006481429
 21
2565.888558090762
 31
0.0
  0
LINE
  5
2CD9
330
18
100
AcDbEntity
  8
SEIHIN
100
AcDbLine
 10
1505.791006481429
 20
2565.888558090762
 30
0.0
 11
1505.791006481428
 21
1065.888558090762
 31
0.0
  0
LINE
  5
2CDA
330
18
100
AcDbEntity
  8
SEIHIN
100
AcDbLine
 10
1505.791006481428
 20
1065.888558090762
 30
0.0
 11
2505.791006481428
 21
1065.888558090761
 31
0.0
  0
LINE
  5
2CDB
330
18
100
AcDbEntity
  8
SEIHIN
100
AcDbLine
 10
2505.791006481428
 20
1065.888558090761
 30
0.0
 11
3275.791006481425
 21
1106.242548138702
 31
0.0
  0
LINE
  5
2CDC
330
18
100
AcDbEntity
  8
SEIHIN
100
AcDbLine
 10
3275.791006481426
 20
1106.242548138702
 30
0.0
 11
3275.791006481429
 21
2525.534568042821
 31
0.0
  0
DIMENSION
  5
2CDD
330
18
100
AcDbEntity
  8
SUNPOU
100
AcDbDimension
  2
*D46
 10
3609.28212944093
 20
2525.534568042821
 30
0.0
 11
3560.53212944093
 21
1815.888558090762
 31
0.0
 70
    32
 71
     5
 42
1419.292019904119
  3
A3-25
100
AcDbAlignedDimension
 13
3275.791006481425
 23
1106.242548138702
 33
0.0
 14
3275.791006481428
 24
2525.534568042821
 34
0.0
 50
90.0
100
AcDbRotatedDimension
  0
LINE
  5
2D28
330
18
100
AcDbEntity
  8
SUNPOU
100
AcDbLine
 10
2631.668593922208
 20
2565.888558090762
 30
0.0
 11
2779.423388778989
 21
2565.888558090762
 31
0.0
  0
ARC
  5
2D3D
330
18
100
AcDbEntity
  8
SUNPOU
100
AcDbCircle
 10
2505.791006481439
 20
2565.888558090762
 30
0.0
 40
243.7705917339474
100
AcDbArc
 50
0.0
 51
15.01603005968195
  0
SOLID
  5
2D3E
330
18
100
AcDbEntity
  8
SUNPOU
100
AcDbTrace
 10
2754.918759984092
 20
2598.394923352312
 30
0.0
 11
2739.9308013573
 21
2597.794010545358
 31
0.0
 12
2749.227519091559
 22
2553.130591068458
 32
0.0
 13
2749.227519091559
 23
2553.130591068458
 33
0.0
  0
SOLID
  5
2D3F
330
18
100
AcDbEntity
  8
SUNPOU
100
AcDbTrace
 10
2737.940118542276
 20
2521.77290089054
 30
0.0
 11
2752.8760873463
 21
2520.388402466841
 31
0.0
 12
2749.561598215387
 22
2565.888558090763
 32
0.0
 13
2749.561598215387
 23
2565.888558090763
 33
0.0
  0
ARC
  5
2D41
330
18
100
AcDbEntity
  8
SUNPOU
100
AcDbCircle
 10
2505.791006481439
 20
2565.888558090762
 30
0.0
 40
243.7705917339474
100
AcDbArc
 50
342.924161772585
 51
356.9999999999993
  0
TEXT
  5
2D42
330
18
100
AcDbEntity
  8
SUNPOU
100
AcDbText
 10
2729.263823908746
 20
2582.793461175334
 30
0.0
 40
62.5
  1
3°
 50
90.0
 41
0.8
100
AcDbText
  0
LINE
  5
2D44
330
18
100
AcDbEntity
  8
SUNPOU
100
AcDbLine
 10
2631.668593922208
 20
1065.88855809076
 30
0.0
 11
2779.423388778989
 21
1065.88855809076
 31
0.0
  0
ARC
  5
2D45
330
18
100
AcDbEntity
  8
SUNPOU
100
AcDbCircle
 10
2505.791006481439
 20
1065.88855809076
 30
0.0
 40
243.7705917339474
100
AcDbArc
 50
344.9839699402978
 51
0.0
  0
ARC
  5
2D46
330
18
100
AcDbEntity
  8
SUNPOU
100
AcDbCircle
 10
2505.791006481439
 20
1065.88855809076
 30
0.0
 40
243.7705917339474
100
AcDbArc
 50
3.0000000000056
 51
17.0758382274338
  0
SOLID
  5
2D47
330
18
100
AcDbEntity
  8
SUNPOU
100
AcDbTrace
 10
2754.918759984092
 20
1033.38219282921
 30
0.0
 11
2739.9308013573
 21
1033.983105636164
 31
0.0
 12
2749.227519091559
 22
1078.646525113064
 32
0.0
 13
2749.227519091559
 23
1078.646525113064
 33
0.0
  0
SOLID
  5
2D48
330
18
100
AcDbEntity
  8
SUNPOU
100
AcDbTrace
 10
2737.940118542276
 20
1110.004215290981
 30
0.0
 11
2752.8760873463
 21
1111.388713714681
 31
0.0
 12
2749.561598215387
 22
1065.888558090759
 32
0.0
 13
2749.561598215387
 23
1065.888558090759
 33
0.0
  0
TEXT
  5
2D49
330
18
100
AcDbEntity
  8
SUNPOU
100
AcDbText
 10
2729.263823908746
 20
985.650321672855
 30
0.0
 40
62.5
  1
3°
 50
90.0
 41
0.8
100
AcDbText
  0
LINE
  5
2D56
330
18
100
AcDbEntity
  8
SEIHIN
 48
2.0
100
AcDbLine
 10
1770.299588786359
 20
3979.320838934647
 30
0.0
 11
2242.23926528362
 21
3994.544699466817
 31
0.0
  0
ARC
  5
2D57
330
18
100
AcDbEntity
  8
SEIHIN
 48
2.0
100
AcDbCircle
 10
2235.791006481429
 20
4194.440722334757
 30
0.0
 40
199.9999999999999
100
AcDbArc
 50
271.8476102659944
 51
0.0
  0
LINE
  5
2D58
330
18
100
AcDbEntity
  8
SEIHIN
 48
2.0
100
AcDbLine
 10
2435.791006481427
 20
4194.440722334757
 30
0.0
 11
2435.79100648143
 21
5446.789948220057
 31
0.0
  0
ARC
  5
2D59
330
18
100
AcDbEntity
  8
SEIHIN
 48
2.0
100
AcDbCircle
 10
2335.79100648143
 20
5446.789948220057
 30
0.0
 40
100.0
100
AcDbArc
 50
0.0
 51
89.42321633506978
  0
LINE
  5
2D5A
330
18
100
AcDbEntity
  8
SEIHIN
 48
2.0
100
AcDbLine
 10
2336.79766688122
 20
5546.784881265885
 30
0.0
 11
945.7910064814278
 21
5560.788304021587
 31
0.0
  0
LINE
  5
2DC8
330
18
100
AcDbEntity
  8
SEIHIN
100
AcDbLine
 10
5832.915688024659
 20
5546.784881265884
 30
0.0
 11
5832.915688024655
 21
4194.440722334757
 31
0.0
  0
LINE
  5
2DC9
330
18
100
AcDbEntity
  8
SEIHIN
100
AcDbLine
 10
5832.915688024657
 20
4194.440722334757
 30
0.0
 11
5802.415688024659
 21
3979.320838934647
 31
0.0
  0
LINE
  5
2DCA
330
18
100
AcDbEntity
  8
SEIHIN
100
AcDbLine
 10
5802.415688024659
 20
3979.320838934647
 30
0.0
 11
5643.415688024659
 21
3979.320838934647
 31
0.0
  0
LINE
  5
2DCB
330
18
100
AcDbEntity
  8
SEIHIN
100
AcDbLine
 10
5643.415688024659
 20
3979.320838934647
 30
0.0
 11
5612.915688024658
 21
4194.440722334757
 31
0.0
  0
LINE
  5
2DCC
330
18
100
AcDbEntity
  8
SEIHIN
100
AcDbLine
 10
5612.915688024658
 20
4194.440722334757
 30
0.0
 11
5612.915688024658
 21
5546.784881265885
 31
0.0
  0
LINE
  5
2DCD
330
18
100
AcDbEntity
  8
SEIHIN
100
AcDbLine
 10
4862.915688024659
 20
5546.784881265884
 30
0.0
 11
4862.915688024664
 21
4194.440722334757
 31
0.0
  0
LINE
  5
2DCE
330
18
100
AcDbEntity
  8
SEIHIN
100
AcDbLine
 10
4862.915688024661
 20
4194.440722334757
 30
0.0
 11
4893.415688024659
 21
3979.320838934647
 31
0.0
  0
LINE
  5
2DCF
330
18
100
AcDbEntity
  8
SEIHIN
100
AcDbLine
 10
4893.415688024659
 20
3979.320838934647
 30
0.0
 11
5052.415688024659
 21
3979.320838934647
 31
0.0
  0
LINE
  5
2DD0
330
18
100
AcDbEntity
  8
SEIHIN
100
AcDbLine
 10
5052.415688024659
 20
3979.320838934647
 30
0.0
 11
5082.91568802466
 21
4194.440722334757
 31
0.0
  0
LINE
  5
2DD1
330
18
100
AcDbEntity
  8
SEIHIN
100
AcDbLine
 10
5082.91568802466
 20
4194.440722334757
 30
0.0
 11
5082.91568802466
 21
5546.784881265885
 31
0.0
  0
LINE
  5
2DD3
330
18
100
AcDbEntity
  8
SEIHIN
  6
DASHED2
 62
     1
 48
2.0
100
AcDbLine
 10
5632.915688024658
 20
4429.086890387513
 30
0.0
 11
5812.915688024658
 21
4429.086890387513
 31
0.0
  0
LINE
  5
2DD4
330
18
100
AcDbEntity
  8
SEIHIN
  6
DASHED2
 62
     1
 48
2.0
100
AcDbLine
 10
5062.91568802466
 20
4429.086890387513
 30
0.0
 11
4882.91568802466
 21
4429.086890387513
 31
0.0
  0
TEXT
  5
2F26
330
18
100
AcDbEntity
  8
SUNPOU
100
AcDbText
 10
2744.801425238853
 20
4516.115705897322
 30
0.0
 40
60.0
  1
ジョイント金具
 41
0.8
100
AcDbText
  0
LINE
  5
2F27
330
18
100
AcDbEntity
  8
SUNPOU
100
AcDbLine
 10
2718.615205059214
 20
4503.944959339624
 30
0.0
 11
3156.784629068912
 21
4503.944959339624
 31
0.0
  0
LEADER
  5
2F28
330
18
100
AcDbEntity
  8
SUNPOU
100
AcDbLeader
  3
A3-25
 76
     2
 10
2469.030331062699
 20
4295.243681038733
 30
0.0
 10
2718.615205059214
 20
4503.944959339624
 30
0.0
1001
ACAD
1000
DSTYLE
1002
{
1070
   147
1040
0.7
1070
    77
1070
     0
1002
}
  0
LINE
  5
332A
330
18
100
AcDbEntity
  8
SEIHIN
100
AcDbLine
 10
3275.791006481429
 20
3880.788304021586
 30
0.0
 11
3275.791006481429
 21
3990.788304021586
 31
0.0
  0
ENDSEC
  0
SECTION
  2
OBJECTS
  0
DICTIONARY
  5
C
330
0
100
AcDbDictionary
281
     1
  3
ACAD_COLOR
350
E71
  3
ACAD_GROUP
350
D
  3
ACAD_LAYOUT
350
E74
  3
ACAD_MATERIAL
350
E70
  3
ACAD_MLEADERSTYLE
350
335F
  3
ACAD_MLINESTYLE
350
E
  3
ACAD_PLOTSETTINGS
350
E75
  3
ACAD_PLOTSTYLENAME
350
E6E
  3
ACAD_SCALELIST
350
3338
  3
ACAD_TABLESTYLE
350
E72
  3
ACDB_RECOMPOSE_DATA
350
335E
  3
ACDBVARIABLEDICTIONARY
350
DEA
  0
DICTIONARY
  5
FC7
330
2
100
AcDbDictionary
280
     1
281
     1
  3
ACAD_LAYERFILTERS
360
FD4
  3
ACLYDICTIONARY
360
FD3
  0
DICTIONARY
  5
FC1
330
18
100
AcDbDictionary
280
     1
281
     1
  3
ACAD_SORTENTS
360
FC2
  0
DICTIONARY
  5
E71
102
{ACAD_REACTORS
330
C
102
}
330
C
100
AcDbDictionary
281
     1
  0
DICTIONARY
  5
D
102
{ACAD_REACTORS
330
C
102
}
330
C
100
AcDbDictionary
281
     1
  0
DICTIONARY
  5
E74
102
{ACAD_REACTORS
330
C
102
}
330
C
100
AcDbDictionary
281
     1
  3
Model
350
E76
  3
レイアウト1
350
E77
  0
DICTIONARY
  5
E70
102
{ACAD_REACTORS
330
C
102
}
330
C
100
AcDbDictionary
281
     1
  0
DICTIONARY
  5
335F
102
{ACAD_REACTORS
330
C
102
}
330
C
100
AcDbDictionary
281
     1
  0
DICTIONARY
  5
E
102
{ACAD_REACTORS
330
C
102
}
330
C
100
AcDbDictionary
281
     1
  3
STANDARD
350
1B
  0
DICTIONARY
  5
E75
102
{ACAD_REACTORS
330
C
102
}
330
C
100
AcDbDictionary
281
     1
  0
ACDBDICTIONARYWDFLT
  5
E6E
102
{ACAD_REACTORS
330
C
102
}
330
C
100
AcDbDictionary
281
     1
  3
Normal
350
E6F
100
AcDbDictionaryWithDefault
340
E6F
  0
DICTIONARY
  5
3338
102
{ACAD_REACTORS
330
C
102
}
330
C
100
AcDbDictionary
281
     1
  3
A0
350
3339
  3
A1
350
333A
  3
A2
350
333B
  3
A3
350
333C
  3
A4
350
333D
  3
A5
350
333E
  3
A6
350
333F
  3
A7
350
3340
  3
A8
350
3341
  3
A9
350
3342
  3
B0
350
3343
  3
B1
350
3344
  3
B2
350
3345
  3
B3
350
3346
  3
B4
350
3347
  3
B5
350
3348
  3
B6
350
3349
  3
B7
350
334A
  3
B8
350
334B
  3
B9
350
334C
  3
C0
350
334D
  3
C1
350
334E
  3
C2
350
334F
  3
C3
350
3350
  3
C4
350
3351
  3
C5
350
3352
  3
C6
350
3353
  3
C7
350
3354
  3
C8
350
3355
  3
C9
350
3356
  3
D0
350
3357
  3
D1
350
3358
  3
D2
350
3359
  0
DICTIONARY
  5
E72
102
{ACAD_REACTORS
330
C
102
}
330
C
100
AcDbDictionary
281
     1
  3
Standard
350
E73
  0
XRECORD
  5
335E
102
{ACAD_REACTORS
330
C
102
}
330
C
100
AcDbXrecord
280
     1
 90
        1
330
E73
  0
DICTIONARY
  5
DEA
102
{ACAD_REACTORS
330
C
102
}
330
C
100
AcDbDictionary
281
     1
  3
CANNOSCALE
350
335A
  3
CTABLESTYLE
350
E8D
  3
DIMASSOC
350
E99
  3
PROJECTNAME
350
E9A
  3
SORTENTS
350
DEB
  0
DICTIONARY
  5
FD4
102
{ACAD_REACTORS
330
FC7
102
}
330
FC7
100
AcDbDictionary
281
     1
  0
DICTIONARY
  5
FD3
102
{ACAD_REACTORS
330
FC7
102
}
330
FC7
100
AcDbDictionary
281
     1
1001
ACAD
1000
<All
  0
SORTENTSTABLE
  5
FC2
102
{ACAD_REACTORS
330
FC1
102
}
330
FC1
100
AcDbSortentsTable
330
18
331
0
  5
20B3
331
22F
  5
22F
331
230
  5
230
331
245
  5
26E
331
249
  5
26F
331
24D
  5
270
331
24E
  5
276
331
260
  5
27D
331
276
  5
291
331
277
  5
2B9
331
27D
  5
2BB
331
27E
  5
2BC
331
27F
  5
2BD
331
280
  5
2BF
331
281
  5
2C0
331
28A
  5
2CD
331
290
  5
2CF
331
291
  5
2D3
331
2B9
  5
2D7
331
2BB
  5
2D8
331
2BC
  5
2D9
331
2BF
  5
2DD
331
2C0
  5
2E1
331
2C1
  5
2E2
331
2C2
  5
2E8
331
2C9
  5
2EE
331
2CA
  5
2FD
331
2CB
  5
2FE
331
2CC
  5
2FF
331
2CD
  5
30C
331
2CE
  5
31C
331
2D9
  5
3B3
331
2DD
  5
3B4
331
2E1
  5
3B5
331
2E2
  5
3B9
331
2FD
  5
40D
331
2FE
  5
412
331
2FF
  5
41A
331
30C
  5
41B
331
30D
  5
48C
331
30F
  5
48D
331
319
  5
497
331
3B3
  5
612
331
3B4
  5
632
331
441
  5
676
331
449
  5
677
331
44C
  5
678
331
44D
  5
681
331
451
  5
682
331
46A
  5
90C
331
48B
  5
922
331
48C
  5
1F0E
331
48F
  5
1F14
331
497
  5
1F15
331
547
  5
1F16
331
63C
  5
1F17
331
673
  5
1F1A
331
674
  5
1F1B
331
680
  5
1F1C
331
681
  5
1F1D
331
75F
  5
212C
331
9F9
  5
224F
331
ED3
  5
2251
331
ED4
  5
2252
331
FA1
  5
2253
331
FA2
  5
2254
331
1DA3
  5
2255
331
1ECE
  5
1F1E
331
1ECF
  5
1F1F
331
1ED0
  5
1F20
331
1ED1
  5
1F2D
331
1ED2
  5
1F3B
331
1ED3
  5
1FBE
331
1ED4
  5
200C
331
1ED5
  5
206D
331
1ED6
  5
20AF
331
1ED7
  5
20B0
331
1ED8
  5
20B1
331
1ED9
  5
20B2
331
1EDB
  5
20D7
331
1EDC
  5
2102
331
1EDD
  5
212B
331
1EDE
  5
2256
331
1EEB
  5
2257
331
1EF8
  5
2258
331
1F0E
  5
245
331
1F0F
  5
249
331
1F10
  5
24D
331
1F11
  5
24E
331
1F12
  5
25A
331
1F13
  5
261
331
1F14
  5
26B
331
1F15
  5
26C
331
1F16
  5
26D
331
1F17
  5
260
331
1F18
  5
2259
331
1F19
  5
225A
331
1F1A
  5
212F
331
1F1B
  5
2130
331
1F1C
  5
2131
331
1F1D
  5
2132
331
1F1E
  5
220F
331
1F1F
  5
2210
331
1F20
  5
225C
331
1F2D
  5
225D
331
1F3B
  5
225E
331
1FBE
  5
225F
331
200C
  5
2260
331
206D
  5
2261
331
20B0
  5
2250
331
20B2
  5
2262
331
20B3
  5
2263
331
20D6
  5
2264
331
20D7
  5
2265
331
212B
  5
2266
331
212C
  5
2267
331
212F
  5
2268
331
2130
  5
2269
331
2131
  5
226A
331
2132
  5
226B
331
220F
  5
226C
331
2210
  5
226D
331
2249
  5
226E
331
224A
  5
226F
331
224B
  5
2270
331
224C
  5
2271
331
224D
  5
2272
331
224E
  5
2273
331
224F
  5
2274
331
2250
  5
2276
331
2252
  5
230A
331
2253
  5
230B
331
2254
  5
230D
331
2255
  5
230E
331
2256
  5
230F
331
2257
  5
2311
331
2258
  5
2312
331
2259
  5
2593
331
225A
  5
2594
331
225B
  5
2595
331
225C
  5
25A2
331
225D
  5
25B7
331
225E
  5
693
331
225F
  5
694
331
2260
  5
6EB
331
2261
  5
6EC
331
2262
  5
6ED
331
2263
  5
71D
331
2264
  5
71E
331
2265
  5
723
331
2266
  5
727
331
2267
  5
72B
331
2268
  5
73C
331
2269
  5
73D
331
226A
  5
75C
331
226B
  5
75F
331
226C
  5
760
331
226D
  5
761
331
226E
  5
77A
331
226F
  5
77B
331
2270
  5
8B9
331
2271
  5
8CB
331
2272
  5
90B
331
2273
  5
25B8
331
2274
  5
25C2
331
2276
  5
25C3
331
22CA
  5
25C4
331
22CB
  5
25C5
331
22CC
  5
2662
331
22DA
  5
2663
331
22E7
  5
2664
331
2309
  5
2666
331
230A
  5
2C0C
331
230B
  5
2C0D
331
230D
  5
2C0E
331
230E
  5
2C0F
331
230F
  5
2C26
331
2311
  5
2CD7
331
2312
  5
2CD8
331
2593
  5
2CD9
331
2594
  5
2CDA
331
2595
  5
2CDB
331
25A2
  5
2CDC
331
25B7
  5
2CDD
331
25B8
  5
2D28
331
25C2
  5
2D3D
331
25C3
  5
2D3E
331
25C4
  5
2D3F
331
25C5
  5
2D40
331
2662
  5
2D42
331
2663
  5
2D44
331
2666
  5
2D46
331
2C0C
  5
2D47
331
2C0D
  5
2D48
331
2C0E
  5
2D49
331
2C0F
  5
2D56
331
2C26
  5
2D57
331
2CD7
  5
2249
331
2CD8
  5
224A
331
2CD9
  5
224B
331
2CDA
  5
224C
331
2CDB
  5
224D
331
2CDC
  5
224E
331
2CDD
  5
2D58
331
2D28
  5
2D59
331
2D3D
  5
2D5A
331
2D3E
  5
2DC9
331
2D3F
  5
2DCA
331
2D41
  5
2DC8
331
2D42
  5
2DCB
331
2D44
  5
2DCC
331
2D45
  5
2DCD
331
2D46
  5
2DCE
331
2D47
  5
2DCF
331
2D48
  5
2DD0
331
2D49
  5
2DD1
331
2D56
  5
49F
331
2D57
  5
4A0
331
2D58
  5
4A2
331
2D59
  5
4A4
331
2D5A
  5
547
331
2DC8
  5
2C2
331
2DC9
  5
2C9
331
2DCA
  5
2CA
331
2DCB
  5
2CB
331
2DCC
  5
2CC
331
2DCD
  5
22CB
331
2DCE
  5
22CC
331
2DCF
  5
22DA
331
2DD0
  5
22E7
331
2DD1
  5
2309
  0
LAYOUT
  5
E76
102
{ACAD_REACTORS
330
E74
102
}
330
E74
100
AcDbPlotSettings
  1

  2
DocuWorks Printer
  4
A3
  6

 40
5.408083438873291
 41
5.408078670501709
 42
5.4080810546875
 43
5.4080810546875
 44
297.0106506347656
 45
419.9889831542969
 46
4.443668456116654
 47
1.160025919187461
 48
-450.9229464286618
 49
-184.3801655815987
140
9720.396343339657
141
6748.29856514269
142
1.0
143
25.0
 70
 11940
 72
     1
 73
     1
 74
     4
  7
monochrome.ctb
 75
     0
 76
     0
 77
     2
 78
   300
147
0.0397942044402335
148
450.9229464286618
149
184.3801655815987
100
AcDbLayout
  1
Model
 70
     1
 71
     0
 10
0.0
 20
0.0
 11
12.0
 21
9.0
 12
0.0
 22
0.0
 32
0.0
 14
0.0
 24
0.0
 34
0.0
 15
0.0
 25
0.0
 35
0.0
146
0.0
 13
0.0
 23
0.0
 33
0.0
 16
1.0
 26
0.0
 36
0.0
 17
0.0
 27
1.0
 37
0.0
 76
     0
330
18
331
3332
1001
ACAD_PSEXT
1000
DocuWorks Printer
1000
DocuWorks Printer Driver
1000
DocuWorks Port
1000

1070
     0
  0
LAYOUT
  5
E77
102
{ACAD_REACTORS
330
E74
102
}
330
E74
100
AcDbPlotSettings
  1

  2
RICOH IPSiO NX850 RPCS
  4

  6

 40
0.0
 41
0.0
 42
0.0
 43
0.0
 44
0.0
 45
0.0
 46
0.0
 47
0.0
 48
0.0
 49
0.0
140
0.0
141
0.0
142
1.0
143
1.0
 70
   688
 72
     0
 73
     0
 74
     5
  7
monochrome.ctb
 75
    16
 76
     0
 77
     2
 78
   300
147
1.0
148
0.0
149
0.0
100
AcDbLayout
  1
レイアウト1
 70
     0
 71
     1
 10
0.0
 20
0.0
 11
12.0
 21
9.0
 12
0.0
 22
0.0
 32
0.0
 14
1.000000000000000E+20
 24
1.000000000000000E+20
 34
1.000000000000000E+20
 15
-1.000000000000000E+20
 25
-1.000000000000000E+20
 35
-1.000000000000000E+20
146
0.0
 13
0.0
 23
0.0
 33
0.0
 16
1.0
 26
0.0
 36
0.0
 17
0.0
 27
1.0
 37
0.0
 76
     0
330
15
  0
MLINESTYLE
  5
1B
102
{ACAD_REACTORS
330
E
102
}
330
E
100
AcDbMlineStyle
  2
STANDARD
 70
     0
  3

 62
     0
 51
90.0
 52
90.0
 71
     2
 49
0.5
 62
   256
  6
BYLAYER
 49
-0.5
 62
   256
  6
BYLAYER
  0
ACDBPLACEHOLDER
  5
E6F
102
{ACAD_REACTORS
330
E6E
102
}
330
E6E
  0
SCALE
  5
3339
102
{ACAD_REACTORS
330
3338
102
}
330
3338
100
AcDbScale
 70
     0
300
1:1
140
1.0
141
1.0
290
     1
  0
SCALE
  5
333A
102
{ACAD_REACTORS
330
3338
102
}
330
3338
100
AcDbScale
 70
     0
300
1:2
140
1.0
141
2.0
290
     0
  0
SCALE
  5
333B
102
{ACAD_REACTORS
330
3338
102
}
330
3338
100
AcDbScale
 70
     0
300
1:4
140
1.0
141
4.0
290
     0
  0
SCALE
  5
333C
102
{ACAD_REACTORS
330
3338
102
}
330
3338
100
AcDbScale
 70
     0
300
1:5
140
1.0
141
5.0
290
     0
  0
SCALE
  5
333D
102
{ACAD_REACTORS
330
3338
102
}
330
3338
100
AcDbScale
 70
     0
300
1:8
140
1.0
141
8.0
290
     0
  0
SCALE
  5
333E
102
{ACAD_REACTORS
330
3338
102
}
330
3338
100
AcDbScale
 70
     0
300
1:10
140
1.0
141
10.0
290
     0
  0
SCALE
  5
333F
102
{ACAD_REACTORS
330
3338
102
}
330
3338
100
AcDbScale
 70
     0
300
1:16
140
1.0
141
16.0
290
     0
  0
SCALE
  5
3340
102
{ACAD_REACTORS
330
3338
102
}
330
3338
100
AcDbScale
 70
     0
300
1:20
140
1.0
141
20.0
290
     0
  0
SCALE
  5
3341
102
{ACAD_REACTORS
330
3338
102
}
330
3338
100
AcDbScale
 70
     0
300
1:30
140
1.0
141
30.0
290
     0
  0
SCALE
  5
3342
102
{ACAD_REACTORS
330
3338
102
}
330
3338
100
AcDbScale
 70
     0
300
1:40
140
1.0
141
40.0
290
     0
  0
SCALE
  5
3343
102
{ACAD_REACTORS
330
3338
102
}
330
3338
100
AcDbScale
 70
     0
300
1:50
140
1.0
141
50.0
290
     0
  0
SCALE
  5
3344
102
{ACAD_REACTORS
330
3338
102
}
330
3338
100
AcDbScale
 70
     0
300
1:100
140
1.0
141
100.0
290
     0
  0
SCALE
  5
3345
102
{ACAD_REACTORS
330
3338
102
}
330
3338
100
AcDbScale
 70
     0
300
2:1
140
2.0
141
1.0
290
     0
  0
SCALE
  5
3346
102
{ACAD_REACTORS
330
3338
102
}
330
3338
100
AcDbScale
 70
     0
300
4:1
140
4.0
141
1.0
290
     0
  0
SCALE
  5
3347
102
{ACAD_REACTORS
330
3338
102
}
330
3338
100
AcDbScale
 70
     0
300
8:1
140
8.0
141
1.0
290
     0
  0
SCALE
  5
3348
102
{ACAD_REACTORS
330
3338
102
}
330
3338
100
AcDbScale
 70
     0
300
10:1
140
10.0
141
1.0
290
     0
  0
SCALE
  5
3349
102
{ACAD_REACTORS
330
3338
102
}
330
3338
100
AcDbScale
 70
     0
300
100:1
140
100.0
141
1.0
290
     0
  0
SCALE
  5
334A
102
{ACAD_REACTORS
330
3338
102
}
330
3338
100
AcDbScale
 70
     0
300
1/128" = 1'-0"
140
0.0078125
141
12.0
290
     0
  0
SCALE
  5
334B
102
{ACAD_REACTORS
330
3338
102
}
330
3338
100
AcDbScale
 70
     0
300
1/64" = 1'-0"
140
0.015625
141
12.0
290
     0
  0
SCALE
  5
334C
102
{ACAD_REACTORS
330
3338
102
}
330
3338
100
AcDbScale
 70
     0
300
1/32" = 1'-0"
140
0.03125
141
12.0
290
     0
  0
SCALE
  5
334D
102
{ACAD_REACTORS
330
3338
102
}
330
3338
100
AcDbScale
 70
     0
300
1/16" = 1'-0"
140
0.0625
141
12.0
290
     0
  0
SCALE
  5
334E
102
{ACAD_REACTORS
330
3338
102
}
330
3338
100
AcDbScale
 70
     0
300
3/32" = 1'-0"
140
0.09375
141
12.0
290
     0
  0
SCALE
  5
334F
102
{ACAD_REACTORS
330
3338
102
}
330
3338
100
AcDbScale
 70
     0
300
1/8" = 1'-0"
140
0.125
141
12.0
290
     0
  0
SCALE
  5
3350
102
{ACAD_REACTORS
330
3338
102
}
330
3338
100
AcDbScale
 70
     0
300
3/16" = 1'-0"
140
0.1875
141
12.0
290
     0
  0
SCALE
  5
3351
102
{ACAD_REACTORS
330
3338
102
}
330
3338
100
AcDbScale
 70
     0
300
1/4" = 1'-0"
140
0.25
141
12.0
290
     0
  0
SCALE
  5
3352
102
{ACAD_REACTORS
330
3338
102
}
330
3338
100
AcDbScale
 70
     0
300
3/8" = 1'-0"
140
0.375
141
12.0
290
     0
  0
SCALE
  5
3353
102
{ACAD_REACTORS
330
3338
102
}
330
3338
100
AcDbScale
 70
     0
300
1/2" = 1'-0"
140
0.5
141
12.0
290
     0
  0
SCALE
  5
3354
102
{ACAD_REACTORS
330
3338
102
}
330
3338
100
AcDbScale
 70
     0
300
3/4" = 1'-0"
140
0.75
141
12.0
290
     0
  0
SCALE
  5
3355
102
{ACAD_REACTORS
330
3338
102
}
330
3338
100
AcDbScale
 70
     0
300
1" = 1'-0"
140
1.0
141
12.0
290
     0
  0
SCALE
  5
3356
102
{ACAD_REACTORS
330
3338
102
}
330
3338
100
AcDbScale
 70
     0
300
1-1/2" = 1'-0"
140
1.5
141
12.0
290
     0
  0
SCALE
  5
3357
102
{ACAD_REACTORS
330
3338
102
}
330
3338
100
AcDbScale
 70
     0
300
3" = 1'-0"
140
3.0
141
12.0
290
     0
  0
SCALE
  5
3358
102
{ACAD_REACTORS
330
3338
102
}
330
3338
100
AcDbScale
 70
     0
300
6" = 1'-0"
140
6.0
141
12.0
290
     0
  0
SCALE
  5
3359
102
{ACAD_REACTORS
330
3338
102
}
330
3338
100
AcDbScale
 70
     0
300
1'-0" = 1'-0"
140
12.0
141
12.0
290
     0
  0
TABLESTYLE
  5
E73
102
{ACAD_REACTORS
330
E72
102
}
102
{ACAD_XDICTIONARY
360
335B
102
}
330
E72
100
AcDbTableStyle
  3
Standard
 70
     0
 71
     0
 40
0.06
 41
0.06
280
     0
281
     0
  7
STANDARD
140
0.18
170
     2
 62
     0
 63
   257
283
     0
274
    -2
284
     1
 64
     0
275
    -2
285
     1
 65
     0
276
    -2
286
     1
 66
     0
277
    -2
287
     1
 67
     0
278
    -2
288
     1
 68
     0
279
    -2
289
     1
 69
     0
  7
STANDARD
140
0.25
170
     5
 62
     0
 63
   257
283
     0
274
    -2
284
     1
 64
     0
275
    -2
285
     1
 65
     0
276
    -2
286
     1
 66
     0
277
    -2
287
     1
 67
     0
278
    -2
288
     1
 68
     0
279
    -2
289
     1
 69
     0
  7
STANDARD
140
0.18
170
     5
 62
     0
 63
   257
283
     0
274
    -2
284
     1
 64
     0
275
    -2
285
     1
 65
     0
276
    -2
286
     1
 66
     0
277
    -2
287
     1
 67
     0
278
    -2
288
     1
 68
     0
279
    -2
289
     1
 69
     0
  0
DICTIONARYVAR
  5
335A
102
{ACAD_REACTORS
330
DEA
102
}
330
DEA
100
DictionaryVariables
280
     0
  1
1:1
  0
DICTIONARYVAR
  5
E8D
102
{ACAD_REACTORS
330
DEA
102
}
330
DEA
100
DictionaryVariables
280
     0
  1
Standard
  0
DICTIONARYVAR
  5
E99
102
{ACAD_REACTORS
330
DEA
102
}
330
DEA
100
DictionaryVariables
280
     0
  1
1
  0
DICTIONARYVAR
  5
E9A
102
{ACAD_REACTORS
330
DEA
102
}
330
DEA
100
DictionaryVariables
280
     0
  1

  0
DICTIONARYVAR
  5
DEB
102
{ACAD_REACTORS
330
DEA
102
}
330
DEA
100
DictionaryVariables
280
     0
  1
96
  0
DICTIONARY
  5
335B
330
E73
100
AcDbDictionary
280
     1
281
     1
  3
ACAD_ROUNDTRIP_2008_TABLESTYLE_CELLSTYLEMAP
360
335D
  3
ACAD_XREC_ROUNDTRIP
360
335C
  0
CELLSTYLEMAP
  5
335D
102
{ACAD_REACTORS
330
335B
102
}
330
335B
100
AcDbCellStyleMap
 90
        3
300
CELLSTYLE
  1
TABLEFORMAT_BEGIN
 90
        5
170
     1
 91
        0
 92
    32768
 62
   257
 93
        1
300
CONTENTFORMAT
  1
CONTENTFORMAT_BEGIN
 90
        0
 91
        0
 92
        4
 93
        0
300

 40
0.0
140
1.0
 94
        5
 62
     0
340
10
144
0.25
309
CONTENTFORMAT_END
171
     1
301
MARGIN
  1
CELLMARGIN_BEGIN
 40
0.06
 40
0.06
 40
0.06
 40
0.06
 40
0.06
 40
0.06
309
CELLMARGIN_END
 94
        6
 95
        1
302
GRIDFORMAT
  1
GRIDFORMAT_BEGIN
 90
        0
 91
        1
 62
     0
 92
       -2
340
0
 93
        0
 40
0.045
309
GRIDFORMAT_END
 95
        2
302
GRIDFORMAT
  1
GRIDFORMAT_BEGIN
 90
        0
 91
        1
 62
     0
 92
       -2
340
0
 93
        0
 40
0.045
309
GRIDFORMAT_END
 95
        4
302
GRIDFORMAT
  1
GRIDFORMAT_BEGIN
 90
        0
 91
        1
 62
     0
 92
       -2
340
0
 93
        0
 40
0.045
309
GRIDFORMAT_END
 95
        8
302
GRIDFORMAT
  1
GRIDFORMAT_BEGIN
 90
        0
 91
        1
 62
     0
 92
       -2
340
0
 93
        0
 40
0.045
309
GRIDFORMAT_END
 95
       16
302
GRIDFORMAT
  1
GRIDFORMAT_BEGIN
 90
        0
 91
        1
 62
     0
 92
       -2
340
0
 93
        0
 40
0.045
309
GRIDFORMAT_END
 95
       32
302
GRIDFORMAT
  1
GRIDFORMAT_BEGIN
 90
        0
 91
        1
 62
     0
 92
       -2
340
0
 93
        0
 40
0.045
309
GRIDFORMAT_END
309
TABLEFORMAT_END
  1
CELLSTYLE_BEGIN
 90
        1
 91
        1
300
_TITLE
309
CELLSTYLE_END
300
CELLSTYLE
  1
TABLEFORMAT_BEGIN
 90
        5
170
     1
 91
        0
 92
        0
 62
   257
 93
        1
300
CONTENTFORMAT
  1
CONTENTFORMAT_BEGIN
 90
        0
 91
        0
 92
        4
 93
        0
300

 40
0.0
140
1.0
 94
        5
 62
     0
340
10
144
0.18
309
CONTENTFORMAT_END
171
     1
301
MARGIN
  1
CELLMARGIN_BEGIN
 40
0.06
 40
0.06
 40
0.06
 40
0.06
 40
0.06
 40
0.06
309
CELLMARGIN_END
 94
        6
 95
        1
302
GRIDFORMAT
  1
GRIDFORMAT_BEGIN
 90
        0
 91
        1
 62
     0
 92
       -2
340
0
 93
        0
 40
0.045
309
GRIDFORMAT_END
 95
        2
302
GRIDFORMAT
  1
GRIDFORMAT_BEGIN
 90
        0
 91
        1
 62
     0
 92
       -2
340
0
 93
        0
 40
0.045
309
GRIDFORMAT_END
 95
        4
302
GRIDFORMAT
  1
GRIDFORMAT_BEGIN
 90
        0
 91
        1
 62
     0
 92
       -2
340
0
 93
        0
 40
0.045
309
GRIDFORMAT_END
 95
        8
302
GRIDFORMAT
  1
GRIDFORMAT_BEGIN
 90
        0
 91
        1
 62
     0
 92
       -2
340
0
 93
        0
 40
0.045
309
GRIDFORMAT_END
 95
       16
302
GRIDFORMAT
  1
GRIDFORMAT_BEGIN
 90
        0
 91
        1
 62
     0
 92
       -2
340
0
 93
        0
 40
0.045
309
GRIDFORMAT_END
 95
       32
302
GRIDFORMAT
  1
GRIDFORMAT_BEGIN
 90
        0
 91
        1
 62
     0
 92
       -2
340
0
 93
        0
 40
0.045
309
GRIDFORMAT_END
309
TABLEFORMAT_END
  1
CELLSTYLE_BEGIN
 90
        2
 91
        1
300
_HEADER
309
CELLSTYLE_END
300
CELLSTYLE
  1
TABLEFORMAT_BEGIN
 90
        5
170
     1
 91
        0
 92
        0
 62
   257
 93
        1
300
CONTENTFORMAT
  1
CONTENTFORMAT_BEGIN
 90
        0
 91
        0
 92
        4
 93
        0
300

 40
0.0
140
1.0
 94
        2
 62
     0
340
10
144
0.18
309
CONTENTFORMAT_END
171
     1
301
MARGIN
  1
CELLMARGIN_BEGIN
 40
0.06
 40
0.06
 40
0.06
 40
0.06
 40
0.06
 40
0.06
309
CELLMARGIN_END
 94
        6
 95
        1
302
GRIDFORMAT
  1
GRIDFORMAT_BEGIN
 90
        0
 91
        1
 62
     0
 92
       -2
340
0
 93
        0
 40
0.045
309
GRIDFORMAT_END
 95
        2
302
GRIDFORMAT
  1
GRIDFORMAT_BEGIN
 90
        0
 91
        1
 62
     0
 92
       -2
340
0
 93
        0
 40
0.045
309
GRIDFORMAT_END
 95
        4
302
GRIDFORMAT
  1
GRIDFORMAT_BEGIN
 90
        0
 91
        1
 62
     0
 92
       -2
340
0
 93
        0
 40
0.045
309
GRIDFORMAT_END
 95
        8
302
GRIDFORMAT
  1
GRIDFORMAT_BEGIN
 90
        0
 91
        1
 62
     0
 92
       -2
340
0
 93
        0
 40
0.045
309
GRIDFORMAT_END
 95
       16
302
GRIDFORMAT
  1
GRIDFORMAT_BEGIN
 90
        0
 91
        1
 62
     0
 92
       -2
340
0
 93
        0
 40
0.045
309
GRIDFORMAT_END
 95
       32
302
GRIDFORMAT
  1
GRIDFORMAT_BEGIN
 90
        0
 91
        1
 62
     0
 92
       -2
340
0
 93
        0
 40
0.045
309
GRIDFORMAT_END
309
TABLEFORMAT_END
  1
CELLSTYLE_BEGIN
 90
        3
 91
        2
300
_DATA
309
CELLSTYLE_END
  0
XRECORD
  5
335C
102
{ACAD_REACTORS
330
335B
102
}
330
335B
100
AcDbXrecord
280
     1
102
ACAD_ROUNDTRIP_PRE2007_TABLESTYLE
 90
        4
 91
        0
  1

 92
        4
 93
        0
  2

 94
        4
 95
        0
  3

  0
ENDSEC
  0
EOF
