  0
SECTION
  2
HEADER
  9
$ACADVER
  1
AC1015
  9
$ACADMAINTVER
 70
     6
  9
$DWGCODEPAGE
  3
ANSI_932
  9
$INSBASE
 10
0.0
 20
0.0
 30
0.0
  9
$EXTMIN
 10
47594.13034564906
 20
-4602.425691063823
 30
0.0
  9
$EXTMAX
 10
63194.13034564905
 20
6397.574308936175
 30
0.0
  9
$LIMMIN
 10
350.0
 20
150.0
  9
$LIMMAX
 10
12600.0
 20
8910.0
  9
$ORTHOMODE
 70
     1
  9
$REGENMODE
 70
     1
  9
$FILLMODE
 70
     1
  9
$QTEXTMODE
 70
     0
  9
$MIRRTEXT
 70
     1
  9
$LTSCALE
 40
300.0
  9
$ATTMODE
 70
     1
  9
$TEXTSIZE
 40
75.0
  9
$TRACEWID
 40
0.05
  9
$TEXTSTYLE
  7
STANDARD
  9
$CLAYER
  8
0
  9
$CELTYPE
  6
BYLAYER
  9
$CECOLOR
 62
   256
  9
$CELTSCALE
 40
1.0
  9
$DISPSILH
 70
     0
  9
$DIMSCALE
 40
40.0
  9
$DIMASZ
 40
2.0
  9
$DIMEXO
 40
1.5
  9
$DIMDLI
 40
7.0
  9
$DIMRND
 40
0.0
  9
$DIMDLE
 40
0.0
  9
$DIMEXE
 40
0.6
  9
$DIMTP
 40
0.0
  9
$DIMTM
 40
0.0
  9
$DIMTXT
 40
3.0
  9
$DIMCEN
 40
0.0
  9
$DIMTSZ
 40
0.0
  9
$DIMTOL
 70
     0
  9
$DIMLIM
 70
     0
  9
$DIMTIH
 70
     0
  9
$DIMTOH
 70
     0
  9
$DIMSE1
 70
     0
  9
$DIMSE2
 70
     0
  9
$DIMTAD
 70
     1
  9
$DIMZIN
 70
     0
  9
$DIMBLK
  1

  9
$DIMASO
 70
     1
  9
$DIMSHO
 70
     1
  9
$DIMPOST
  1

  9
$DIMAPOST
  1

  9
$DIMALT
 70
     0
  9
$DIMALTD
 70
     2
  9
$DIMALTF
 40
0.03937
  9
$DIMLFAC
 40
1.0
  9
$DIMTOFL
 70
     1
  9
$DIMTVP
 40
0.0
  9
$DIMTIX
 70
     1
  9
$DIMSOXD
 70
     0
  9
$DIMSAH
 70
     0
  9
$DIMBLK1
  1

  9
$DIMBLK2
  1

  9
$DIMSTYLE
  2
1-40
  9
$DIMCLRD
 70
   256
  9
$DIMCLRE
 70
   256
  9
$DIMCLRT
 70
   256
  9
$DIMTFAC
 40
1.0
  9
$DIMGAP
 40
0.8
  9
$DIMJUST
 70
     0
  9
$DIMSD1
 70
     0
  9
$DIMSD2
 70
     0
  9
$DIMTOLJ
 70
     1
  9
$DIMTZIN
 70
     0
  9
$DIMALTZ
 70
     0
  9
$DIMALTTZ
 70
     0
  9
$DIMUPT
 70
     0
  9
$DIMDEC
 70
     0
  9
$DIMTDEC
 70
     0
  9
$DIMALTU
 70
     2
  9
$DIMALTTD
 70
     2
  9
$DIMTXSTY
  7
STANDARD
  9
$DIMAUNIT
 70
     1
  9
$DIMADEC
 70
     0
  9
$DIMALTRND
 40
0.0
  9
$DIMAZIN
 70
     0
  9
$DIMDSEP
 70
    44
  9
$DIMATFIT
 70
     3
  9
$DIMFRAC
 70
     0
  9
$DIMLDRBLK
  1

  9
$DIMLUNIT
 70
     2
  9
$DIMLWD
 70
    -2
  9
$DIMLWE
 70
    -2
  9
$DIMTMOVE
 70
     0
  9
$LUNITS
 70
     2
  9
$LUPREC
 70
     4
  9
$SKETCHINC
 40
0.1
  9
$FILLETRAD
 40
95.0
  9
$AUNITS
 70
     1
  9
$AUPREC
 70
     4
  9
$MENU
  1
acad
  9
$ELEVATION
 40
0.0
  9
$PELEVATION
 40
0.0
  9
$THICKNESS
 40
0.0
  9
$LIMCHECK
 70
     0
  9
$CHAMFERA
 40
0.0
  9
$CHAMFERB
 40
0.0
  9
$CHAMFERC
 40
0.0
  9
$CHAMFERD
 40
0.0
  9
$SKPOLY
 70
     0
  9
$TDCREATE
 40
2450014.659421296
  9
$TDUCREATE
 40
2450014.284421296
  9
$TDUPDATE
 40
2455019.644962743
  9
$TDUUPDATE
 40
2455019.269962743
  9
$TDINDWG
 40
1.2406871875
  9
$TDUSRTIMER
 40
1.2406871875
  9
$USRTIMER
 70
     1
  9
$ANGBASE
 50
0.0
  9
$ANGDIR
 70
     0
  9
$PDMODE
 70
     0
  9
$PDSIZE
 40
0.0
  9
$PLINEWID
 40
0.0
  9
$SPLFRAME
 70
     0
  9
$SPLINETYPE
 70
     6
  9
$SPLINESEGS
 70
     8
  9
$HANDSEED
  5
11C2E
  9
$SURFTAB1
 70
     6
  9
$SURFTAB2
 70
     6
  9
$SURFTYPE
 70
     6
  9
$SURFU
 70
     6
  9
$SURFV
 70
     6
  9
$UCSBASE
  2

  9
$UCSNAME
  2

  9
$UCSORG
 10
0.0
 20
0.0
 30
0.0
  9
$UCSXDIR
 10
1.0
 20
0.0
 30
0.0
  9
$UCSYDIR
 10
0.0
 20
1.0
 30
0.0
  9
$UCSORTHOREF
  2

  9
$UCSORTHOVIEW
 70
     0
  9
$UCSORGTOP
 10
0.0
 20
0.0
 30
0.0
  9
$UCSORGBOTTOM
 10
0.0
 20
0.0
 30
0.0
  9
$UCSORGLEFT
 10
0.0
 20
0.0
 30
0.0
  9
$UCSORGRIGHT
 10
0.0
 20
0.0
 30
0.0
  9
$UCSORGFRONT
 10
0.0
 20
0.0
 30
0.0
  9
$UCSORGBACK
 10
0.0
 20
0.0
 30
0.0
  9
$PUCSBASE
  2

  9
$PUCSNAME
  2

  9
$PUCSORG
 10
0.0
 20
0.0
 30
0.0
  9
$PUCSXDIR
 10
1.0
 20
0.0
 30
0.0
  9
$PUCSYDIR
 10
0.0
 20
1.0
 30
0.0
  9
$PUCSORTHOREF
  2

  9
$PUCSORTHOVIEW
 70
     0
  9
$PUCSORGTOP
 10
0.0
 20
0.0
 30
0.0
  9
$PUCSORGBOTTOM
 10
0.0
 20
0.0
 30
0.0
  9
$PUCSORGLEFT
 10
0.0
 20
0.0
 30
0.0
  9
$PUCSORGRIGHT
 10
0.0
 20
0.0
 30
0.0
  9
$PUCSORGFRONT
 10
0.0
 20
0.0
 30
0.0
  9
$PUCSORGBACK
 10
0.0
 20
0.0
 30
0.0
  9
$USERI1
 70
     0
  9
$USERI2
 70
     0
  9
$USERI3
 70
     0
  9
$USERI4
 70
     0
  9
$USERI5
 70
     0
  9
$USERR1
 40
0.0
  9
$USERR2
 40
0.0
  9
$USERR3
 40
0.0
  9
$USERR4
 40
0.0
  9
$USERR5
 40
0.0
  9
$WORLDVIEW
 70
     1
  9
$SHADEDGE
 70
     3
  9
$SHADEDIF
 70
    70
  9
$TILEMODE
 70
     1
  9
$MAXACTVP
 70
    48
  9
$PINSBASE
 10
0.0
 20
0.0
 30
0.0
  9
$PLIMCHECK
 70
     0
  9
$PEXTMIN
 10
1.000000000000000E+20
 20
1.000000000000000E+20
 30
1.000000000000000E+20
  9
$PEXTMAX
 10
-1.000000000000000E+20
 20
-1.000000000000000E+20
 30
-1.000000000000000E+20
  9
$PLIMMIN
 10
0.0
 20
0.0
  9
$PLIMMAX
 10
12.0
 20
9.0
  9
$UNITMODE
 70
     0
  9
$VISRETAIN
 70
     0
  9
$PLINEGEN
 70
     0
  9
$PSLTSCALE
 70
     0
  9
$TREEDEPTH
 70
  3020
  9
$CMLSTYLE
  2
STANDARD
  9
$CMLJUST
 70
     0
  9
$CMLSCALE
 40
1.0
  9
$PROXYGRAPHICS
 70
     1
  9
$MEASUREMENT
 70
     0
  9
$CELWEIGHT
370
    -1
  9
$ENDCAPS
280
     0
  9
$JOINSTYLE
280
     0
  9
$LWDISPLAY
290
     0
  9
$INSUNITS
 70
     0
  9
$HYPERLINKBASE
  1

  9
$STYLESHEET
  1
acad.ctb
  9
$XEDIT
290
     1
  9
$CEPSNTYPE
380
     0
  9
$PSTYLEMODE
290
     1
  9
$FINGERPRINTGUID
  2
{13D4EEAC-250E-11D6-9351-0080AD72C8A3}
  9
$VERSIONGUID
  2
{805E8781-ACD9-43C3-ADA9-34578D0C6A4B}
  9
$EXTNAMES
290
     1
  9
$PSVPSCALE
 40
0.0
  9
$OLESTARTUP
290
     0
  0
ENDSEC
  0
SECTION
  2
CLASSES
  0
CLASS
  1
LWPOLYLINE
  2
AcDbPolyline
  3
AutoCAD 2000
 90
        0
280
     0
281
     1
  0
CLASS
  1
ACDBDICTIONARYWDFLT
  2
AcDbDictionaryWithDefault
  3
ObjectDBX Classes
 90
        0
280
     0
281
     0
  0
CLASS
  1
ACDBPLACEHOLDER
  2
AcDbPlaceHolder
  3
ObjectDBX Classes
 90
        0
280
     0
281
     0
  0
CLASS
  1
LAYOUT
  2
AcDbLayout
  3
ObjectDBX Classes
 90
        0
280
     0
281
     0
  0
CLASS
  1
DICTIONARYVAR
  2
AcDbDictionaryVar
  3
ObjectDBX Classes
 90
        0
280
     0
281
     0
  0
CLASS
  1
DUMMY
  2
AcDbLongTransaction
  3
DUMMY
 90
        0
280
     0
281
     0
  0
CLASS
  1
LWPOLYLINE
  2
AcDbPolyline
  3
AutoCAD 2000
 90
        0
280
     0
281
     1
  0
CLASS
  1
HATCH
  2
AcDbHatch
  3
AutoCAD 2000
 90
        0
280
     0
281
     1
  0
CLASS
  1
XRECORD
  2
AcDbXrecord
  3
AutoCAD 2000
 90
        0
280
     0
281
     0
  0
CLASS
  1
DUMMY
  2
AcDbLongTransaction
  3
DUMMY
 90
        0
280
     0
281
     0
  0
CLASS
  1
LWPOLYLINE
  2
AcDbPolyline
  3
AutoCAD 2000
 90
        0
280
     0
281
     1
  0
CLASS
  1
HATCH
  2
AcDbHatch
  3
AutoCAD 2000
 90
        0
280
     0
281
     1
  0
CLASS
  1
XRECORD
  2
AcDbXrecord
  3
AutoCAD 2000
 90
        0
280
     0
281
     0
  0
CLASS
  1
DUMMY
  2
AcDbLongTransaction
  3
DUMMY
 90
        0
280
     0
281
     0
  0
CLASS
  1
LWPOLYLINE
  2
AcDbPolyline
  3
AutoCAD 2000
 90
        0
280
     0
281
     1
  0
CLASS
  1
HATCH
  2
AcDbHatch
  3
AutoCAD 2000
 90
        0
280
     0
281
     1
  0
CLASS
  1
XRECORD
  2
AcDbXrecord
  3
AutoCAD 2000
 90
        0
280
     0
281
     0
  0
CLASS
  1
DUMMY
  2
AcDbLongTransaction
  3
DUMMY
 90
        0
280
     0
281
     0
  0
CLASS
  1
LWPOLYLINE
  2
AcDbPolyline
  3
AutoCAD 2000
 90
        0
280
     0
281
     1
  0
CLASS
  1
HATCH
  2
AcDbHatch
  3
AutoCAD 2000
 90
        0
280
     0
281
     1
  0
CLASS
  1
XRECORD
  2
AcDbXrecord
  3
AutoCAD 2000
 90
        0
280
     0
281
     0
  0
CLASS
  1
DUMMY
  2
AcDbLongTransaction
  3
DUMMY
 90
        0
280
     0
281
     0
  0
CLASS
  1
LWPOLYLINE
  2
AcDbPolyline
  3
AutoCAD 2000
 90
        0
280
     0
281
     1
  0
CLASS
  1
HATCH
  2
AcDbHatch
  3
AutoCAD 2000
 90
        0
280
     0
281
     1
  0
CLASS
  1
XRECORD
  2
AcDbXrecord
  3
AutoCAD 2000
 90
        0
280
     0
281
     0
  0
CLASS
  1
DUMMY
  2
AcDbLongTransaction
  3
DUMMY
 90
        0
280
     0
281
     0
  0
CLASS
  1
LWPOLYLINE
  2
AcDbPolyline
  3
AutoCAD 2000
 90
        0
280
     0
281
     1
  0
CLASS
  1
HATCH
  2
AcDbHatch
  3
AutoCAD 2000
 90
        0
280
     0
281
     1
  0
CLASS
  1
XRECORD
  2
AcDbXrecord
  3
AutoCAD 2000
 90
        0
280
     0
281
     0
  0
CLASS
  1
DUMMY
  2
AcDbLongTransaction
  3
DUMMY
 90
        0
280
     0
281
     0
  0
CLASS
  1
LWPOLYLINE
  2
AcDbPolyline
  3
AutoCAD 2000
 90
        0
280
     0
281
     1
  0
CLASS
  1
HATCH
  2
AcDbHatch
  3
AutoCAD 2000
 90
        0
280
     0
281
     1
  0
CLASS
  1
XRECORD
  2
AcDbXrecord
  3
AutoCAD 2000
 90
        0
280
     0
281
     0
  0
CLASS
  1
DUMMY
  2
AcDbLongTransaction
  3
DUMMY
 90
        0
280
     0
281
     0
  0
CLASS
  1
LWPOLYLINE
  2
AcDbPolyline
  3
AutoCAD 2000
 90
        0
280
     0
281
     1
  0
CLASS
  1
HATCH
  2
AcDbHatch
  3
AutoCAD 2000
 90
        0
280
     0
281
     1
  0
CLASS
  1
XRECORD
  2
AcDbXrecord
  3
AutoCAD 2000
 90
        0
280
     0
281
     0
  0
CLASS
  1
DUMMY
  2
AcDbLongTransaction
  3
DUMMY
 90
        0
280
     0
281
     0
  0
CLASS
  1
LWPOLYLINE
  2
AcDbPolyline
  3
AutoCAD 2000
 90
        0
280
     0
281
     1
  0
CLASS
  1
HATCH
  2
AcDbHatch
  3
AutoCAD 2000
 90
        0
280
     0
281
     1
  0
CLASS
  1
XRECORD
  2
AcDbXrecord
  3
AutoCAD 2000
 90
        0
280
     0
281
     0
  0
CLASS
  1
DUMMY
  2
AcDbLongTransaction
  3
DUMMY
 90
        0
280
     0
281
     0
  0
CLASS
  1
LWPOLYLINE
  2
AcDbPolyline
  3
AutoCAD 2000
 90
        0
280
     0
281
     1
  0
CLASS
  1
HATCH
  2
AcDbHatch
  3
AutoCAD 2000
 90
        0
280
     0
281
     1
  0
CLASS
  1
XRECORD
  2
AcDbXrecord
  3
AutoCAD 2000
 90
        0
280
     0
281
     0
  0
CLASS
  1
DUMMY
  2
AcDbLongTransaction
  3
DUMMY
 90
        0
280
     0
281
     0
  0
CLASS
  1
LWPOLYLINE
  2
AcDbPolyline
  3
AutoCAD 2000
 90
        0
280
     0
281
     1
  0
CLASS
  1
HATCH
  2
AcDbHatch
  3
AutoCAD 2000
 90
        0
280
     0
281
     1
  0
CLASS
  1
XRECORD
  2
AcDbXrecord
  3
AutoCAD 2000
 90
        0
280
     0
281
     0
  0
CLASS
  1
TABLESTYLE
  2
AcDbTableStyle
  3
ObjectDBX Classes
 90
     4095
280
     0
281
     0
  0
ENDSEC
  0
SECTION
  2
TABLES
  0
TABLE
  2
VPORT
  5
8
330
0
100
AcDbSymbolTable
 70
     2
  0
VPORT
  5
11C23
330
8
100
AcDbSymbolTableRecord
100
AcDbViewportTableRecord
  2
*Active
 70
     0
 10
0.0
 20
0.0
 11
1.0
 21
1.0
 12
55395.48526194195
 22
881.2326343859677
 13
0.0
 23
0.0
 14
30.0
 24
30.0
 15
300.0
 25
300.0
 16
0.0
 26
0.0
 36
1.0
 17
0.0
 27
0.0
 37
0.0
 40
11857.62527061677
 41
1.507024265644955
 42
50.0
 43
0.0
 44
0.0
 50
0.0
 51
0.0
 71
     0
 72
   100
 73
     1
 74
     0
 75
     0
 76
     1
 77
     0
 78
     0
281
     0
 65
     1
110
0.0
120
0.0
130
0.0
111
1.0
121
0.0
131
0.0
112
0.0
122
1.0
132
0.0
 79
     0
146
0.0
  0
ENDTAB
  0
TABLE
  2
LTYPE
  5
5
330
0
100
AcDbSymbolTable
 70
     3
  0
LTYPE
  5
11
330
5
100
AcDbSymbolTableRecord
100
AcDbLinetypeTableRecord
  2
BYBLOCK
 70
     0
  3

 72
    65
 73
     0
 40
0.0
  0
LTYPE
  5
12
330
5
100
AcDbSymbolTableRecord
100
AcDbLinetypeTableRecord
  2
BYLAYER
 70
     0
  3

 72
    65
 73
     0
 40
0.0
  0
LTYPE
  5
13
330
5
100
AcDbSymbolTableRecord
100
AcDbLinetypeTableRecord
  2
CONTINUOUS
 70
     0
  3
Solid line
 72
    65
 73
     0
 40
0.0
  0
LTYPE
  5
1E
330
5
100
AcDbSymbolTableRecord
100
AcDbLinetypeTableRecord
  2
HIDDEN
 70
     0
  3
_ _ _ _ _ _ _ _ _ _ _ _ _ _ _ _ _ _ _ _ _ _ _
 72
    65
 73
     2
 40
0.375
 49
0.25
 74
     0
 49
-0.125
 74
     0
  0
LTYPE
  5
1F
330
5
100
AcDbSymbolTableRecord
100
AcDbLinetypeTableRecord
  2
CENTER
 70
     0
  3
____ _ ____ _ ____ _ ____ _ ____ _ ____ _ ____
 72
    65
 73
     4
 40
2.0
 49
1.25
 74
     0
 49
-0.25
 74
     0
 49
0.25
 74
     0
 49
-0.25
 74
     0
  0
ENDTAB
  0
TABLE
  2
LAYER
  5
2
102
{ACAD_XDICTIONARY
360
A2D8
102
}
330
0
100
AcDbSymbolTable
 70
     8
  0
LAYER
  5
E
330
2
100
AcDbSymbolTableRecord
100
AcDbLayerTableRecord
  2
0
 70
     0
 62
     7
  6
CONTINUOUS
370
    -3
390
12F2
  0
LAYER
  5
23
330
2
100
AcDbSymbolTableRecord
100
AcDbLayerTableRecord
  2
SUNPOU
 70
     0
 62
     1
  6
CONTINUOUS
370
    -3
390
12F2
  0
LAYER
  5
24
330
2
100
AcDbSymbolTableRecord
100
AcDbLayerTableRecord
  2
HAIKIN
 70
     0
 62
     2
  6
CONTINUOUS
370
    -3
390
12F2
  0
LAYER
  5
25
330
2
100
AcDbSymbolTableRecord
100
AcDbLayerTableRecord
  2
SEIHIN
 70
     0
 62
     3
  6
CONTINUOUS
370
    -3
390
12F2
  0
LAYER
  5
26
330
2
100
AcDbSymbolTableRecord
100
AcDbLayerTableRecord
  2
HASEN
 70
     0
 62
     4
  6
HIDDEN
370
    -3
390
12F2
  0
LAYER
  5
27
330
2
100
AcDbSymbolTableRecord
100
AcDbLayerTableRecord
  2
1HASEN
 70
     0
 62
     5
  6
CENTER
370
    -3
390
12F2
  0
LAYER
  5
11F
330
2
100
AcDbSymbolTableRecord
100
AcDbLayerTableRecord
  2
DEFPOINTS
 70
     0
 62
     7
  6
CONTINUOUS
290
     0
370
    -3
390
12F2
  0
LAYER
  5
6D27
330
2
100
AcDbSymbolTableRecord
100
AcDbLayerTableRecord
  2
PC
 70
     0
 62
     3
  6
CONTINUOUS
370
    -3
390
12F2
  0
ENDTAB
  0
TABLE
  2
STYLE
  5
3
330
0
100
AcDbSymbolTable
 70
     1
  0
STYLE
  5
F
330
3
100
AcDbSymbolTableRecord
100
AcDbTextStyleTableRecord
  2
STANDARD
 70
     0
 40
0.0
 41
0.8
 50
0.0
 71
     0
 42
75.0
  3
TXT.shx
  4
BIGFONT.shx
  0
ENDTAB
  0
TABLE
  2
VIEW
  5
6
330
0
100
AcDbSymbolTable
 70
     0
  0
ENDTAB
  0
TABLE
  2
UCS
  5
7
330
0
100
AcDbSymbolTable
 70
     0
  0
ENDTAB
  0
TABLE
  2
APPID
  5
9
330
0
100
AcDbSymbolTable
 70
     1
  0
APPID
  5
10
330
9
100
AcDbSymbolTableRecord
100
AcDbRegAppTableRecord
  2
ACAD
 70
     0
  0
ENDTAB
  0
TABLE
  2
DIMSTYLE
  5
A
330
0
100
AcDbSymbolTable
 70
     2
100
AcDbDimStyleTable
  0
DIMSTYLE
105
B8BB
102
{ACAD_REACTORS
330
10343
330
10342
330
10341
330
1031B
330
1031A
330
102A6
330
10340
330
1033E
330
1033D
330
1033F
330
10252
330
10251
330
1033B
330
1033A
330
10339
330
1033C
330
1032D
330
1032C
330
1032B
330
102C5
330
102C4
330
102C7
330
10338
330
10337
330
10336
330
10335
330
10313
330
10331
330
1032F
330
1030B
330
1030A
330
10302
330
102F6
330
10312
330
10311
330
10314
330
10317
330
1030F
330
1030E
330
102D4
330
10310
330
102CE
330
102D3
330
102F9
330
102F8
330
102E8
330
102E7
330
102F7
330
102CF
330
102EC
330
102DE
330
10301
330
102ED
330
102E9
330
10318
330
102D2
330
102D1
330
10300
330
102FF
330
102FE
330
102C6
330
102CB
330
10334
330
102CA
330
102CC
102
}
330
A
100
AcDbSymbolTableRecord
100
AcDbDimStyleTableRecord
  2
1-40
 70
     0
 40
40.0
 41
2.0
 42
1.5
 43
7.0
 44
0.6
 73
     0
 74
     0
 77
     1
140
3.0
141
0.0
143
0.03937
147
0.8
172
     1
174
     1
176
   256
177
   256
178
   256
271
     0
272
     0
275
     1
278
    44
340
F
  0
DIMSTYLE
105
11BDE
330
A
100
AcDbSymbolTableRecord
100
AcDbDimStyleTableRecord
  2
STANDARD
 70
     0
340
F
  0
ENDTAB
  0
TABLE
  2
BLOCK_RECORD
  5
1
330
0
100
AcDbSymbolTable
 70
    60
  0
BLOCK_RECORD
  5
17
330
1
100
AcDbSymbolTableRecord
100
AcDbBlockTableRecord
  2
*MODEL_SPACE
340
12F5
  0
BLOCK_RECORD
  5
14
330
1
100
AcDbSymbolTableRecord
100
AcDbBlockTableRecord
  2
*PAPER_SPACE
340
12F6
  0
BLOCK_RECORD
  5
D4A3
330
1
100
AcDbSymbolTableRecord
100
AcDbBlockTableRecord
  2
_DotSmall
340
0
102
{BLKREFS
331
1195C
331
11966
331
1198E
331
11998
331
119AD
331
119B8
331
119D7
331
119E2
331
11B8A
331
11B8B
331
11B94
331
11B95
331
11B9F
331
11BA0
331
11BAB
331
11BAC
331
11BB6
331
11BB7
331
11BC0
331
11BC1
102
}
  0
BLOCK_RECORD
  5
103C8
330
1
100
AcDbSymbolTableRecord
100
AcDbBlockTableRecord
  2
*D1
340
0
  0
BLOCK_RECORD
  5
103D4
330
1
100
AcDbSymbolTableRecord
100
AcDbBlockTableRecord
  2
*D2
340
0
  0
BLOCK_RECORD
  5
103E0
330
1
100
AcDbSymbolTableRecord
100
AcDbBlockTableRecord
  2
*D3
340
0
  0
BLOCK_RECORD
  5
103EC
330
1
100
AcDbSymbolTableRecord
100
AcDbBlockTableRecord
  2
*D4
340
0
  0
BLOCK_RECORD
  5
103F8
330
1
100
AcDbSymbolTableRecord
100
AcDbBlockTableRecord
  2
*D5
340
0
  0
BLOCK_RECORD
  5
10406
330
1
100
AcDbSymbolTableRecord
100
AcDbBlockTableRecord
  2
*D6
340
0
  0
BLOCK_RECORD
  5
10412
330
1
100
AcDbSymbolTableRecord
100
AcDbBlockTableRecord
  2
*D7
340
0
  0
BLOCK_RECORD
  5
10420
330
1
100
AcDbSymbolTableRecord
100
AcDbBlockTableRecord
  2
*D8
340
0
  0
BLOCK_RECORD
  5
1042C
330
1
100
AcDbSymbolTableRecord
100
AcDbBlockTableRecord
  2
*D9
340
0
  0
BLOCK_RECORD
  5
10438
330
1
100
AcDbSymbolTableRecord
100
AcDbBlockTableRecord
  2
*D10
340
0
  0
BLOCK_RECORD
  5
10446
330
1
100
AcDbSymbolTableRecord
100
AcDbBlockTableRecord
  2
*D11
340
0
  0
BLOCK_RECORD
  5
10454
330
1
100
AcDbSymbolTableRecord
100
AcDbBlockTableRecord
  2
*D12
340
0
  0
BLOCK_RECORD
  5
10462
330
1
100
AcDbSymbolTableRecord
100
AcDbBlockTableRecord
  2
*D13
340
0
  0
BLOCK_RECORD
  5
10470
330
1
100
AcDbSymbolTableRecord
100
AcDbBlockTableRecord
  2
*D14
340
0
  0
BLOCK_RECORD
  5
1047E
330
1
100
AcDbSymbolTableRecord
100
AcDbBlockTableRecord
  2
*D15
340
0
  0
BLOCK_RECORD
  5
1048C
330
1
100
AcDbSymbolTableRecord
100
AcDbBlockTableRecord
  2
*D16
340
0
  0
BLOCK_RECORD
  5
1049A
330
1
100
AcDbSymbolTableRecord
100
AcDbBlockTableRecord
  2
*D17
340
0
  0
BLOCK_RECORD
  5
104A8
330
1
100
AcDbSymbolTableRecord
100
AcDbBlockTableRecord
  2
*D18
340
0
  0
BLOCK_RECORD
  5
104B6
330
1
100
AcDbSymbolTableRecord
100
AcDbBlockTableRecord
  2
*D19
340
0
  0
BLOCK_RECORD
  5
104C4
330
1
100
AcDbSymbolTableRecord
100
AcDbBlockTableRecord
  2
*D20
340
0
  0
BLOCK_RECORD
  5
104D2
330
1
100
AcDbSymbolTableRecord
100
AcDbBlockTableRecord
  2
*D21
340
0
  0
BLOCK_RECORD
  5
104E0
330
1
100
AcDbSymbolTableRecord
100
AcDbBlockTableRecord
  2
*D22
340
0
  0
BLOCK_RECORD
  5
104EC
330
1
100
AcDbSymbolTableRecord
100
AcDbBlockTableRecord
  2
*D23
340
0
  0
BLOCK_RECORD
  5
104FA
330
1
100
AcDbSymbolTableRecord
100
AcDbBlockTableRecord
  2
*D24
340
0
  0
BLOCK_RECORD
  5
10508
330
1
100
AcDbSymbolTableRecord
100
AcDbBlockTableRecord
  2
*D25
340
0
  0
BLOCK_RECORD
  5
10514
330
1
100
AcDbSymbolTableRecord
100
AcDbBlockTableRecord
  2
*D26
340
0
  0
BLOCK_RECORD
  5
10522
330
1
100
AcDbSymbolTableRecord
100
AcDbBlockTableRecord
  2
*D27
340
0
  0
BLOCK_RECORD
  5
10530
330
1
100
AcDbSymbolTableRecord
100
AcDbBlockTableRecord
  2
*D28
340
0
  0
BLOCK_RECORD
  5
1053C
330
1
100
AcDbSymbolTableRecord
100
AcDbBlockTableRecord
  2
*D29
340
0
  0
BLOCK_RECORD
  5
10548
330
1
100
AcDbSymbolTableRecord
100
AcDbBlockTableRecord
  2
*D30
340
0
  0
BLOCK_RECORD
  5
10554
330
1
100
AcDbSymbolTableRecord
100
AcDbBlockTableRecord
  2
*D31
340
0
  0
BLOCK_RECORD
  5
10560
330
1
100
AcDbSymbolTableRecord
100
AcDbBlockTableRecord
  2
*D32
340
0
  0
BLOCK_RECORD
  5
1056C
330
1
100
AcDbSymbolTableRecord
100
AcDbBlockTableRecord
  2
*D33
340
0
  0
BLOCK_RECORD
  5
1057A
330
1
100
AcDbSymbolTableRecord
100
AcDbBlockTableRecord
  2
*D34
340
0
  0
BLOCK_RECORD
  5
10588
330
1
100
AcDbSymbolTableRecord
100
AcDbBlockTableRecord
  2
*D35
340
0
  0
BLOCK_RECORD
  5
10596
330
1
100
AcDbSymbolTableRecord
100
AcDbBlockTableRecord
  2
*D36
340
0
  0
BLOCK_RECORD
  5
105A2
330
1
100
AcDbSymbolTableRecord
100
AcDbBlockTableRecord
  2
*D37
340
0
  0
BLOCK_RECORD
  5
105AE
330
1
100
AcDbSymbolTableRecord
100
AcDbBlockTableRecord
  2
*D38
340
0
  0
BLOCK_RECORD
  5
105BA
330
1
100
AcDbSymbolTableRecord
100
AcDbBlockTableRecord
  2
*D39
340
0
  0
BLOCK_RECORD
  5
105C6
330
1
100
AcDbSymbolTableRecord
100
AcDbBlockTableRecord
  2
*D40
340
0
  0
BLOCK_RECORD
  5
105D4
330
1
100
AcDbSymbolTableRecord
100
AcDbBlockTableRecord
  2
*D41
340
0
  0
BLOCK_RECORD
  5
105E0
330
1
100
AcDbSymbolTableRecord
100
AcDbBlockTableRecord
  2
*D42
340
0
  0
BLOCK_RECORD
  5
105EC
330
1
100
AcDbSymbolTableRecord
100
AcDbBlockTableRecord
  2
*D43
340
0
  0
BLOCK_RECORD
  5
105F8
330
1
100
AcDbSymbolTableRecord
100
AcDbBlockTableRecord
  2
*D44
340
0
  0
BLOCK_RECORD
  5
10606
330
1
100
AcDbSymbolTableRecord
100
AcDbBlockTableRecord
  2
*D45
340
0
  0
BLOCK_RECORD
  5
10612
330
1
100
AcDbSymbolTableRecord
100
AcDbBlockTableRecord
  2
*D46
340
0
  0
BLOCK_RECORD
  5
10620
330
1
100
AcDbSymbolTableRecord
100
AcDbBlockTableRecord
  2
*D47
340
0
  0
BLOCK_RECORD
  5
1062E
330
1
100
AcDbSymbolTableRecord
100
AcDbBlockTableRecord
  2
*D48
340
0
  0
BLOCK_RECORD
  5
1063C
330
1
100
AcDbSymbolTableRecord
100
AcDbBlockTableRecord
  2
*D49
340
0
  0
BLOCK_RECORD
  5
1064A
330
1
100
AcDbSymbolTableRecord
100
AcDbBlockTableRecord
  2
*D50
340
0
  0
BLOCK_RECORD
  5
10658
330
1
100
AcDbSymbolTableRecord
100
AcDbBlockTableRecord
  2
*D51
340
0
  0
BLOCK_RECORD
  5
10666
330
1
100
AcDbSymbolTableRecord
100
AcDbBlockTableRecord
  2
*D52
340
0
  0
BLOCK_RECORD
  5
10672
330
1
100
AcDbSymbolTableRecord
100
AcDbBlockTableRecord
  2
*D53
340
0
  0
BLOCK_RECORD
  5
1067E
330
1
100
AcDbSymbolTableRecord
100
AcDbBlockTableRecord
  2
*D54
340
0
  0
BLOCK_RECORD
  5
1068C
330
1
100
AcDbSymbolTableRecord
100
AcDbBlockTableRecord
  2
*D55
340
0
  0
BLOCK_RECORD
  5
1069A
330
1
100
AcDbSymbolTableRecord
100
AcDbBlockTableRecord
  2
*D56
340
0
  0
BLOCK_RECORD
  5
106A6
330
1
100
AcDbSymbolTableRecord
100
AcDbBlockTableRecord
  2
*D57
340
0
  0
BLOCK_RECORD
  5
106B2
330
1
100
AcDbSymbolTableRecord
100
AcDbBlockTableRecord
  2
*D58
340
0
  0
BLOCK_RECORD
  5
106BE
330
1
100
AcDbSymbolTableRecord
100
AcDbBlockTableRecord
  2
*D59
340
0
  0
ENDTAB
  0
ENDSEC
  0
SECTION
  2
BLOCKS
  0
BLOCK
  5
2D
330
17
100
AcDbEntity
  8
0
100
AcDbBlockBegin
  2
*MODEL_SPACE
 70
     0
 10
0.0
 20
0.0
 30
0.0
  3
*MODEL_SPACE
  1

  0
ENDBLK
  5
2E
330
17
100
AcDbEntity
  8
0
100
AcDbBlockEnd
  0
BLOCK
  5
2B
330
14
100
AcDbEntity
 67
     1
  8
0
100
AcDbBlockBegin
  2
*PAPER_SPACE
 70
     0
 10
0.0
 20
0.0
 30
0.0
  3
*PAPER_SPACE
  1

  0
ENDBLK
  5
2C
330
14
100
AcDbEntity
 67
     1
  8
0
100
AcDbBlockEnd
  0
BLOCK
  5
D4A4
330
D4A3
100
AcDbEntity
  8
0
100
AcDbBlockBegin
  2
_DotSmall
 70
     0
 10
0.0
 20
0.0
 30
0.0
  3
_DotSmall
  1

  0
LWPOLYLINE
  5
D4A5
330
D4A3
100
AcDbEntity
  8
SUNPOU
 62
     0
100
AcDbPolyline
 90
        2
 70
     1
 43
0.5
 10
-0.0625
 20
0.0
 42
1.0
 10
0.0625
 20
0.0
 42
1.0
  0
ENDBLK
  5
D4A6
330
D4A3
100
AcDbEntity
  8
0
100
AcDbBlockEnd
  0
BLOCK
  5
103D2
330
103C8
100
AcDbEntity
  8
0
100
AcDbBlockBegin
  2
*D1
 70
     1
 10
0.0
 20
0.0
 30
0.0
  3
*D1
  1

  0
LINE
  5
11A74
330
103C8
100
AcDbEntity
  8
SUNPOU
370
    -2
100
AcDbLine
 10
53404.13034564906
 20
1470.229096359917
 30
0.0
 11
54288.13034564905
 21
1470.229096359917
 31
0.0
  0
LINE
  5
11A75
330
103C8
100
AcDbEntity
  8
SUNPOU
370
    -2
100
AcDbLine
 10
53404.13034564906
 20
-1789.770903640081
 30
0.0
 11
54288.13034564905
 21
-1789.770903640081
 31
0.0
  0
LINE
  5
11A76
330
103C8
100
AcDbEntity
  8
SUNPOU
370
    -2
100
AcDbLine
 10
54264.13034564905
 20
1390.229096359917
 30
0.0
 11
54264.13034564905
 21
-1709.770903640081
 31
0.0
  0
SOLID
  5
11A77
330
103C8
100
AcDbEntity
  8
SUNPOU
100
AcDbTrace
 10
54250.79701231571
 20
1390.229096359917
 30
0.0
 11
54277.46367898239
 21
1390.229096359917
 31
0.0
 12
54264.13034564905
 22
1470.229096359917
 32
0.0
 13
54264.13034564905
 23
1470.229096359917
 33
0.0
  0
SOLID
  5
11A78
330
103C8
100
AcDbEntity
  8
SUNPOU
100
AcDbTrace
 10
54250.79701231571
 20
-1709.770903640081
 30
0.0
 11
54277.46367898239
 21
-1709.770903640081
 31
0.0
 12
54264.13034564905
 22
-1789.770903640081
 32
0.0
 13
54264.13034564905
 23
-1789.770903640081
 33
0.0
  0
MTEXT
  5
11A79
330
103C8
100
AcDbEntity
  8
SUNPOU
100
AcDbMText
 10
54172.13034564905
 20
-159.7709036400735
 30
0.0
 40
120.0
 41
0.0
 71
     5
 72
     1
  1
\A1;3260
 11
6.123031769111886E-17
 21
1.0
 31
0.0
 73
     1
 44
1.0
  0
POINT
  5
11A7A
330
103C8
100
AcDbEntity
  8
DEFPOINTS
 62
     0
100
AcDbPoint
 10
53344.13034564906
 20
1470.229096359917
 30
0.0
  0
POINT
  5
11A7B
330
103C8
100
AcDbEntity
  8
DEFPOINTS
 62
     0
100
AcDbPoint
 10
53344.13034564906
 20
-1789.770903640081
 30
0.0
  0
POINT
  5
11A7C
330
103C8
100
AcDbEntity
  8
DEFPOINTS
 62
     0
100
AcDbPoint
 10
54264.13034564905
 20
-1789.770903640081
 30
0.0
  0
ENDBLK
  5
103D3
330
103C8
100
AcDbEntity
  8
0
100
AcDbBlockEnd
  0
BLOCK
  5
103DE
330
103D4
100
AcDbEntity
  8
0
100
AcDbBlockBegin
  2
*D2
 70
     1
 10
0.0
 20
0.0
 30
0.0
  3
*D2
  1

  0
LINE
  5
11A7D
330
103D4
100
AcDbEntity
  8
SUNPOU
370
    -2
100
AcDbLine
 10
53404.13034564906
 20
-1409.770903640083
 30
0.0
 11
54007.47436114345
 21
-1409.770903640083
 31
0.0
  0
LINE
  5
11A7E
330
103D4
100
AcDbEntity
  8
SUNPOU
370
    -2
100
AcDbLine
 10
53404.13034564906
 20
1090.229096359917
 30
0.0
 11
54007.47436114345
 21
1090.229096359917
 31
0.0
  0
LINE
  5
11A7F
330
103D4
100
AcDbEntity
  8
SUNPOU
370
    -2
100
AcDbLine
 10
53983.47436114345
 20
-1329.770903640083
 30
0.0
 11
53983.47436114345
 21
1010.229096359917
 31
0.0
  0
SOLID
  5
11A80
330
103D4
100
AcDbEntity
  8
SUNPOU
100
AcDbTrace
 10
53970.14102781012
 20
-1329.770903640083
 30
0.0
 11
53996.80769447679
 21
-1329.770903640083
 31
0.0
 12
53983.47436114345
 22
-1409.770903640083
 32
0.0
 13
53983.47436114345
 23
-1409.770903640083
 33
0.0
  0
SOLID
  5
11A81
330
103D4
100
AcDbEntity
  8
SUNPOU
100
AcDbTrace
 10
53970.14102781012
 20
1010.229096359917
 30
0.0
 11
53996.80769447679
 21
1010.229096359917
 31
0.0
 12
53983.47436114345
 22
1090.229096359917
 32
0.0
 13
53983.47436114345
 23
1090.229096359917
 33
0.0
  0
MTEXT
  5
11A82
330
103D4
100
AcDbEntity
  8
SUNPOU
100
AcDbMText
 10
53891.47436114345
 20
-159.7709036400744
 30
0.0
 40
120.0
 41
0.0
 71
     5
 72
     1
  1
\A1;2500
 11
6.123031769111886E-17
 21
1.0
 31
0.0
 73
     1
 44
1.0
  0
POINT
  5
11A83
330
103D4
100
AcDbEntity
  8
DEFPOINTS
 62
     0
100
AcDbPoint
 10
53344.13034564906
 20
-1409.770903640083
 30
0.0
  0
POINT
  5
11A84
330
103D4
100
AcDbEntity
  8
DEFPOINTS
 62
     0
100
AcDbPoint
 10
53344.13034564906
 20
1090.229096359917
 30
0.0
  0
POINT
  5
11A85
330
103D4
100
AcDbEntity
  8
DEFPOINTS
 62
     0
100
AcDbPoint
 10
53983.47436114345
 20
1090.229096359917
 30
0.0
  0
ENDBLK
  5
103DF
330
103D4
100
AcDbEntity
  8
0
100
AcDbBlockEnd
  0
BLOCK
  5
103EA
330
103E0
100
AcDbEntity
  8
0
100
AcDbBlockBegin
  2
*D3
 70
     1
 10
0.0
 20
0.0
 30
0.0
  3
*D3
  1

  0
LINE
  5
11A91
330
103E0
100
AcDbEntity
  8
SUNPOU
370
    -2
100
AcDbLine
 10
53404.13034564906
 20
1090.229096359917
 30
0.0
 11
54007.47436114345
 21
1090.229096359917
 31
0.0
  0
LINE
  5
11A92
330
103E0
100
AcDbEntity
  8
SUNPOU
370
    -2
100
AcDbLine
 10
53404.13034564906
 20
1470.229096359917
 30
0.0
 11
54007.47436114345
 21
1470.229096359917
 31
0.0
  0
LINE
  5
11A93
330
103E0
100
AcDbEntity
  8
SUNPOU
370
    -2
100
AcDbLine
 10
53983.47436114345
 20
1170.229096359917
 30
0.0
 11
53983.47436114345
 21
1390.229096359917
 31
0.0
  0
SOLID
  5
11A94
330
103E0
100
AcDbEntity
  8
SUNPOU
100
AcDbTrace
 10
53970.14102781012
 20
1170.229096359917
 30
0.0
 11
53996.80769447679
 21
1170.229096359917
 31
0.0
 12
53983.47436114345
 22
1090.229096359917
 32
0.0
 13
53983.47436114345
 23
1090.229096359917
 33
0.0
  0
SOLID
  5
11A95
330
103E0
100
AcDbEntity
  8
SUNPOU
100
AcDbTrace
 10
53970.14102781012
 20
1390.229096359917
 30
0.0
 11
53996.80769447679
 21
1390.229096359917
 31
0.0
 12
53983.47436114345
 22
1470.229096359917
 32
0.0
 13
53983.47436114345
 23
1470.229096359917
 33
0.0
  0
MTEXT
  5
11A96
330
103E0
100
AcDbEntity
  8
SUNPOU
100
AcDbMText
 10
53891.47436114345
 20
1280.229096359926
 30
0.0
 40
120.0
 41
0.0
 71
     5
 72
     1
  1
\A1;380
 11
6.123031769111886E-17
 21
1.0
 31
0.0
 73
     1
 44
1.0
  0
POINT
  5
11A97
330
103E0
100
AcDbEntity
  8
DEFPOINTS
 62
     0
100
AcDbPoint
 10
53344.13034564906
 20
1090.229096359917
 30
0.0
  0
POINT
  5
11A98
330
103E0
100
AcDbEntity
  8
DEFPOINTS
 62
     0
100
AcDbPoint
 10
53344.13034564906
 20
1470.229096359917
 30
0.0
  0
POINT
  5
11A99
330
103E0
100
AcDbEntity
  8
DEFPOINTS
 62
     0
100
AcDbPoint
 10
53983.47436114345
 20
1470.229096359917
 30
0.0
  0
ENDBLK
  5
103EB
330
103E0
100
AcDbEntity
  8
0
100
AcDbBlockEnd
  0
BLOCK
  5
103F6
330
103EC
100
AcDbEntity
  8
0
100
AcDbBlockBegin
  2
*D4
 70
     1
 10
0.0
 20
0.0
 30
0.0
  3
*D4
  1

  0
LINE
  5
11AA3
330
103EC
100
AcDbEntity
  8
SUNPOU
370
    -2
100
AcDbLine
 10
53404.13034564906
 20
-1409.770903640081
 30
0.0
 11
54007.47436114345
 21
-1409.770903640081
 31
0.0
  0
LINE
  5
11AA4
330
103EC
100
AcDbEntity
  8
SUNPOU
370
    -2
100
AcDbLine
 10
53404.13034564906
 20
-1789.770903640081
 30
0.0
 11
54007.47436114345
 21
-1789.770903640081
 31
0.0
  0
LINE
  5
11AA5
330
103EC
100
AcDbEntity
  8
SUNPOU
370
    -2
100
AcDbLine
 10
53983.47436114345
 20
-1489.770903640081
 30
0.0
 11
53983.47436114345
 21
-1709.770903640081
 31
0.0
  0
SOLID
  5
11AA6
330
103EC
100
AcDbEntity
  8
SUNPOU
100
AcDbTrace
 10
53970.14102781012
 20
-1489.770903640081
 30
0.0
 11
53996.80769447679
 21
-1489.770903640081
 31
0.0
 12
53983.47436114345
 22
-1409.770903640081
 32
0.0
 13
53983.47436114345
 23
-1409.770903640081
 33
0.0
  0
SOLID
  5
11AA7
330
103EC
100
AcDbEntity
  8
SUNPOU
100
AcDbTrace
 10
53970.14102781012
 20
-1709.770903640081
 30
0.0
 11
53996.80769447679
 21
-1709.770903640081
 31
0.0
 12
53983.47436114345
 22
-1789.770903640081
 32
0.0
 13
53983.47436114345
 23
-1789.770903640081
 33
0.0
  0
MTEXT
  5
11AA8
330
103EC
100
AcDbEntity
  8
SUNPOU
100
AcDbMText
 10
53891.47436114345
 20
-1599.770903640081
 30
0.0
 40
120.0
 41
0.0
 71
     5
 72
     1
  1
\A1;380
 11
6.123031769111886E-17
 21
1.0
 31
0.0
 73
     1
 44
1.0
  0
POINT
  5
11AA9
330
103EC
100
AcDbEntity
  8
DEFPOINTS
 62
     0
100
AcDbPoint
 10
53344.13034564906
 20
-1409.770903640081
 30
0.0
  0
POINT
  5
11AAA
330
103EC
100
AcDbEntity
  8
DEFPOINTS
 62
     0
100
AcDbPoint
 10
53344.13034564906
 20
-1789.770903640081
 30
0.0
  0
POINT
  5
11AAB
330
103EC
100
AcDbEntity
  8
DEFPOINTS
 62
     0
100
AcDbPoint
 10
53983.47436114345
 20
-1789.770903640081
 30
0.0
  0
ENDBLK
  5
103F7
330
103EC
100
AcDbEntity
  8
0
100
AcDbBlockEnd
  0
BLOCK
  5
10404
330
103F8
100
AcDbEntity
  8
0
100
AcDbBlockBegin
  2
*D5
 70
     1
 10
0.0
 20
0.0
 30
0.0
  3
*D5
  1

  0
LINE
  5
10E17
330
103F8
100
AcDbEntity
  8
SUNPOU
370
    -2
100
AcDbLine
 10
53404.13034564906
 20
4357.574308936173
 30
0.0
 11
54288.13034564906
 21
4357.574308936173
 31
0.0
  0
LINE
  5
10E18
330
103F8
100
AcDbEntity
  8
SUNPOU
370
    -2
100
AcDbLine
 10
53404.13034564906
 20
4277.574308936173
 30
0.0
 11
54288.13034564906
 21
4277.574308936173
 31
0.0
  0
LINE
  5
10E19
330
103F8
100
AcDbEntity
  8
SUNPOU
370
    -2
100
AcDbLine
 10
54264.13034564906
 20
4197.574308936173
 30
0.0
 11
54264.13034564906
 21
4117.574308936173
 31
0.0
  0
LINE
  5
10E1A
330
103F8
100
AcDbEntity
  8
SUNPOU
370
    -2
100
AcDbLine
 10
54264.13034564906
 20
4437.574308936173
 30
0.0
 11
54264.13034564906
 21
4725.574308936173
 31
0.0
  0
LINE
  5
10E1B
330
103F8
100
AcDbEntity
  8
SUNPOU
370
    -2
100
AcDbLine
 10
54264.13034564906
 20
4277.574308936173
 30
0.0
 11
54264.13034564906
 21
4357.574308936173
 31
0.0
  0
SOLID
  5
10E1C
330
103F8
100
AcDbEntity
  8
SUNPOU
100
AcDbTrace
 10
54250.79701231572
 20
4197.574308936173
 30
0.0
 11
54277.46367898239
 21
4197.574308936173
 31
0.0
 12
54264.13034564906
 22
4277.574308936173
 32
0.0
 13
54264.13034564906
 23
4277.574308936173
 33
0.0
  0
SOLID
  5
10E1D
330
103F8
100
AcDbEntity
  8
SUNPOU
100
AcDbTrace
 10
54250.79701231572
 20
4437.574308936173
 30
0.0
 11
54277.46367898239
 21
4437.574308936173
 31
0.0
 12
54264.13034564906
 22
4357.574308936173
 32
0.0
 13
54264.13034564906
 23
4357.574308936173
 33
0.0
  0
MTEXT
  5
10E1E
330
103F8
100
AcDbEntity
  8
SUNPOU
100
AcDbMText
 10
54172.13034564906
 20
4621.574308936181
 30
0.0
 40
120.0
 41
0.0
 71
     5
 72
     1
  1
\A1;80
 11
6.123031769111886E-17
 21
1.0
 31
0.0
 73
     1
 44
1.0
  0
POINT
  5
10E1F
330
103F8
100
AcDbEntity
  8
DEFPOINTS
 62
     0
100
AcDbPoint
 10
53344.13034564906
 20
4357.574308936173
 30
0.0
  0
POINT
  5
10E20
330
103F8
100
AcDbEntity
  8
DEFPOINTS
 62
     0
100
AcDbPoint
 10
53344.13034564906
 20
4277.574308936173
 30
0.0
  0
POINT
  5
10E21
330
103F8
100
AcDbEntity
  8
DEFPOINTS
 62
     0
100
AcDbPoint
 10
54264.13034564906
 20
4277.574308936173
 30
0.0
  0
ENDBLK
  5
10405
330
103F8
100
AcDbEntity
  8
0
100
AcDbBlockEnd
  0
BLOCK
  5
10410
330
10406
100
AcDbEntity
  8
0
100
AcDbBlockBegin
  2
*D6
 70
     1
 10
0.0
 20
0.0
 30
0.0
  3
*D6
  1

  0
LINE
  5
10E0E
330
10406
100
AcDbEntity
  8
SUNPOU
370
    -2
100
AcDbLine
 10
53239.13034564905
 20
3277.574308936174
 30
0.0
 11
54288.13034564906
 21
3277.574308936174
 31
0.0
  0
LINE
  5
10E0F
330
10406
100
AcDbEntity
  8
SUNPOU
370
    -2
100
AcDbLine
 10
53404.13034564906
 20
4277.574308936173
 30
0.0
 11
54288.13034564906
 21
4277.574308936173
 31
0.0
  0
LINE
  5
10E10
330
10406
100
AcDbEntity
  8
SUNPOU
370
    -2
100
AcDbLine
 10
54264.13034564906
 20
3357.574308936174
 30
0.0
 11
54264.13034564906
 21
4197.574308936173
 31
0.0
  0
SOLID
  5
10E11
330
10406
100
AcDbEntity
  8
SUNPOU
100
AcDbTrace
 10
54250.79701231572
 20
3357.574308936174
 30
0.0
 11
54277.46367898239
 21
3357.574308936174
 31
0.0
 12
54264.13034564906
 22
3277.574308936174
 32
0.0
 13
54264.13034564906
 23
3277.574308936174
 33
0.0
  0
SOLID
  5
10E12
330
10406
100
AcDbEntity
  8
SUNPOU
100
AcDbTrace
 10
54250.79701231572
 20
4197.574308936173
 30
0.0
 11
54277.46367898239
 21
4197.574308936173
 31
0.0
 12
54264.13034564906
 22
4277.574308936173
 32
0.0
 13
54264.13034564906
 23
4277.574308936173
 33
0.0
  0
MTEXT
  5
10E13
330
10406
100
AcDbEntity
  8
SUNPOU
100
AcDbMText
 10
54172.13034564906
 20
3777.574308936182
 30
0.0
 40
120.0
 41
0.0
 71
     5
 72
     1
  1
\A1;1000
 11
6.123031769111886E-17
 21
1.0
 31
0.0
 73
     1
 44
1.0
  0
POINT
  5
10E14
330
10406
100
AcDbEntity
  8
DEFPOINTS
 62
     0
100
AcDbPoint
 10
53179.13034564905
 20
3277.574308936174
 30
0.0
  0
POINT
  5
10E15
330
10406
100
AcDbEntity
  8
DEFPOINTS
 62
     0
100
AcDbPoint
 10
53344.13034564906
 20
4277.574308936173
 30
0.0
  0
POINT
  5
10E16
330
10406
100
AcDbEntity
  8
DEFPOINTS
 62
     0
100
AcDbPoint
 10
54264.13034564906
 20
4277.574308936173
 30
0.0
  0
ENDBLK
  5
10411
330
10406
100
AcDbEntity
  8
0
100
AcDbBlockEnd
  0
BLOCK
  5
1041E
330
10412
100
AcDbEntity
  8
0
100
AcDbBlockBegin
  2
*D7
 70
     1
 10
0.0
 20
0.0
 30
0.0
  3
*D7
  1

  0
LINE
  5
10DFA
330
10412
100
AcDbEntity
  8
SUNPOU
370
    -2
100
AcDbLine
 10
53404.13034564906
 20
3357.574308936173
 30
0.0
 11
54008.13034564906
 21
3357.574308936173
 31
0.0
  0
LINE
  5
10DFB
330
10412
100
AcDbEntity
  8
SUNPOU
370
    -2
100
AcDbLine
 10
53239.13034564905
 20
3277.574308936174
 30
0.0
 11
54008.13034564906
 21
3277.574308936174
 31
0.0
  0
LINE
  5
10DFC
330
10412
100
AcDbEntity
  8
SUNPOU
370
    -2
100
AcDbLine
 10
53984.13034564906
 20
3437.574308936173
 30
0.0
 11
53984.13034564906
 21
3517.574308936173
 31
0.0
  0
LINE
  5
10DFD
330
10412
100
AcDbEntity
  8
SUNPOU
370
    -2
100
AcDbLine
 10
53984.13034564906
 20
3197.574308936174
 30
0.0
 11
53984.13034564906
 21
2909.574308936174
 31
0.0
  0
LINE
  5
10DFE
330
10412
100
AcDbEntity
  8
SUNPOU
370
    -2
100
AcDbLine
 10
53984.13034564906
 20
3357.574308936173
 30
0.0
 11
53984.13034564906
 21
3277.574308936174
 31
0.0
  0
SOLID
  5
10DFF
330
10412
100
AcDbEntity
  8
SUNPOU
100
AcDbTrace
 10
53970.79701231572
 20
3437.574308936173
 30
0.0
 11
53997.46367898239
 21
3437.574308936173
 31
0.0
 12
53984.13034564906
 22
3357.574308936173
 32
0.0
 13
53984.13034564906
 23
3357.574308936173
 33
0.0
  0
SOLID
  5
10E00
330
10412
100
AcDbEntity
  8
SUNPOU
100
AcDbTrace
 10
53970.79701231572
 20
3197.574308936174
 30
0.0
 11
53997.46367898239
 21
3197.574308936174
 31
0.0
 12
53984.13034564906
 22
3277.574308936174
 32
0.0
 13
53984.13034564906
 23
3277.574308936174
 33
0.0
  0
MTEXT
  5
10E01
330
10412
100
AcDbEntity
  8
SUNPOU
100
AcDbMText
 10
53892.13034564906
 20
3013.574308936183
 30
0.0
 40
120.0
 41
0.0
 71
     5
 72
     1
  1
\A1;80
 11
6.123031769111886E-17
 21
1.0
 31
0.0
 73
     1
 44
1.0
  0
POINT
  5
10E02
330
10412
100
AcDbEntity
  8
DEFPOINTS
 62
     0
100
AcDbPoint
 10
53344.13034564906
 20
3357.574308936173
 30
0.0
  0
POINT
  5
10E03
330
10412
100
AcDbEntity
  8
DEFPOINTS
 62
     0
100
AcDbPoint
 10
53179.13034564905
 20
3277.574308936174
 30
0.0
  0
POINT
  5
10E04
330
10412
100
AcDbEntity
  8
DEFPOINTS
 62
     0
100
AcDbPoint
 10
53984.13034564906
 20
3277.574308936174
 30
0.0
  0
ENDBLK
  5
1041F
330
10412
100
AcDbEntity
  8
0
100
AcDbBlockEnd
  0
BLOCK
  5
1042A
330
10420
100
AcDbEntity
  8
0
100
AcDbBlockBegin
  2
*D8
 70
     1
 10
0.0
 20
0.0
 30
0.0
  3
*D8
  1

  0
LINE
  5
11A33
330
10420
100
AcDbEntity
  8
SUNPOU
370
    -2
100
AcDbLine
 10
52744.13034564906
 20
1030.229096359917
 30
0.0
 11
52744.13034564906
 21
558.3656410759286
 31
0.0
  0
LINE
  5
11A34
330
10420
100
AcDbEntity
  8
SUNPOU
370
    -2
100
AcDbLine
 10
53044.13034564906
 20
730.2290963599171
 30
0.0
 11
53044.13034564906
 21
558.3656410759286
 31
0.0
  0
LINE
  5
11A35
330
10420
100
AcDbEntity
  8
SUNPOU
370
    -2
100
AcDbLine
 10
52824.13034564906
 20
582.3656410759286
 30
0.0
 11
52964.13034564906
 21
582.3656410759286
 31
0.0
  0
SOLID
  5
11A36
330
10420
100
AcDbEntity
  8
SUNPOU
100
AcDbTrace
 10
52824.13034564906
 20
595.698974409262
 30
0.0
 11
52824.13034564906
 21
569.0323077425952
 31
0.0
 12
52744.13034564906
 22
582.3656410759286
 32
0.0
 13
52744.13034564906
 23
582.3656410759286
 33
0.0
  0
SOLID
  5
11A37
330
10420
100
AcDbEntity
  8
SUNPOU
100
AcDbTrace
 10
52964.13034564906
 20
595.698974409262
 30
0.0
 11
52964.13034564906
 21
569.0323077425952
 31
0.0
 12
53044.13034564906
 22
582.3656410759286
 32
0.0
 13
53044.13034564906
 23
582.3656410759286
 33
0.0
  0
MTEXT
  5
11A38
330
10420
100
AcDbEntity
  8
SUNPOU
100
AcDbMText
 10
52894.13034564906
 20
674.3656410759286
 30
0.0
 40
120.0
 41
0.0
 71
     5
 72
     1
  1
\A1;300
 73
     1
 44
1.0
  0
POINT
  5
11A39
330
10420
100
AcDbEntity
  8
DEFPOINTS
 62
     0
100
AcDbPoint
 10
52744.13034564906
 20
1090.229096359917
 30
0.0
  0
POINT
  5
11A3A
330
10420
100
AcDbEntity
  8
DEFPOINTS
 62
     0
100
AcDbPoint
 10
53044.13034564906
 20
790.2290963599171
 30
0.0
  0
POINT
  5
11A3B
330
10420
100
AcDbEntity
  8
DEFPOINTS
 62
     0
100
AcDbPoint
 10
53044.13034564906
 20
582.3656410759286
 30
0.0
  0
ENDBLK
  5
1042B
330
10420
100
AcDbEntity
  8
0
100
AcDbBlockEnd
  0
BLOCK
  5
10436
330
1042C
100
AcDbEntity
  8
0
100
AcDbBlockBegin
  2
*D9
 70
     1
 10
0.0
 20
0.0
 30
0.0
  3
*D9
  1

  0
LINE
  5
11A45
330
1042C
100
AcDbEntity
  8
SUNPOU
370
    -2
100
AcDbLine
 10
52984.13034564906
 20
790.2290963599172
 30
0.0
 11
52542.26689036506
 21
790.2290963599172
 31
0.0
  0
LINE
  5
11A46
330
1042C
100
AcDbEntity
  8
SUNPOU
370
    -2
100
AcDbLine
 10
52684.13034564906
 20
1090.229096359917
 30
0.0
 11
52542.26689036506
 21
1090.229096359917
 31
0.0
  0
LINE
  5
11A47
330
1042C
100
AcDbEntity
  8
SUNPOU
370
    -2
100
AcDbLine
 10
52566.26689036506
 20
870.2290963599172
 30
0.0
 11
52566.26689036506
 21
1010.229096359917
 31
0.0
  0
SOLID
  5
11A48
330
1042C
100
AcDbEntity
  8
SUNPOU
100
AcDbTrace
 10
52552.93355703173
 20
870.2290963599172
 30
0.0
 11
52579.6002236984
 21
870.2290963599172
 31
0.0
 12
52566.26689036506
 22
790.2290963599172
 32
0.0
 13
52566.26689036506
 23
790.2290963599172
 33
0.0
  0
SOLID
  5
11A49
330
1042C
100
AcDbEntity
  8
SUNPOU
100
AcDbTrace
 10
52552.93355703173
 20
1010.229096359917
 30
0.0
 11
52579.6002236984
 21
1010.229096359917
 31
0.0
 12
52566.26689036506
 22
1090.229096359917
 32
0.0
 13
52566.26689036506
 23
1090.229096359917
 33
0.0
  0
MTEXT
  5
11A4A
330
1042C
100
AcDbEntity
  8
SUNPOU
100
AcDbMText
 10
52474.26689036506
 20
940.2290963599257
 30
0.0
 40
120.0
 41
0.0
 71
     5
 72
     1
  1
\A1;300
 11
6.123031769111886E-17
 21
1.0
 31
0.0
 73
     1
 44
1.0
  0
POINT
  5
11A4B
330
1042C
100
AcDbEntity
  8
DEFPOINTS
 62
     0
100
AcDbPoint
 10
53044.13034564906
 20
790.2290963599171
 30
0.0
  0
POINT
  5
11A4C
330
1042C
100
AcDbEntity
  8
DEFPOINTS
 62
     0
100
AcDbPoint
 10
52744.13034564906
 20
1090.229096359917
 30
0.0
  0
POINT
  5
11A4D
330
1042C
100
AcDbEntity
  8
DEFPOINTS
 62
     0
100
AcDbPoint
 10
52566.26689036506
 20
1090.229096359917
 30
0.0
  0
ENDBLK
  5
10437
330
1042C
100
AcDbEntity
  8
0
100
AcDbBlockEnd
  0
BLOCK
  5
10444
330
10438
100
AcDbEntity
  8
0
100
AcDbBlockBegin
  2
*D10
 70
     1
 10
0.0
 20
0.0
 30
0.0
  3
*D10
  1

  0
LINE
  5
10DDC
330
10438
100
AcDbEntity
  8
SUNPOU
370
    -2
100
AcDbLine
 10
53404.13034564905
 20
4127.574308936173
 30
0.0
 11
53728.13034564906
 21
4127.574308936173
 31
0.0
  0
LINE
  5
10DDD
330
10438
100
AcDbEntity
  8
SUNPOU
370
    -2
100
AcDbLine
 10
53404.13034564906
 20
4357.574308936173
 30
0.0
 11
53728.13034564906
 21
4357.574308936173
 31
0.0
  0
LINE
  5
10DDE
330
10438
100
AcDbEntity
  8
SUNPOU
370
    -2
100
AcDbLine
 10
53704.13034564906
 20
4207.574308936173
 30
0.0
 11
53704.13034564906
 21
4277.574308936173
 31
0.0
  0
LINE
  5
10DDF
330
10438
100
AcDbEntity
  8
SUNPOU
370
    -2
100
AcDbLine
 10
53704.13034564906
 20
4357.574308936173
 30
0.0
 11
53704.13034564906
 21
4741.574308936173
 31
0.0
  0
SOLID
  5
10DE0
330
10438
100
AcDbEntity
  8
SUNPOU
100
AcDbTrace
 10
53690.79701231572
 20
4207.574308936173
 30
0.0
 11
53717.46367898239
 21
4207.574308936173
 31
0.0
 12
53704.13034564906
 22
4127.574308936173
 32
0.0
 13
53704.13034564906
 23
4127.574308936173
 33
0.0
  0
SOLID
  5
10DE1
330
10438
100
AcDbEntity
  8
SUNPOU
100
AcDbTrace
 10
53690.79701231572
 20
4277.574308936173
 30
0.0
 11
53717.46367898239
 21
4277.574308936173
 31
0.0
 12
53704.13034564906
 22
4357.574308936173
 32
0.0
 13
53704.13034564906
 23
4357.574308936173
 33
0.0
  0
MTEXT
  5
10DE2
330
10438
100
AcDbEntity
  8
SUNPOU
100
AcDbMText
 10
53612.13034564906
 20
4589.574308936181
 30
0.0
 40
120.0
 41
0.0
 71
     5
 72
     1
  1
\A1;230
 11
6.123031769111886E-17
 21
1.0
 31
0.0
 73
     1
 44
1.0
  0
POINT
  5
10DE3
330
10438
100
AcDbEntity
  8
DEFPOINTS
 62
     0
100
AcDbPoint
 10
53344.13034564905
 20
4127.574308936173
 30
0.0
  0
POINT
  5
10DE4
330
10438
100
AcDbEntity
  8
DEFPOINTS
 62
     0
100
AcDbPoint
 10
53344.13034564906
 20
4357.574308936173
 30
0.0
  0
POINT
  5
10DE5
330
10438
100
AcDbEntity
  8
DEFPOINTS
 62
     0
100
AcDbPoint
 10
53704.13034564906
 20
4357.574308936173
 30
0.0
  0
ENDBLK
  5
10445
330
10438
100
AcDbEntity
  8
0
100
AcDbBlockEnd
  0
BLOCK
  5
10452
330
10446
100
AcDbEntity
  8
0
100
AcDbBlockBegin
  2
*D11
 70
     1
 10
0.0
 20
0.0
 30
0.0
  3
*D11
  1

  0
LINE
  5
119DD
330
10446
100
AcDbEntity
  8
SUNPOU
370
    -2
100
AcDbLine
 10
55647.71867732251
 20
1335.229096359918
 30
0.0
 11
55034.99510743326
 21
1335.229096359918
 31
0.0
  0
LINE
  5
119DE
330
10446
100
AcDbEntity
  8
SUNPOU
370
    -2
100
AcDbLine
 10
55647.71867732251
 20
1470.229096359918
 30
0.0
 11
55034.99510743326
 21
1470.229096359918
 31
0.0
  0
LINE
  5
119DF
330
10446
100
AcDbEntity
  8
SUNPOU
370
    -2
100
AcDbLine
 10
55058.99510743326
 20
1335.229096359918
 30
0.0
 11
55058.99510743326
 21
1255.229096359918
 31
0.0
  0
LINE
  5
119E0
330
10446
100
AcDbEntity
  8
SUNPOU
370
    -2
100
AcDbLine
 10
55058.99510743326
 20
1550.229096359918
 30
0.0
 11
55058.99510743326
 21
1918.229096359918
 31
0.0
  0
LINE
  5
119E1
330
10446
100
AcDbEntity
  8
SUNPOU
370
    -2
100
AcDbLine
 10
55058.99510743326
 20
1335.229096359918
 30
0.0
 11
55058.99510743326
 21
1470.229096359918
 31
0.0
  0
INSERT
  5
119E2
330
10446
100
AcDbEntity
  8
SUNPOU
370
    -2
100
AcDbBlockReference
  2
_DotSmall
 10
55058.99510743326
 20
1335.229096359918
 30
0.0
 41
80.0
 42
80.0
 43
80.0
 50
90.0
  0
SOLID
  5
119E3
330
10446
100
AcDbEntity
  8
SUNPOU
100
AcDbTrace
 10
55045.66177409993
 20
1550.229096359918
 30
0.0
 11
55072.3284407666
 21
1550.229096359918
 31
0.0
 12
55058.99510743326
 22
1470.229096359918
 32
0.0
 13
55058.99510743326
 23
1470.229096359918
 33
0.0
  0
MTEXT
  5
119E4
330
10446
100
AcDbEntity
  8
SUNPOU
100
AcDbMText
 10
54966.99510743326
 20
1774.229096359927
 30
0.0
 40
120.0
 41
0.0
 71
     5
 72
     1
  1
\A1;135
 11
6.123031769111886E-17
 21
1.0
 31
0.0
 73
     1
 44
1.0
  0
POINT
  5
119E5
330
10446
100
AcDbEntity
  8
DEFPOINTS
 62
     0
100
AcDbPoint
 10
55707.71867732251
 20
1335.229096359918
 30
0.0
  0
POINT
  5
119E6
330
10446
100
AcDbEntity
  8
DEFPOINTS
 62
     0
100
AcDbPoint
 10
55707.71867732251
 20
1470.229096359918
 30
0.0
  0
POINT
  5
119E7
330
10446
100
AcDbEntity
  8
DEFPOINTS
 62
     0
100
AcDbPoint
 10
55058.99510743326
 20
1470.229096359918
 30
0.0
  0
ENDBLK
  5
10453
330
10446
100
AcDbEntity
  8
0
100
AcDbBlockEnd
  0
BLOCK
  5
10460
330
10454
100
AcDbEntity
  8
0
100
AcDbBlockBegin
  2
*D12
 70
     1
 10
0.0
 20
0.0
 30
0.0
  3
*D12
  1

  0
LINE
  5
119D3
330
10454
100
AcDbEntity
  8
SUNPOU
370
    -2
100
AcDbLine
 10
55567.71867732251
 20
1255.229096359914
 30
0.0
 11
54754.99510743326
 21
1255.229096359915
 31
0.0
  0
LINE
  5
119D4
330
10454
100
AcDbEntity
  8
SUNPOU
370
    -2
100
AcDbLine
 10
55647.71867732251
 20
1470.229096359917
 30
0.0
 11
54754.99510743326
 21
1470.229096359917
 31
0.0
  0
LINE
  5
119D5
330
10454
100
AcDbEntity
  8
SUNPOU
370
    -2
100
AcDbLine
 10
54778.99510743326
 20
1255.229096359915
 30
0.0
 11
54778.99510743326
 21
1390.229096359917
 31
0.0
  0
LINE
  5
119D6
330
10454
100
AcDbEntity
  8
SUNPOU
370
    -2
100
AcDbLine
 10
54778.99510743326
 20
1470.229096359917
 30
0.0
 11
54778.99510743326
 21
1918.229096359918
 31
0.0
  0
INSERT
  5
119D7
330
10454
100
AcDbEntity
  8
SUNPOU
370
    -2
100
AcDbBlockReference
  2
_DotSmall
 10
54778.99510743326
 20
1255.229096359915
 30
0.0
 41
80.0
 42
80.0
 43
80.0
 50
270.0
  0
SOLID
  5
119D8
330
10454
100
AcDbEntity
  8
SUNPOU
100
AcDbTrace
 10
54765.66177409993
 20
1390.229096359917
 30
0.0
 11
54792.3284407666
 21
1390.229096359917
 31
0.0
 12
54778.99510743326
 22
1470.229096359917
 32
0.0
 13
54778.99510743326
 23
1470.229096359917
 33
0.0
  0
MTEXT
  5
119D9
330
10454
100
AcDbEntity
  8
SUNPOU
100
AcDbMText
 10
54686.99510743326
 20
1774.229096359926
 30
0.0
 40
120.0
 41
0.0
 71
     5
 72
     1
  1
\A1;215
 11
6.123031769111886E-17
 21
1.0
 31
0.0
 73
     1
 44
1.0
  0
POINT
  5
119DA
330
10454
100
AcDbEntity
  8
DEFPOINTS
 62
     0
100
AcDbPoint
 10
55627.71867732251
 20
1255.229096359914
 30
0.0
  0
POINT
  5
119DB
330
10454
100
AcDbEntity
  8
DEFPOINTS
 62
     0
100
AcDbPoint
 10
55707.71867732251
 20
1470.229096359917
 30
0.0
  0
POINT
  5
119DC
330
10454
100
AcDbEntity
  8
DEFPOINTS
 62
     0
100
AcDbPoint
 10
54778.99510743326
 20
1470.229096359917
 30
0.0
  0
ENDBLK
  5
10461
330
10454
100
AcDbEntity
  8
0
100
AcDbBlockEnd
  0
BLOCK
  5
1046E
330
10462
100
AcDbEntity
  8
0
100
AcDbBlockBegin
  2
*D13
 70
     1
 10
0.0
 20
0.0
 30
0.0
  3
*D13
  1

  0
LINE
  5
119B3
330
10462
100
AcDbEntity
  8
SUNPOU
370
    -2
100
AcDbLine
 10
55567.71867732251
 20
1175.229096359917
 30
0.0
 11
55034.99510743326
 21
1175.229096359917
 31
0.0
  0
LINE
  5
119B4
330
10462
100
AcDbEntity
  8
SUNPOU
370
    -2
100
AcDbLine
 10
55567.71867732251
 20
1090.229096359919
 30
0.0
 11
55034.99510743326
 21
1090.229096359919
 31
0.0
  0
LINE
  5
119B5
330
10462
100
AcDbEntity
  8
SUNPOU
370
    -2
100
AcDbLine
 10
55058.99510743326
 20
1175.229096359917
 30
0.0
 11
55058.99510743326
 21
1255.229096359917
 31
0.0
  0
LINE
  5
119B6
330
10462
100
AcDbEntity
  8
SUNPOU
370
    -2
100
AcDbLine
 10
55058.99510743326
 20
1010.229096359919
 30
0.0
 11
55058.99510743326
 21
706.2290963599189
 31
0.0
  0
LINE
  5
119B7
330
10462
100
AcDbEntity
  8
SUNPOU
370
    -2
100
AcDbLine
 10
55058.99510743326
 20
1175.229096359917
 30
0.0
 11
55058.99510743326
 21
1090.229096359919
 31
0.0
  0
INSERT
  5
119B8
330
10462
100
AcDbEntity
  8
SUNPOU
370
    -2
100
AcDbBlockReference
  2
_DotSmall
 10
55058.99510743326
 20
1175.229096359917
 30
0.0
 41
80.0
 42
80.0
 43
80.0
 50
270.0
  0
SOLID
  5
119B9
330
10462
100
AcDbEntity
  8
SUNPOU
100
AcDbTrace
 10
55045.66177409993
 20
1010.229096359919
 30
0.0
 11
55072.3284407666
 21
1010.229096359919
 31
0.0
 12
55058.99510743326
 22
1090.229096359919
 32
0.0
 13
55058.99510743326
 23
1090.229096359919
 33
0.0
  0
MTEXT
  5
119BA
330
10462
100
AcDbEntity
  8
SUNPOU
100
AcDbMText
 10
54966.99510743326
 20
818.2290963599278
 30
0.0
 40
120.0
 41
0.0
 71
     5
 72
     1
  1
\A1;85
 11
6.123031769111886E-17
 21
1.0
 31
0.0
 73
     1
 44
1.0
  0
POINT
  5
119BB
330
10462
100
AcDbEntity
  8
DEFPOINTS
 62
     0
100
AcDbPoint
 10
55627.71867732251
 20
1175.229096359917
 30
0.0
  0
POINT
  5
119BC
330
10462
100
AcDbEntity
  8
DEFPOINTS
 62
     0
100
AcDbPoint
 10
55627.71867732251
 20
1090.229096359919
 30
0.0
  0
POINT
  5
119BD
330
10462
100
AcDbEntity
  8
DEFPOINTS
 62
     0
100
AcDbPoint
 10
55058.99510743326
 20
1090.229096359919
 30
0.0
  0
ENDBLK
  5
1046F
330
10462
100
AcDbEntity
  8
0
100
AcDbBlockEnd
  0
BLOCK
  5
1047C
330
10470
100
AcDbEntity
  8
0
100
AcDbBlockBegin
  2
*D14
 70
     1
 10
0.0
 20
0.0
 30
0.0
  3
*D14
  1

  0
LINE
  5
119A9
330
10470
100
AcDbEntity
  8
SUNPOU
370
    -2
100
AcDbLine
 10
55567.71867732251
 20
1255.229096359914
 30
0.0
 11
54754.99510743326
 21
1255.229096359915
 31
0.0
  0
LINE
  5
119AA
330
10470
100
AcDbEntity
  8
SUNPOU
370
    -2
100
AcDbLine
 10
55567.71867732251
 20
1090.229096359919
 30
0.0
 11
54754.99510743326
 21
1090.229096359919
 31
0.0
  0
LINE
  5
119AB
330
10470
100
AcDbEntity
  8
SUNPOU
370
    -2
100
AcDbLine
 10
54778.99510743326
 20
1255.229096359915
 30
0.0
 11
54778.99510743326
 21
1170.229096359919
 31
0.0
  0
LINE
  5
119AC
330
10470
100
AcDbEntity
  8
SUNPOU
370
    -2
100
AcDbLine
 10
54778.99510743326
 20
1090.229096359919
 30
0.0
 11
54778.99510743326
 21
642.229096359919
 31
0.0
  0
INSERT
  5
119AD
330
10470
100
AcDbEntity
  8
SUNPOU
370
    -2
100
AcDbBlockReference
  2
_DotSmall
 10
54778.99510743326
 20
1255.229096359915
 30
0.0
 41
80.0
 42
80.0
 43
80.0
 50
90.0
  0
SOLID
  5
119AE
330
10470
100
AcDbEntity
  8
SUNPOU
100
AcDbTrace
 10
54765.66177409993
 20
1170.229096359919
 30
0.0
 11
54792.3284407666
 21
1170.229096359919
 31
0.0
 12
54778.99510743326
 22
1090.229096359919
 32
0.0
 13
54778.99510743326
 23
1090.229096359919
 33
0.0
  0
MTEXT
  5
119AF
330
10470
100
AcDbEntity
  8
SUNPOU
100
AcDbMText
 10
54686.99510743326
 20
786.2290963599279
 30
0.0
 40
120.0
 41
0.0
 71
     5
 72
     1
  1
\A1;165
 11
6.123031769111886E-17
 21
1.0
 31
0.0
 73
     1
 44
1.0
  0
POINT
  5
119B0
330
10470
100
AcDbEntity
  8
DEFPOINTS
 62
     0
100
AcDbPoint
 10
55627.71867732251
 20
1255.229096359914
 30
0.0
  0
POINT
  5
119B1
330
10470
100
AcDbEntity
  8
DEFPOINTS
 62
     0
100
AcDbPoint
 10
55627.71867732251
 20
1090.229096359919
 30
0.0
  0
POINT
  5
119B2
330
10470
100
AcDbEntity
  8
DEFPOINTS
 62
     0
100
AcDbPoint
 10
54778.99510743326
 20
1090.229096359919
 30
0.0
  0
ENDBLK
  5
1047D
330
10470
100
AcDbEntity
  8
0
100
AcDbBlockEnd
  0
BLOCK
  5
1048A
330
1047E
100
AcDbEntity
  8
0
100
AcDbBlockBegin
  2
*D15
 70
     1
 10
0.0
 20
0.0
 30
0.0
  3
*D15
  1

  0
LINE
  5
11962
330
1047E
100
AcDbEntity
  8
SUNPOU
370
    -2
100
AcDbLine
 10
55567.71867732251
 20
-1569.770903640081
 30
0.0
 11
54754.99510743326
 21
-1569.770903640081
 31
0.0
  0
LINE
  5
11963
330
1047E
100
AcDbEntity
  8
SUNPOU
370
    -2
100
AcDbLine
 10
55567.71867732251
 20
-1409.770903640081
 30
0.0
 11
54754.99510743326
 21
-1409.770903640081
 31
0.0
  0
LINE
  5
11964
330
1047E
100
AcDbEntity
  8
SUNPOU
370
    -2
100
AcDbLine
 10
54778.99510743326
 20
-1569.770903640081
 30
0.0
 11
54778.99510743326
 21
-1489.770903640081
 31
0.0
  0
LINE
  5
11965
330
1047E
100
AcDbEntity
  8
SUNPOU
370
    -2
100
AcDbLine
 10
54778.99510743326
 20
-1409.770903640081
 30
0.0
 11
54778.99510743326
 21
-977.770903640081
 31
0.0
  0
INSERT
  5
11966
330
1047E
100
AcDbEntity
  8
SUNPOU
370
    -2
100
AcDbBlockReference
  2
_DotSmall
 10
54778.99510743326
 20
-1569.770903640081
 30
0.0
 41
80.0
 42
80.0
 43
80.0
 50
270.0
  0
SOLID
  5
11967
330
1047E
100
AcDbEntity
  8
SUNPOU
100
AcDbTrace
 10
54765.66177409993
 20
-1489.770903640081
 30
0.0
 11
54792.3284407666
 21
-1489.770903640081
 31
0.0
 12
54778.99510743326
 22
-1409.770903640081
 32
0.0
 13
54778.99510743326
 23
-1409.770903640081
 33
0.0
  0
MTEXT
  5
11968
330
1047E
100
AcDbEntity
  8
SUNPOU
100
AcDbMText
 10
54686.99510743326
 20
-1113.770903640072
 30
0.0
 40
120.0
 41
0.0
 71
     5
 72
     1
  1
\A1;160
 11
6.123031769111886E-17
 21
1.0
 31
0.0
 73
     1
 44
1.0
  0
POINT
  5
11969
330
1047E
100
AcDbEntity
  8
DEFPOINTS
 62
     0
100
AcDbPoint
 10
55627.71867732251
 20
-1569.770903640081
 30
0.0
  0
POINT
  5
1196A
330
1047E
100
AcDbEntity
  8
DEFPOINTS
 62
     0
100
AcDbPoint
 10
55627.71867732251
 20
-1409.770903640081
 30
0.0
  0
POINT
  5
1196B
330
1047E
100
AcDbEntity
  8
DEFPOINTS
 62
     0
100
AcDbPoint
 10
54778.99510743326
 20
-1409.770903640081
 30
0.0
  0
ENDBLK
  5
1048B
330
1047E
100
AcDbEntity
  8
0
100
AcDbBlockEnd
  0
BLOCK
  5
10498
330
1048C
100
AcDbEntity
  8
0
100
AcDbBlockBegin
  2
*D16
 70
     1
 10
0.0
 20
0.0
 30
0.0
  3
*D16
  1

  0
LINE
  5
11957
330
1048C
100
AcDbEntity
  8
SUNPOU
370
    -2
100
AcDbLine
 10
55567.71867732251
 20
-1489.770903640081
 30
0.0
 11
55034.99510743326
 21
-1489.770903640081
 31
0.0
  0
LINE
  5
11958
330
1048C
100
AcDbEntity
  8
SUNPOU
370
    -2
100
AcDbLine
 10
55567.71867732251
 20
-1409.770903640081
 30
0.0
 11
55034.99510743326
 21
-1409.770903640081
 31
0.0
  0
LINE
  5
11959
330
1048C
100
AcDbEntity
  8
SUNPOU
370
    -2
100
AcDbLine
 10
55058.99510743326
 20
-1489.770903640081
 30
0.0
 11
55058.99510743326
 21
-1569.770903640081
 31
0.0
  0
LINE
  5
1195A
330
1048C
100
AcDbEntity
  8
SUNPOU
370
    -2
100
AcDbLine
 10
55058.99510743326
 20
-1329.770903640081
 30
0.0
 11
55058.99510743326
 21
-1041.770903640081
 31
0.0
  0
LINE
  5
1195B
330
1048C
100
AcDbEntity
  8
SUNPOU
370
    -2
100
AcDbLine
 10
55058.99510743326
 20
-1489.770903640081
 30
0.0
 11
55058.99510743326
 21
-1409.770903640081
 31
0.0
  0
INSERT
  5
1195C
330
1048C
100
AcDbEntity
  8
SUNPOU
370
    -2
100
AcDbBlockReference
  2
_DotSmall
 10
55058.99510743326
 20
-1489.770903640081
 30
0.0
 41
80.0
 42
80.0
 43
80.0
 50
90.0
  0
SOLID
  5
1195D
330
1048C
100
AcDbEntity
  8
SUNPOU
100
AcDbTrace
 10
55045.66177409993
 20
-1329.770903640081
 30
0.0
 11
55072.3284407666
 21
-1329.770903640081
 31
0.0
 12
55058.99510743326
 22
-1409.770903640081
 32
0.0
 13
55058.99510743326
 23
-1409.770903640081
 33
0.0
  0
MTEXT
  5
1195E
330
1048C
100
AcDbEntity
  8
SUNPOU
100
AcDbMText
 10
54966.99510743326
 20
-1145.770903640072
 30
0.0
 40
120.0
 41
0.0
 71
     5
 72
     1
  1
\A1;80
 11
6.123031769111886E-17
 21
1.0
 31
0.0
 73
     1
 44
1.0
  0
POINT
  5
1195F
330
1048C
100
AcDbEntity
  8
DEFPOINTS
 62
     0
100
AcDbPoint
 10
55627.71867732251
 20
-1489.770903640081
 30
0.0
  0
POINT
  5
11960
330
1048C
100
AcDbEntity
  8
DEFPOINTS
 62
     0
100
AcDbPoint
 10
55627.71867732251
 20
-1409.770903640081
 30
0.0
  0
POINT
  5
11961
330
1048C
100
AcDbEntity
  8
DEFPOINTS
 62
     0
100
AcDbPoint
 10
55058.99510743326
 20
-1409.770903640081
 30
0.0
  0
ENDBLK
  5
10499
330
1048C
100
AcDbEntity
  8
0
100
AcDbBlockEnd
  0
BLOCK
  5
104A6
330
1049A
100
AcDbEntity
  8
0
100
AcDbBlockBegin
  2
*D17
 70
     1
 10
0.0
 20
0.0
 30
0.0
  3
*D17
  1

  0
LINE
  5
11994
330
1049A
100
AcDbEntity
  8
SUNPOU
370
    -2
100
AcDbLine
 10
55567.71867732251
 20
-1569.770903640081
 30
0.0
 11
54754.99510743326
 21
-1569.770903640081
 31
0.0
  0
LINE
  5
11995
330
1049A
100
AcDbEntity
  8
SUNPOU
370
    -2
100
AcDbLine
 10
55647.71867732251
 20
-1789.770903640081
 30
0.0
 11
54754.99510743326
 21
-1789.770903640081
 31
0.0
  0
LINE
  5
11996
330
1049A
100
AcDbEntity
  8
SUNPOU
370
    -2
100
AcDbLine
 10
54778.99510743326
 20
-1569.770903640081
 30
0.0
 11
54778.99510743326
 21
-1709.770903640081
 31
0.0
  0
LINE
  5
11997
330
1049A
100
AcDbEntity
  8
SUNPOU
370
    -2
100
AcDbLine
 10
54778.99510743326
 20
-1789.770903640081
 30
0.0
 11
54778.99510743326
 21
-2253.770903640081
 31
0.0
  0
INSERT
  5
11998
330
1049A
100
AcDbEntity
  8
SUNPOU
370
    -2
100
AcDbBlockReference
  2
_DotSmall
 10
54778.99510743326
 20
-1569.770903640081
 30
0.0
 41
80.0
 42
80.0
 43
80.0
 50
90.0
  0
SOLID
  5
11999
330
1049A
100
AcDbEntity
  8
SUNPOU
100
AcDbTrace
 10
54765.66177409993
 20
-1709.770903640081
 30
0.0
 11
54792.3284407666
 21
-1709.770903640081
 31
0.0
 12
54778.99510743326
 22
-1789.770903640081
 32
0.0
 13
54778.99510743326
 23
-1789.770903640081
 33
0.0
  0
MTEXT
  5
1199A
330
1049A
100
AcDbEntity
  8
SUNPOU
100
AcDbMText
 10
54686.99510743326
 20
-2101.770903640072
 30
0.0
 40
120.0
 41
0.0
 71
     5
 72
     1
  1
\A1;220
 11
6.123031769111886E-17
 21
1.0
 31
0.0
 73
     1
 44
1.0
  0
POINT
  5
1199B
330
1049A
100
AcDbEntity
  8
DEFPOINTS
 62
     0
100
AcDbPoint
 10
55627.71867732251
 20
-1569.770903640081
 30
0.0
  0
POINT
  5
1199C
330
1049A
100
AcDbEntity
  8
DEFPOINTS
 62
     0
100
AcDbPoint
 10
55707.71867732251
 20
-1789.770903640081
 30
0.0
  0
POINT
  5
1199D
330
1049A
100
AcDbEntity
  8
DEFPOINTS
 62
     0
100
AcDbPoint
 10
54778.99510743326
 20
-1789.770903640081
 30
0.0
  0
ENDBLK
  5
104A7
330
1049A
100
AcDbEntity
  8
0
100
AcDbBlockEnd
  0
BLOCK
  5
104B4
330
104A8
100
AcDbEntity
  8
0
100
AcDbBlockBegin
  2
*D18
 70
     1
 10
0.0
 20
0.0
 30
0.0
  3
*D18
  1

  0
LINE
  5
1176A
330
104A8
100
AcDbEntity
  8
SUNPOU
370
    -2
100
AcDbLine
 10
60525.5537241119
 20
1431.898245343882
 30
0.0
 11
60525.5537241119
 21
2179.815780145363
 31
0.0
  0
LINE
  5
1176B
330
104A8
100
AcDbEntity
  8
SUNPOU
370
    -2
100
AcDbLine
 10
60534.5537241119
 20
1068.898245343882
 30
0.0
 11
60534.5537241119
 21
2179.815780145363
 31
0.0
  0
LINE
  5
1176C
330
104A8
100
AcDbEntity
  8
SUNPOU
370
    -2
100
AcDbLine
 10
60445.5537241119
 20
2155.815780145363
 30
0.0
 11
60365.5537241119
 21
2155.815780145363
 31
0.0
  0
LINE
  5
1176D
330
104A8
100
AcDbEntity
  8
SUNPOU
370
    -2
100
AcDbLine
 10
60614.5537241119
 20
2155.815780145363
 30
0.0
 11
60822.5537241119
 21
2155.815780145363
 31
0.0
  0
LINE
  5
1176E
330
104A8
100
AcDbEntity
  8
SUNPOU
370
    -2
100
AcDbLine
 10
60525.5537241119
 20
2155.815780145363
 30
0.0
 11
60534.5537241119
 21
2155.815780145363
 31
0.0
  0
SOLID
  5
1176F
330
104A8
100
AcDbEntity
  8
SUNPOU
100
AcDbTrace
 10
60445.5537241119
 20
2169.149113478696
 30
0.0
 11
60445.5537241119
 21
2142.482446812029
 31
0.0
 12
60525.5537241119
 22
2155.815780145363
 32
0.0
 13
60525.5537241119
 23
2155.815780145363
 33
0.0
  0
SOLID
  5
11770
330
104A8
100
AcDbEntity
  8
SUNPOU
100
AcDbTrace
 10
60614.5537241119
 20
2169.149113478696
 30
0.0
 11
60614.5537241119
 21
2142.482446812029
 31
0.0
 12
60534.5537241119
 22
2155.815780145363
 32
0.0
 13
60534.5537241119
 23
2155.815780145363
 33
0.0
  0
MTEXT
  5
11771
330
104A8
100
AcDbEntity
  8
SUNPOU
100
AcDbMText
 10
60758.5537241119
 20
2247.815780145363
 30
0.0
 40
120.0
 41
0.0
 71
     5
 72
     1
  1
\A1;3
 73
     1
 44
1.0
  0
POINT
  5
11772
330
104A8
100
AcDbEntity
  8
DEFPOINTS
 62
     0
100
AcDbPoint
 10
60525.5537241119
 20
1371.898245343882
 30
0.0
  0
POINT
  5
11773
330
104A8
100
AcDbEntity
  8
DEFPOINTS
 62
     0
100
AcDbPoint
 10
60534.5537241119
 20
1008.898245343882
 30
0.0
  0
POINT
  5
11774
330
104A8
100
AcDbEntity
  8
DEFPOINTS
 62
     0
100
AcDbPoint
 10
60534.5537241119
 20
2155.815780145363
 30
0.0
  0
ENDBLK
  5
104B5
330
104A8
100
AcDbEntity
  8
0
100
AcDbBlockEnd
  0
BLOCK
  5
104C2
330
104B6
100
AcDbEntity
  8
0
100
AcDbBlockBegin
  2
*D19
 70
     1
 10
0.0
 20
0.0
 30
0.0
  3
*D19
  1

  0
LINE
  5
1181D
330
104B6
100
AcDbEntity
  8
SUNPOU
370
    -2
100
AcDbLine
 10
60525.5537241119
 20
-1814.458970088037
 30
0.0
 11
60525.5537241119
 21
-2424.134482716538
 31
0.0
  0
LINE
  5
1181E
330
104B6
100
AcDbEntity
  8
SUNPOU
370
    -2
100
AcDbLine
 10
60561.5537241119
 20
-1829.458970088037
 30
0.0
 11
60561.5537241119
 21
-2424.134482716538
 31
0.0
  0
LINE
  5
1181F
330
104B6
100
AcDbEntity
  8
SUNPOU
370
    -2
100
AcDbLine
 10
60445.5537241119
 20
-2400.134482716538
 30
0.0
 11
60365.5537241119
 21
-2400.134482716538
 31
0.0
  0
LINE
  5
11820
330
104B6
100
AcDbEntity
  8
SUNPOU
370
    -2
100
AcDbLine
 10
60641.5537241119
 20
-2400.134482716538
 30
0.0
 11
60942.68368199385
 21
-2400.134482716538
 31
0.0
  0
LINE
  5
11821
330
104B6
100
AcDbEntity
  8
SUNPOU
370
    -2
100
AcDbLine
 10
60525.5537241119
 20
-2400.134482716538
 30
0.0
 11
60561.5537241119
 21
-2400.134482716538
 31
0.0
  0
SOLID
  5
11822
330
104B6
100
AcDbEntity
  8
SUNPOU
100
AcDbTrace
 10
60445.5537241119
 20
-2386.801149383204
 30
0.0
 11
60445.5537241119
 21
-2413.467816049871
 31
0.0
 12
60525.5537241119
 22
-2400.134482716538
 32
0.0
 13
60525.5537241119
 23
-2400.134482716538
 33
0.0
  0
SOLID
  5
11823
330
104B6
100
AcDbEntity
  8
SUNPOU
100
AcDbTrace
 10
60641.5537241119
 20
-2386.801149383204
 30
0.0
 11
60641.5537241119
 21
-2413.467816049871
 31
0.0
 12
60561.5537241119
 22
-2400.134482716538
 32
0.0
 13
60561.5537241119
 23
-2400.134482716538
 33
0.0
  0
MTEXT
  5
11824
330
104B6
100
AcDbEntity
  8
SUNPOU
100
AcDbMText
 10
60846.68368199385
 20
-2308.134482716538
 30
0.0
 40
120.0
 41
0.0
 71
     5
 72
     1
  1
\A1;12
 73
     1
 44
1.0
  0
POINT
  5
11825
330
104B6
100
AcDbEntity
  8
DEFPOINTS
 62
     0
100
AcDbPoint
 10
60525.5537241119
 20
-1754.458970088037
 30
0.0
  0
POINT
  5
11826
330
104B6
100
AcDbEntity
  8
DEFPOINTS
 62
     0
100
AcDbPoint
 10
60561.5537241119
 20
-1769.458970088037
 30
0.0
  0
POINT
  5
11827
330
104B6
100
AcDbEntity
  8
DEFPOINTS
 62
     0
100
AcDbPoint
 10
60561.5537241119
 20
-2400.134482716538
 30
0.0
  0
ENDBLK
  5
104C3
330
104B6
100
AcDbEntity
  8
0
100
AcDbBlockEnd
  0
BLOCK
  5
104D0
330
104C4
100
AcDbEntity
  8
0
100
AcDbBlockBegin
  2
*D20
 70
     1
 10
0.0
 20
0.0
 30
0.0
  3
*D20
  1

  0
LINE
  5
11B9A
330
104C4
100
AcDbEntity
  8
SUNPOU
370
    -2
100
AcDbLine
 10
60585.5537241119
 20
861.8982453438821
 30
0.0
 11
60958.55372411191
 21
861.898245343882
 31
0.0
  0
LINE
  5
11B9B
330
104C4
100
AcDbEntity
  8
SUNPOU
370
    -2
100
AcDbLine
 10
60615.5537241119
 20
816.8982453438821
 30
0.0
 11
60958.55372411191
 21
816.898245343882
 31
0.0
  0
LINE
  5
11B9C
330
104C4
100
AcDbEntity
  8
SUNPOU
370
    -2
100
AcDbLine
 10
60934.55372411191
 20
861.898245343882
 30
0.0
 11
60934.55372411191
 21
941.898245343882
 31
0.0
  0
LINE
  5
11B9D
330
104C4
100
AcDbEntity
  8
SUNPOU
370
    -2
100
AcDbLine
 10
60934.55372411191
 20
816.898245343882
 30
0.0
 11
60934.55372411191
 21
464.898245343882
 31
0.0
  0
LINE
  5
11B9E
330
104C4
100
AcDbEntity
  8
SUNPOU
370
    -2
100
AcDbLine
 10
60934.55372411191
 20
861.898245343882
 30
0.0
 11
60934.55372411191
 21
816.898245343882
 31
0.0
  0
INSERT
  5
11B9F
330
104C4
100
AcDbEntity
  8
SUNPOU
370
    -2
100
AcDbBlockReference
  2
_DotSmall
 10
60934.55372411191
 20
861.898245343882
 30
0.0
 41
80.0
 42
80.0
 43
80.0
 50
270.0
  0
INSERT
  5
11BA0
330
104C4
100
AcDbEntity
  8
SUNPOU
370
    -2
100
AcDbBlockReference
  2
_DotSmall
 10
60934.55372411191
 20
816.898245343882
 30
0.0
 41
80.0
 42
80.0
 43
80.0
 50
90.0
  0
MTEXT
  5
11BA1
330
104C4
100
AcDbEntity
  8
SUNPOU
100
AcDbMText
 10
60842.55372411191
 20
560.8982453438917
 30
0.0
 40
120.0
 41
0.0
 71
     5
 72
     1
  1
\A1;15
 11
6.123031769111886E-17
 21
1.0
 31
0.0
 73
     1
 44
1.0
  0
POINT
  5
11BA2
330
104C4
100
AcDbEntity
  8
DEFPOINTS
 62
     0
100
AcDbPoint
 10
60525.5537241119
 20
861.8982453438821
 30
0.0
  0
POINT
  5
11BA3
330
104C4
100
AcDbEntity
  8
DEFPOINTS
 62
     0
100
AcDbPoint
 10
60555.5537241119
 20
816.8982453438821
 30
0.0
  0
POINT
  5
11BA4
330
104C4
100
AcDbEntity
  8
DEFPOINTS
 62
     0
100
AcDbPoint
 10
60934.55372411191
 20
816.898245343882
 30
0.0
  0
ENDBLK
  5
104D1
330
104C4
100
AcDbEntity
  8
0
100
AcDbBlockEnd
  0
BLOCK
  5
104DE
330
104D2
100
AcDbEntity
  8
0
100
AcDbBlockBegin
  2
*D21
 70
     1
 10
0.0
 20
0.0
 30
0.0
  3
*D21
  1

  0
LINE
  5
11B90
330
104D2
100
AcDbEntity
  8
SUNPOU
370
    -2
100
AcDbLine
 10
60594.5537241119
 20
942.8982453438821
 30
0.0
 11
60958.55372411191
 21
942.898245343882
 31
0.0
  0
LINE
  5
11B91
330
104D2
100
AcDbEntity
  8
SUNPOU
370
    -2
100
AcDbLine
 10
60594.5537241119
 20
1008.898245343882
 30
0.0
 11
60958.55372411191
 21
1008.898245343882
 31
0.0
  0
LINE
  5
11B92
330
104D2
100
AcDbEntity
  8
SUNPOU
370
    -2
100
AcDbLine
 10
60934.55372411191
 20
942.898245343882
 30
0.0
 11
60934.55372411191
 21
1008.898245343882
 31
0.0
  0
LINE
  5
11B93
330
104D2
100
AcDbEntity
  8
SUNPOU
370
    -2
100
AcDbLine
 10
60934.55372411191
 20
1008.898245343882
 30
0.0
 11
60934.55372411191
 21
1312.898245343882
 31
0.0
  0
INSERT
  5
11B94
330
104D2
100
AcDbEntity
  8
SUNPOU
370
    -2
100
AcDbBlockReference
  2
_DotSmall
 10
60934.55372411191
 20
942.898245343882
 30
0.0
 41
80.0
 42
80.0
 43
80.0
 50
270.0
  0
INSERT
  5
11B95
330
104D2
100
AcDbEntity
  8
SUNPOU
370
    -2
100
AcDbBlockReference
  2
_DotSmall
 10
60934.55372411191
 20
1008.898245343882
 30
0.0
 41
80.0
 42
80.0
 43
80.0
 50
90.0
  0
MTEXT
  5
11B96
330
104D2
100
AcDbEntity
  8
SUNPOU
100
AcDbMText
 10
60842.55372411191
 20
1200.898245343892
 30
0.0
 40
120.0
 41
0.0
 71
     5
 72
     1
  1
\A1;22
 11
6.123031769111886E-17
 21
1.0
 31
0.0
 73
     1
 44
1.0
  0
POINT
  5
11B97
330
104D2
100
AcDbEntity
  8
DEFPOINTS
 62
     0
100
AcDbPoint
 10
60534.5537241119
 20
942.8982453438821
 30
0.0
  0
POINT
  5
11B98
330
104D2
100
AcDbEntity
  8
DEFPOINTS
 62
     0
100
AcDbPoint
 10
60534.5537241119
 20
1008.898245343882
 30
0.0
  0
POINT
  5
11B99
330
104D2
100
AcDbEntity
  8
DEFPOINTS
 62
     0
100
AcDbPoint
 10
60934.55372411191
 20
1008.898245343882
 30
0.0
  0
ENDBLK
  5
104DF
330
104D2
100
AcDbEntity
  8
0
100
AcDbBlockEnd
  0
BLOCK
  5
104EA
330
104E0
100
AcDbEntity
  8
0
100
AcDbBlockBegin
  2
*D22
 70
     1
 10
0.0
 20
0.0
 30
0.0
  3
*D22
  1

  0
LINE
  5
11B87
330
104E0
100
AcDbEntity
  8
SUNPOU
370
    -2
100
AcDbLine
 10
60585.5537241119
 20
861.8982453438821
 30
0.0
 11
60958.55372411191
 21
861.898245343882
 31
0.0
  0
LINE
  5
11B88
330
104E0
100
AcDbEntity
  8
SUNPOU
370
    -2
100
AcDbLine
 10
60594.5537241119
 20
942.8982453438821
 30
0.0
 11
60958.55372411191
 21
942.898245343882
 31
0.0
  0
LINE
  5
11B89
330
104E0
100
AcDbEntity
  8
SUNPOU
370
    -2
100
AcDbLine
 10
60934.55372411191
 20
861.898245343882
 30
0.0
 11
60934.55372411191
 21
942.898245343882
 31
0.0
  0
INSERT
  5
11B8A
330
104E0
100
AcDbEntity
  8
SUNPOU
370
    -2
100
AcDbBlockReference
  2
_DotSmall
 10
60934.55372411191
 20
861.898245343882
 30
0.0
 41
80.0
 42
80.0
 43
80.0
 50
270.0
  0
INSERT
  5
11B8B
330
104E0
100
AcDbEntity
  8
SUNPOU
370
    -2
100
AcDbBlockReference
  2
_DotSmall
 10
60934.55372411191
 20
942.898245343882
 30
0.0
 41
80.0
 42
80.0
 43
80.0
 50
90.0
  0
MTEXT
  5
11B8C
330
104E0
100
AcDbEntity
  8
SUNPOU
100
AcDbMText
 10
60842.55372411191
 20
902.3982453438917
 30
0.0
 40
120.0
 41
0.0
 71
     5
 72
     1
  1
\A1;27
 11
6.123031769111886E-17
 21
1.0
 31
0.0
 73
     1
 44
1.0
  0
POINT
  5
11B8D
330
104E0
100
AcDbEntity
  8
DEFPOINTS
 62
     0
100
AcDbPoint
 10
60525.5537241119
 20
861.8982453438821
 30
0.0
  0
POINT
  5
11B8E
330
104E0
100
AcDbEntity
  8
DEFPOINTS
 62
     0
100
AcDbPoint
 10
60534.5537241119
 20
942.8982453438821
 30
0.0
  0
POINT
  5
11B8F
330
104E0
100
AcDbEntity
  8
DEFPOINTS
 62
     0
100
AcDbPoint
 10
60934.55372411191
 20
942.898245343882
 30
0.0
  0
ENDBLK
  5
104EB
330
104E0
100
AcDbEntity
  8
0
100
AcDbBlockEnd
  0
BLOCK
  5
104F8
330
104EC
100
AcDbEntity
  8
0
100
AcDbBlockBegin
  2
*D23
 70
     1
 10
0.0
 20
0.0
 30
0.0
  3
*D23
  1

  0
LINE
  5
11B36
330
104EC
100
AcDbEntity
  8
SUNPOU
370
    -2
100
AcDbLine
 10
60585.5537241119
 20
1371.898245343882
 30
0.0
 11
61592.0371224027
 21
1371.898245343882
 31
0.0
  0
LINE
  5
11B37
330
104EC
100
AcDbEntity
  8
SUNPOU
370
    -2
100
AcDbLine
 10
60345.5537241119
 20
1431.898245343882
 30
0.0
 11
61592.0371224027
 21
1431.898245343882
 31
0.0
  0
LINE
  5
11B38
330
104EC
100
AcDbEntity
  8
SUNPOU
370
    -2
100
AcDbLine
 10
61568.0371224027
 20
1291.898245343882
 30
0.0
 11
61568.0371224027
 21
1211.898245343882
 31
0.0
  0
LINE
  5
11B39
330
104EC
100
AcDbEntity
  8
SUNPOU
370
    -2
100
AcDbLine
 10
61568.0371224027
 20
1511.898245343882
 30
0.0
 11
61568.0371224027
 21
1591.898245343882
 31
0.0
  0
LINE
  5
11B3A
330
104EC
100
AcDbEntity
  8
SUNPOU
370
    -2
100
AcDbLine
 10
61568.0371224027
 20
1371.898245343882
 30
0.0
 11
61568.0371224027
 21
1431.898245343882
 31
0.0
  0
SOLID
  5
11B3B
330
104EC
100
AcDbEntity
  8
SUNPOU
100
AcDbTrace
 10
61554.70378906937
 20
1291.898245343882
 30
0.0
 11
61581.37045573604
 21
1291.898245343882
 31
0.0
 12
61568.0371224027
 22
1371.898245343882
 32
0.0
 13
61568.0371224027
 23
1371.898245343882
 33
0.0
  0
SOLID
  5
11B3C
330
104EC
100
AcDbEntity
  8
SUNPOU
100
AcDbTrace
 10
61554.70378906937
 20
1511.898245343882
 30
0.0
 11
61581.37045573604
 21
1511.898245343882
 31
0.0
 12
61568.0371224027
 22
1431.898245343882
 32
0.0
 13
61568.0371224027
 23
1431.898245343882
 33
0.0
  0
MTEXT
  5
11B3D
330
104EC
100
AcDbEntity
  8
SUNPOU
100
AcDbMText
 10
61476.0371224027
 20
1401.898245343892
 30
0.0
 40
120.0
 41
0.0
 71
     5
 72
     1
  1
\A1;20
 11
6.123031769111886E-17
 21
1.0
 31
0.0
 73
     1
 44
1.0
  0
POINT
  5
11B3E
330
104EC
100
AcDbEntity
  8
DEFPOINTS
 62
     0
100
AcDbPoint
 10
60525.5537241119
 20
1371.898245343882
 30
0.0
  0
POINT
  5
11B3F
330
104EC
100
AcDbEntity
  8
DEFPOINTS
 62
     0
100
AcDbPoint
 10
60285.5537241119
 20
1431.898245343882
 30
0.0
  0
POINT
  5
11B40
330
104EC
100
AcDbEntity
  8
DEFPOINTS
 62
     0
100
AcDbPoint
 10
61568.0371224027
 20
1431.898245343882
 30
0.0
  0
ENDBLK
  5
104F9
330
104EC
100
AcDbEntity
  8
0
100
AcDbBlockEnd
  0
BLOCK
  5
10506
330
104FA
100
AcDbEntity
  8
0
100
AcDbBlockBegin
  2
*D24
 70
     1
 10
0.0
 20
0.0
 30
0.0
  3
*D24
  1

  0
LINE
  5
11812
330
104FA
100
AcDbEntity
  8
SUNPOU
370
    -2
100
AcDbLine
 10
60525.5537241119
 20
-1304.458970088037
 30
0.0
 11
60525.5537241119
 21
-676.3379374182102
 31
0.0
  0
LINE
  5
11813
330
104FA
100
AcDbEntity
  8
SUNPOU
370
    -2
100
AcDbLine
 10
60534.5537241119
 20
-1547.458970088037
 30
0.0
 11
60534.5537241119
 21
-676.3379374182102
 31
0.0
  0
LINE
  5
11814
330
104FA
100
AcDbEntity
  8
SUNPOU
370
    -2
100
AcDbLine
 10
60445.5537241119
 20
-700.3379374182102
 30
0.0
 11
60365.5537241119
 21
-700.3379374182102
 31
0.0
  0
LINE
  5
11815
330
104FA
100
AcDbEntity
  8
SUNPOU
370
    -2
100
AcDbLine
 10
60614.5537241119
 20
-700.3379374182102
 30
0.0
 11
60822.5537241119
 21
-700.3379374182102
 31
0.0
  0
LINE
  5
11816
330
104FA
100
AcDbEntity
  8
SUNPOU
370
    -2
100
AcDbLine
 10
60525.5537241119
 20
-700.3379374182102
 30
0.0
 11
60534.5537241119
 21
-700.3379374182102
 31
0.0
  0
SOLID
  5
11817
330
104FA
100
AcDbEntity
  8
SUNPOU
100
AcDbTrace
 10
60445.5537241119
 20
-687.0046040848769
 30
0.0
 11
60445.5537241119
 21
-713.6712707515436
 31
0.0
 12
60525.5537241119
 22
-700.3379374182102
 32
0.0
 13
60525.5537241119
 23
-700.3379374182102
 33
0.0
  0
SOLID
  5
11818
330
104FA
100
AcDbEntity
  8
SUNPOU
100
AcDbTrace
 10
60614.5537241119
 20
-687.0046040848769
 30
0.0
 11
60614.5537241119
 21
-713.6712707515436
 31
0.0
 12
60534.5537241119
 22
-700.3379374182102
 32
0.0
 13
60534.5537241119
 23
-700.3379374182102
 33
0.0
  0
MTEXT
  5
11819
330
104FA
100
AcDbEntity
  8
SUNPOU
100
AcDbMText
 10
60758.5537241119
 20
-608.3379374182102
 30
0.0
 40
120.0
 41
0.0
 71
     5
 72
     1
  1
\A1;3
 73
     1
 44
1.0
  0
POINT
  5
1181A
330
104FA
100
AcDbEntity
  8
DEFPOINTS
 62
     0
100
AcDbPoint
 10
60525.5537241119
 20
-1364.458970088037
 30
0.0
  0
POINT
  5
1181B
330
104FA
100
AcDbEntity
  8
DEFPOINTS
 62
     0
100
AcDbPoint
 10
60534.5537241119
 20
-1607.458970088037
 30
0.0
  0
POINT
  5
1181C
330
104FA
100
AcDbEntity
  8
DEFPOINTS
 62
     0
100
AcDbPoint
 10
60534.5537241119
 20
-700.3379374182102
 30
0.0
  0
ENDBLK
  5
10507
330
104FA
100
AcDbEntity
  8
0
100
AcDbBlockEnd
  0
BLOCK
  5
10512
330
10508
100
AcDbEntity
  8
0
100
AcDbBlockBegin
  2
*D25
 70
     1
 10
0.0
 20
0.0
 30
0.0
  3
*D25
  1

  0
LINE
  5
11B5F
330
10508
100
AcDbEntity
  8
SUNPOU
370
    -2
100
AcDbLine
 10
59228.72522806581
 20
-899.458970088036
 30
0.0
 11
58984.72522806582
 21
-899.4589700880359
 31
0.0
  0
LINE
  5
11B60
330
10508
100
AcDbEntity
  8
SUNPOU
370
    -2
100
AcDbLine
 10
59988.72522806581
 20
-1334.458970088037
 30
0.0
 11
58984.72522806582
 21
-1334.458970088037
 31
0.0
  0
LINE
  5
11B61
330
10508
100
AcDbEntity
  8
SUNPOU
370
    -2
100
AcDbLine
 10
59008.72522806582
 20
-979.4589700880359
 30
0.0
 11
59008.72522806582
 21
-1254.458970088037
 31
0.0
  0
SOLID
  5
11B62
330
10508
100
AcDbEntity
  8
SUNPOU
100
AcDbTrace
 10
58995.39189473249
 20
-979.4589700880359
 30
0.0
 11
59022.05856139916
 21
-979.4589700880359
 31
0.0
 12
59008.72522806582
 22
-899.4589700880359
 32
0.0
 13
59008.72522806582
 23
-899.4589700880359
 33
0.0
  0
SOLID
  5
11B63
330
10508
100
AcDbEntity
  8
SUNPOU
100
AcDbTrace
 10
58995.39189473249
 20
-1254.458970088037
 30
0.0
 11
59022.05856139916
 21
-1254.458970088037
 31
0.0
 12
59008.72522806582
 22
-1334.458970088037
 32
0.0
 13
59008.72522806582
 23
-1334.458970088037
 33
0.0
  0
MTEXT
  5
11B64
330
10508
100
AcDbEntity
  8
SUNPOU
100
AcDbMText
 10
58916.72522806582
 20
-1116.958970088027
 30
0.0
 40
120.0
 41
0.0
 71
     5
 72
     1
  1
\A1;145
 11
6.123031769111886E-17
 21
1.0
 31
0.0
 73
     1
 44
1.0
  0
POINT
  5
11B65
330
10508
100
AcDbEntity
  8
DEFPOINTS
 62
     0
100
AcDbPoint
 10
59288.72522806581
 20
-899.458970088036
 30
0.0
  0
POINT
  5
11B66
330
10508
100
AcDbEntity
  8
DEFPOINTS
 62
     0
100
AcDbPoint
 10
60048.72522806581
 20
-1334.458970088037
 30
0.0
  0
POINT
  5
11B67
330
10508
100
AcDbEntity
  8
DEFPOINTS
 62
     0
100
AcDbPoint
 10
59008.72522806582
 20
-1334.458970088037
 30
0.0
  0
ENDBLK
  5
10513
330
10508
100
AcDbEntity
  8
0
100
AcDbBlockEnd
  0
BLOCK
  5
10520
330
10514
100
AcDbEntity
  8
0
100
AcDbBlockBegin
  2
*D26
 70
     1
 10
0.0
 20
0.0
 30
0.0
  3
*D26
  1

  0
LINE
  5
11B54
330
10514
100
AcDbEntity
  8
SUNPOU
370
    -2
100
AcDbLine
 10
59988.72522806581
 20
-1334.458970088037
 30
0.0
 11
58984.72522806582
 21
-1334.458970088037
 31
0.0
  0
LINE
  5
11B55
330
10514
100
AcDbEntity
  8
SUNPOU
370
    -2
100
AcDbLine
 10
60228.72522806581
 20
-1394.458970088037
 30
0.0
 11
58984.72522806582
 21
-1394.458970088037
 31
0.0
  0
LINE
  5
11B56
330
10514
100
AcDbEntity
  8
SUNPOU
370
    -2
100
AcDbLine
 10
59008.72522806582
 20
-1254.458970088037
 30
0.0
 11
59008.72522806582
 21
-1174.458970088037
 31
0.0
  0
LINE
  5
11B57
330
10514
100
AcDbEntity
  8
SUNPOU
370
    -2
100
AcDbLine
 10
59008.72522806582
 20
-1474.458970088037
 30
0.0
 11
59008.72522806582
 21
-1554.458970088037
 31
0.0
  0
LINE
  5
11B58
330
10514
100
AcDbEntity
  8
SUNPOU
370
    -2
100
AcDbLine
 10
59008.72522806582
 20
-1334.458970088037
 30
0.0
 11
59008.72522806582
 21
-1394.458970088037
 31
0.0
  0
SOLID
  5
11B59
330
10514
100
AcDbEntity
  8
SUNPOU
100
AcDbTrace
 10
58995.39189473249
 20
-1254.458970088037
 30
0.0
 11
59022.05856139916
 21
-1254.458970088037
 31
0.0
 12
59008.72522806582
 22
-1334.458970088037
 32
0.0
 13
59008.72522806582
 23
-1334.458970088037
 33
0.0
  0
SOLID
  5
11B5A
330
10514
100
AcDbEntity
  8
SUNPOU
100
AcDbTrace
 10
58995.39189473249
 20
-1474.458970088037
 30
0.0
 11
59022.05856139916
 21
-1474.458970088037
 31
0.0
 12
59008.72522806582
 22
-1394.458970088037
 32
0.0
 13
59008.72522806582
 23
-1394.458970088037
 33
0.0
  0
MTEXT
  5
11B5B
330
10514
100
AcDbEntity
  8
SUNPOU
100
AcDbMText
 10
58916.72522806582
 20
-1364.458970088027
 30
0.0
 40
120.0
 41
0.0
 71
     5
 72
     1
  1
\A1;20
 11
6.123031769111886E-17
 21
1.0
 31
0.0
 73
     1
 44
1.0
  0
POINT
  5
11B5C
330
10514
100
AcDbEntity
  8
DEFPOINTS
 62
     0
100
AcDbPoint
 10
60048.72522806581
 20
-1334.458970088037
 30
0.0
  0
POINT
  5
11B5D
330
10514
100
AcDbEntity
  8
DEFPOINTS
 62
     0
100
AcDbPoint
 10
60288.72522806581
 20
-1394.458970088037
 30
0.0
  0
POINT
  5
11B5E
330
10514
100
AcDbEntity
  8
DEFPOINTS
 62
     0
100
AcDbPoint
 10
59008.72522806582
 20
-1394.458970088037
 30
0.0
  0
ENDBLK
  5
10521
330
10514
100
AcDbEntity
  8
0
100
AcDbBlockEnd
  0
BLOCK
  5
1052E
330
10522
100
AcDbEntity
  8
0
100
AcDbBlockBegin
  2
*D27
 70
     1
 10
0.0
 20
0.0
 30
0.0
  3
*D27
  1

  0
LINE
  5
11B7B
330
10522
100
AcDbEntity
  8
SUNPOU
370
    -2
100
AcDbLine
 10
60585.5537241119
 20
-1364.458970088037
 30
0.0
 11
61592.72522806581
 21
-1364.458970088037
 31
0.0
  0
LINE
  5
11B7C
330
10522
100
AcDbEntity
  8
SUNPOU
370
    -2
100
AcDbLine
 10
60345.5537241119
 20
-1304.458970088037
 30
0.0
 11
61592.72522806581
 21
-1304.458970088037
 31
0.0
  0
LINE
  5
11B7D
330
10522
100
AcDbEntity
  8
SUNPOU
370
    -2
100
AcDbLine
 10
61568.72522806581
 20
-1444.458970088037
 30
0.0
 11
61568.72522806581
 21
-1524.458970088037
 31
0.0
  0
LINE
  5
11B7E
330
10522
100
AcDbEntity
  8
SUNPOU
370
    -2
100
AcDbLine
 10
61568.72522806581
 20
-1224.458970088037
 30
0.0
 11
61568.72522806581
 21
-1144.458970088037
 31
0.0
  0
LINE
  5
11B7F
330
10522
100
AcDbEntity
  8
SUNPOU
370
    -2
100
AcDbLine
 10
61568.72522806581
 20
-1364.458970088037
 30
0.0
 11
61568.72522806581
 21
-1304.458970088037
 31
0.0
  0
SOLID
  5
11B80
330
10522
100
AcDbEntity
  8
SUNPOU
100
AcDbTrace
 10
61555.39189473248
 20
-1444.458970088037
 30
0.0
 11
61582.05856139915
 21
-1444.458970088037
 31
0.0
 12
61568.72522806581
 22
-1364.458970088037
 32
0.0
 13
61568.72522806581
 23
-1364.458970088037
 33
0.0
  0
SOLID
  5
11B81
330
10522
100
AcDbEntity
  8
SUNPOU
100
AcDbTrace
 10
61555.39189473248
 20
-1224.458970088037
 30
0.0
 11
61582.05856139915
 21
-1224.458970088037
 31
0.0
 12
61568.72522806581
 22
-1304.458970088037
 32
0.0
 13
61568.72522806581
 23
-1304.458970088037
 33
0.0
  0
MTEXT
  5
11B82
330
10522
100
AcDbEntity
  8
SUNPOU
100
AcDbMText
 10
61476.72522806581
 20
-1334.458970088027
 30
0.0
 40
120.0
 41
0.0
 71
     5
 72
     1
  1
\A1;20
 11
6.123031769111886E-17
 21
1.0
 31
0.0
 73
     1
 44
1.0
  0
POINT
  5
11B83
330
10522
100
AcDbEntity
  8
DEFPOINTS
 62
     0
100
AcDbPoint
 10
60525.5537241119
 20
-1364.458970088037
 30
0.0
  0
POINT
  5
11B84
330
10522
100
AcDbEntity
  8
DEFPOINTS
 62
     0
100
AcDbPoint
 10
60285.5537241119
 20
-1304.458970088037
 30
0.0
  0
POINT
  5
11B85
330
10522
100
AcDbEntity
  8
DEFPOINTS
 62
     0
100
AcDbPoint
 10
61568.72522806581
 20
-1304.458970088037
 30
0.0
  0
ENDBLK
  5
1052F
330
10522
100
AcDbEntity
  8
0
100
AcDbBlockEnd
  0
BLOCK
  5
1053A
330
10530
100
AcDbEntity
  8
0
100
AcDbBlockBegin
  2
*D28
 70
     1
 10
0.0
 20
0.0
 30
0.0
  3
*D28
  1

  0
LINE
  5
117EA
330
10530
100
AcDbEntity
  8
SUNPOU
370
    -2
100
AcDbLine
 10
60525.5537241119
 20
-1304.458970088037
 30
0.0
 11
60525.5537241119
 21
-396.3379374182102
 31
0.0
  0
LINE
  5
117EB
330
10530
100
AcDbEntity
  8
SUNPOU
370
    -2
100
AcDbLine
 10
60285.5537241119
 20
-839.458970088036
 30
0.0
 11
60285.5537241119
 21
-396.3379374182102
 31
0.0
  0
LINE
  5
117EC
330
10530
100
AcDbEntity
  8
SUNPOU
370
    -2
100
AcDbLine
 10
60445.5537241119
 20
-420.3379374182102
 30
0.0
 11
60365.5537241119
 21
-420.3379374182102
 31
0.0
  0
SOLID
  5
117ED
330
10530
100
AcDbEntity
  8
SUNPOU
100
AcDbTrace
 10
60445.5537241119
 20
-407.0046040848769
 30
0.0
 11
60445.5537241119
 21
-433.6712707515435
 31
0.0
 12
60525.5537241119
 22
-420.3379374182102
 32
0.0
 13
60525.5537241119
 23
-420.3379374182102
 33
0.0
  0
SOLID
  5
117EE
330
10530
100
AcDbEntity
  8
SUNPOU
100
AcDbTrace
 10
60365.5537241119
 20
-407.0046040848769
 30
0.0
 11
60365.5537241119
 21
-433.6712707515435
 31
0.0
 12
60285.5537241119
 22
-420.3379374182102
 32
0.0
 13
60285.5537241119
 23
-420.3379374182102
 33
0.0
  0
MTEXT
  5
117EF
330
10530
100
AcDbEntity
  8
SUNPOU
100
AcDbMText
 10
60405.5537241119
 20
-328.3379374182102
 30
0.0
 40
120.0
 41
0.0
 71
     5
 72
     1
  1
\A1;80
 73
     1
 44
1.0
  0
POINT
  5
117F0
330
10530
100
AcDbEntity
  8
DEFPOINTS
 62
     0
100
AcDbPoint
 10
60525.5537241119
 20
-1364.458970088037
 30
0.0
  0
POINT
  5
117F1
330
10530
100
AcDbEntity
  8
DEFPOINTS
 62
     0
100
AcDbPoint
 10
60285.5537241119
 20
-899.458970088036
 30
0.0
  0
POINT
  5
117F2
330
10530
100
AcDbEntity
  8
DEFPOINTS
 62
     0
100
AcDbPoint
 10
60285.5537241119
 20
-420.3379374182102
 30
0.0
  0
ENDBLK
  5
1053B
330
10530
100
AcDbEntity
  8
0
100
AcDbBlockEnd
  0
BLOCK
  5
10546
330
1053C
100
AcDbEntity
  8
0
100
AcDbBlockBegin
  2
*D29
 70
     1
 10
0.0
 20
0.0
 30
0.0
  3
*D29
  1

  0
LINE
  5
11B72
330
1053C
100
AcDbEntity
  8
SUNPOU
370
    -2
100
AcDbLine
 10
60345.5537241119
 20
-1304.458970088037
 30
0.0
 11
61592.72522806581
 21
-1304.458970088037
 31
0.0
  0
LINE
  5
11B73
330
1053C
100
AcDbEntity
  8
SUNPOU
370
    -2
100
AcDbLine
 10
61348.72522806581
 20
-899.458970088037
 30
0.0
 11
61592.72522806581
 21
-899.458970088037
 31
0.0
  0
LINE
  5
11B74
330
1053C
100
AcDbEntity
  8
SUNPOU
370
    -2
100
AcDbLine
 10
61568.72522806581
 20
-1224.458970088037
 30
0.0
 11
61568.72522806581
 21
-979.458970088037
 31
0.0
  0
SOLID
  5
11B75
330
1053C
100
AcDbEntity
  8
SUNPOU
100
AcDbTrace
 10
61555.39189473248
 20
-1224.458970088037
 30
0.0
 11
61582.05856139915
 21
-1224.458970088037
 31
0.0
 12
61568.72522806581
 22
-1304.458970088037
 32
0.0
 13
61568.72522806581
 23
-1304.458970088037
 33
0.0
  0
SOLID
  5
11B76
330
1053C
100
AcDbEntity
  8
SUNPOU
100
AcDbTrace
 10
61555.39189473248
 20
-979.458970088037
 30
0.0
 11
61582.05856139915
 21
-979.458970088037
 31
0.0
 12
61568.72522806581
 22
-899.458970088037
 32
0.0
 13
61568.72522806581
 23
-899.458970088037
 33
0.0
  0
MTEXT
  5
11B77
330
1053C
100
AcDbEntity
  8
SUNPOU
100
AcDbMText
 10
61476.72522806581
 20
-1101.958970088027
 30
0.0
 40
120.0
 41
0.0
 71
     5
 72
     1
  1
\A1;135
 11
6.123031769111886E-17
 21
1.0
 31
0.0
 73
     1
 44
1.0
  0
POINT
  5
11B78
330
1053C
100
AcDbEntity
  8
DEFPOINTS
 62
     0
100
AcDbPoint
 10
60285.5537241119
 20
-1304.458970088037
 30
0.0
  0
POINT
  5
11B79
330
1053C
100
AcDbEntity
  8
DEFPOINTS
 62
     0
100
AcDbPoint
 10
61288.72522806581
 20
-899.458970088037
 30
0.0
  0
POINT
  5
11B7A
330
1053C
100
AcDbEntity
  8
DEFPOINTS
 62
     0
100
AcDbPoint
 10
61568.72522806581
 20
-899.458970088037
 30
0.0
  0
ENDBLK
  5
10547
330
1053C
100
AcDbEntity
  8
0
100
AcDbBlockEnd
  0
BLOCK
  5
10552
330
10548
100
AcDbEntity
  8
0
100
AcDbBlockBegin
  2
*D30
 70
     1
 10
0.0
 20
0.0
 30
0.0
  3
*D30
  1

  0
LINE
  5
117D8
330
10548
100
AcDbEntity
  8
SUNPOU
370
    -2
100
AcDbLine
 10
60048.72522806581
 20
-1394.458970088037
 30
0.0
 11
60048.72522806581
 21
-2078.458970088037
 31
0.0
  0
LINE
  5
117D9
330
10548
100
AcDbEntity
  8
SUNPOU
370
    -2
100
AcDbLine
 10
60288.72522806581
 20
-1859.458970088037
 30
0.0
 11
60288.72522806581
 21
-2078.458970088037
 31
0.0
  0
LINE
  5
117DA
330
10548
100
AcDbEntity
  8
SUNPOU
370
    -2
100
AcDbLine
 10
60128.72522806581
 20
-2054.458970088037
 30
0.0
 11
60208.72522806581
 21
-2054.458970088037
 31
0.0
  0
SOLID
  5
117DB
330
10548
100
AcDbEntity
  8
SUNPOU
100
AcDbTrace
 10
60128.72522806581
 20
-2041.125636754704
 30
0.0
 11
60128.72522806581
 21
-2067.79230342137
 31
0.0
 12
60048.72522806581
 22
-2054.458970088037
 32
0.0
 13
60048.72522806581
 23
-2054.458970088037
 33
0.0
  0
SOLID
  5
117DC
330
10548
100
AcDbEntity
  8
SUNPOU
100
AcDbTrace
 10
60208.72522806581
 20
-2041.125636754704
 30
0.0
 11
60208.72522806581
 21
-2067.79230342137
 31
0.0
 12
60288.72522806581
 22
-2054.458970088037
 32
0.0
 13
60288.72522806581
 23
-2054.458970088037
 33
0.0
  0
MTEXT
  5
117DD
330
10548
100
AcDbEntity
  8
SUNPOU
100
AcDbMText
 10
60168.72522806581
 20
-1962.458970088037
 30
0.0
 40
120.0
 41
0.0
 71
     5
 72
     1
  1
\A1;80
 73
     1
 44
1.0
  0
POINT
  5
117DE
330
10548
100
AcDbEntity
  8
DEFPOINTS
 62
     0
100
AcDbPoint
 10
60048.72522806581
 20
-1334.458970088037
 30
0.0
  0
POINT
  5
117DF
330
10548
100
AcDbEntity
  8
DEFPOINTS
 62
     0
100
AcDbPoint
 10
60288.72522806581
 20
-1799.458970088037
 30
0.0
  0
POINT
  5
117E0
330
10548
100
AcDbEntity
  8
DEFPOINTS
 62
     0
100
AcDbPoint
 10
60288.72522806581
 20
-2054.458970088037
 30
0.0
  0
ENDBLK
  5
10553
330
10548
100
AcDbEntity
  8
0
100
AcDbBlockEnd
  0
BLOCK
  5
1055E
330
10554
100
AcDbEntity
  8
0
100
AcDbBlockBegin
  2
*D31
 70
     1
 10
0.0
 20
0.0
 30
0.0
  3
*D31
  1

  0
LINE
  5
11B4B
330
10554
100
AcDbEntity
  8
SUNPOU
370
    -2
100
AcDbLine
 10
59228.72522806581
 20
-899.458970088036
 30
0.0
 11
58704.72522806582
 21
-899.4589700880359
 31
0.0
  0
LINE
  5
11B4C
330
10554
100
AcDbEntity
  8
SUNPOU
370
    -2
100
AcDbLine
 10
59228.72522806581
 20
-1799.458970088037
 30
0.0
 11
58704.72522806582
 21
-1799.458970088037
 31
0.0
  0
LINE
  5
11B4D
330
10554
100
AcDbEntity
  8
SUNPOU
370
    -2
100
AcDbLine
 10
58728.72522806582
 20
-979.4589700880359
 30
0.0
 11
58728.72522806582
 21
-1719.458970088037
 31
0.0
  0
SOLID
  5
11B4E
330
10554
100
AcDbEntity
  8
SUNPOU
100
AcDbTrace
 10
58715.39189473249
 20
-979.4589700880359
 30
0.0
 11
58742.05856139916
 21
-979.4589700880359
 31
0.0
 12
58728.72522806582
 22
-899.4589700880359
 32
0.0
 13
58728.72522806582
 23
-899.4589700880359
 33
0.0
  0
SOLID
  5
11B4F
330
10554
100
AcDbEntity
  8
SUNPOU
100
AcDbTrace
 10
58715.39189473249
 20
-1719.458970088037
 30
0.0
 11
58742.05856139916
 21
-1719.458970088037
 31
0.0
 12
58728.72522806582
 22
-1799.458970088037
 32
0.0
 13
58728.72522806582
 23
-1799.458970088037
 33
0.0
  0
MTEXT
  5
11B50
330
10554
100
AcDbEntity
  8
SUNPOU
100
AcDbMText
 10
58636.72522806582
 20
-1349.458970088027
 30
0.0
 40
120.0
 41
0.0
 71
     5
 72
     1
  1
\A1;300
 11
6.123031769111886E-17
 21
1.0
 31
0.0
 73
     1
 44
1.0
  0
POINT
  5
11B51
330
10554
100
AcDbEntity
  8
DEFPOINTS
 62
     0
100
AcDbPoint
 10
59288.72522806581
 20
-899.458970088036
 30
0.0
  0
POINT
  5
11B52
330
10554
100
AcDbEntity
  8
DEFPOINTS
 62
     0
100
AcDbPoint
 10
59288.72522806581
 20
-1799.458970088037
 30
0.0
  0
POINT
  5
11B53
330
10554
100
AcDbEntity
  8
DEFPOINTS
 62
     0
100
AcDbPoint
 10
58728.72522806582
 20
-1799.458970088037
 30
0.0
  0
ENDBLK
  5
1055F
330
10554
100
AcDbEntity
  8
0
100
AcDbBlockEnd
  0
BLOCK
  5
1056A
330
10560
100
AcDbEntity
  8
0
100
AcDbBlockBegin
  2
*D32
 70
     1
 10
0.0
 20
0.0
 30
0.0
  3
*D32
  1

  0
LINE
  5
11B42
330
10560
100
AcDbEntity
  8
SUNPOU
370
    -2
100
AcDbLine
 10
60228.72522806581
 20
-1394.458970088037
 30
0.0
 11
58984.72522806582
 21
-1394.458970088037
 31
0.0
  0
LINE
  5
11B43
330
10560
100
AcDbEntity
  8
SUNPOU
370
    -2
100
AcDbLine
 10
59228.72522806581
 20
-1799.458970088037
 30
0.0
 11
58984.72522806582
 21
-1799.458970088037
 31
0.0
  0
LINE
  5
11B44
330
10560
100
AcDbEntity
  8
SUNPOU
370
    -2
100
AcDbLine
 10
59008.72522806582
 20
-1474.458970088037
 30
0.0
 11
59008.72522806582
 21
-1719.458970088037
 31
0.0
  0
SOLID
  5
11B45
330
10560
100
AcDbEntity
  8
SUNPOU
100
AcDbTrace
 10
58995.39189473249
 20
-1474.458970088037
 30
0.0
 11
59022.05856139916
 21
-1474.458970088037
 31
0.0
 12
59008.72522806582
 22
-1394.458970088037
 32
0.0
 13
59008.72522806582
 23
-1394.458970088037
 33
0.0
  0
SOLID
  5
11B46
330
10560
100
AcDbEntity
  8
SUNPOU
100
AcDbTrace
 10
58995.39189473249
 20
-1719.458970088037
 30
0.0
 11
59022.05856139916
 21
-1719.458970088037
 31
0.0
 12
59008.72522806582
 22
-1799.458970088037
 32
0.0
 13
59008.72522806582
 23
-1799.458970088037
 33
0.0
  0
MTEXT
  5
11B47
330
10560
100
AcDbEntity
  8
SUNPOU
100
AcDbMText
 10
58916.72522806582
 20
-1596.958970088027
 30
0.0
 40
120.0
 41
0.0
 71
     5
 72
     1
  1
\A1;135
 11
6.123031769111886E-17
 21
1.0
 31
0.0
 73
     1
 44
1.0
  0
POINT
  5
11B48
330
10560
100
AcDbEntity
  8
DEFPOINTS
 62
     0
100
AcDbPoint
 10
60288.72522806581
 20
-1394.458970088037
 30
0.0
  0
POINT
  5
11B49
330
10560
100
AcDbEntity
  8
DEFPOINTS
 62
     0
100
AcDbPoint
 10
59288.72522806581
 20
-1799.458970088037
 30
0.0
  0
POINT
  5
11B4A
330
10560
100
AcDbEntity
  8
DEFPOINTS
 62
     0
100
AcDbPoint
 10
59008.72522806582
 20
-1799.458970088037
 30
0.0
  0
ENDBLK
  5
1056B
330
10560
100
AcDbEntity
  8
0
100
AcDbBlockEnd
  0
BLOCK
  5
10578
330
1056C
100
AcDbEntity
  8
0
100
AcDbBlockBegin
  2
*D33
 70
     1
 10
0.0
 20
0.0
 30
0.0
  3
*D33
  1

  0
LINE
  5
11BBC
330
1056C
100
AcDbEntity
  8
SUNPOU
370
    -2
100
AcDbLine
 10
60594.5537241119
 20
-1673.458970088037
 30
0.0
 11
60958.55372411191
 21
-1673.458970088037
 31
0.0
  0
LINE
  5
11BBD
330
1056C
100
AcDbEntity
  8
SUNPOU
370
    -2
100
AcDbLine
 10
60594.5537241119
 20
-1607.458970088037
 30
0.0
 11
60958.55372411191
 21
-1607.458970088037
 31
0.0
  0
LINE
  5
11BBE
330
1056C
100
AcDbEntity
  8
SUNPOU
370
    -2
100
AcDbLine
 10
60934.55372411191
 20
-1673.458970088037
 30
0.0
 11
60934.55372411191
 21
-1607.458970088037
 31
0.0
  0
LINE
  5
11BBF
330
1056C
100
AcDbEntity
  8
SUNPOU
370
    -2
100
AcDbLine
 10
60934.55372411191
 20
-1607.458970088037
 30
0.0
 11
60934.55372411191
 21
-1303.458970088036
 31
0.0
  0
INSERT
  5
11BC0
330
1056C
100
AcDbEntity
  8
SUNPOU
370
    -2
100
AcDbBlockReference
  2
_DotSmall
 10
60934.55372411191
 20
-1673.458970088037
 30
0.0
 41
80.0
 42
80.0
 43
80.0
 50
270.0
  0
INSERT
  5
11BC1
330
1056C
100
AcDbEntity
  8
SUNPOU
370
    -2
100
AcDbBlockReference
  2
_DotSmall
 10
60934.55372411191
 20
-1607.458970088037
 30
0.0
 41
80.0
 42
80.0
 43
80.0
 50
90.0
  0
MTEXT
  5
11BC2
330
1056C
100
AcDbEntity
  8
SUNPOU
100
AcDbMText
 10
60842.55372411191
 20
-1415.458970088026
 30
0.0
 40
120.0
 41
0.0
 71
     5
 72
     1
  1
\A1;22
 11
6.123031769111886E-17
 21
1.0
 31
0.0
 73
     1
 44
1.0
  0
POINT
  5
11BC3
330
1056C
100
AcDbEntity
  8
DEFPOINTS
 62
     0
100
AcDbPoint
 10
60534.5537241119
 20
-1673.458970088037
 30
0.0
  0
POINT
  5
11BC4
330
1056C
100
AcDbEntity
  8
DEFPOINTS
 62
     0
100
AcDbPoint
 10
60534.5537241119
 20
-1607.458970088037
 30
0.0
  0
POINT
  5
11BC5
330
1056C
100
AcDbEntity
  8
DEFPOINTS
 62
     0
100
AcDbPoint
 10
60934.55372411191
 20
-1607.458970088037
 30
0.0
  0
ENDBLK
  5
10579
330
1056C
100
AcDbEntity
  8
0
100
AcDbBlockEnd
  0
BLOCK
  5
10586
330
1057A
100
AcDbEntity
  8
0
100
AcDbBlockBegin
  2
*D34
 70
     1
 10
0.0
 20
0.0
 30
0.0
  3
*D34
  1

  0
LINE
  5
11BB1
330
1057A
100
AcDbEntity
  8
SUNPOU
370
    -2
100
AcDbLine
 10
60585.5537241119
 20
-1754.458970088037
 30
0.0
 11
60958.55372411191
 21
-1754.458970088037
 31
0.0
  0
LINE
  5
11BB2
330
1057A
100
AcDbEntity
  8
SUNPOU
370
    -2
100
AcDbLine
 10
60594.5537241119
 20
-1673.458970088037
 30
0.0
 11
60958.55372411191
 21
-1673.458970088037
 31
0.0
  0
LINE
  5
11BB3
330
1057A
100
AcDbEntity
  8
SUNPOU
370
    -2
100
AcDbLine
 10
60934.55372411191
 20
-1754.458970088037
 30
0.0
 11
60934.55372411191
 21
-1834.458970088037
 31
0.0
  0
LINE
  5
11BB4
330
1057A
100
AcDbEntity
  8
SUNPOU
370
    -2
100
AcDbLine
 10
60934.55372411191
 20
-1673.458970088037
 30
0.0
 11
60934.55372411191
 21
-1593.458970088037
 31
0.0
  0
LINE
  5
11BB5
330
1057A
100
AcDbEntity
  8
SUNPOU
370
    -2
100
AcDbLine
 10
60934.55372411191
 20
-1754.458970088037
 30
0.0
 11
60934.55372411191
 21
-1673.458970088037
 31
0.0
  0
INSERT
  5
11BB6
330
1057A
100
AcDbEntity
  8
SUNPOU
370
    -2
100
AcDbBlockReference
  2
_DotSmall
 10
60934.55372411191
 20
-1754.458970088037
 30
0.0
 41
80.0
 42
80.0
 43
80.0
 50
90.0
  0
INSERT
  5
11BB7
330
1057A
100
AcDbEntity
  8
SUNPOU
370
    -2
100
AcDbBlockReference
  2
_DotSmall
 10
60934.55372411191
 20
-1673.458970088037
 30
0.0
 41
80.0
 42
80.0
 43
80.0
 50
270.0
  0
MTEXT
  5
11BB8
330
1057A
100
AcDbEntity
  8
SUNPOU
100
AcDbMText
 10
60842.55372411191
 20
-1713.958970088027
 30
0.0
 40
120.0
 41
0.0
 71
     5
 72
     1
  1
\A1;27
 11
6.123031769111886E-17
 21
1.0
 31
0.0
 73
     1
 44
1.0
  0
POINT
  5
11BB9
330
1057A
100
AcDbEntity
  8
DEFPOINTS
 62
     0
100
AcDbPoint
 10
60525.5537241119
 20
-1754.458970088037
 30
0.0
  0
POINT
  5
11BBA
330
1057A
100
AcDbEntity
  8
DEFPOINTS
 62
     0
100
AcDbPoint
 10
60534.5537241119
 20
-1673.458970088037
 30
0.0
  0
POINT
  5
11BBB
330
1057A
100
AcDbEntity
  8
DEFPOINTS
 62
     0
100
AcDbPoint
 10
60934.55372411191
 20
-1673.458970088037
 30
0.0
  0
ENDBLK
  5
10587
330
1057A
100
AcDbEntity
  8
0
100
AcDbBlockEnd
  0
BLOCK
  5
10594
330
10588
100
AcDbEntity
  8
0
100
AcDbBlockBegin
  2
*D35
 70
     1
 10
0.0
 20
0.0
 30
0.0
  3
*D35
  1

  0
LINE
  5
11BA6
330
10588
100
AcDbEntity
  8
SUNPOU
370
    -2
100
AcDbLine
 10
60585.5537241119
 20
-1754.458970088037
 30
0.0
 11
60958.55372411191
 21
-1754.458970088037
 31
0.0
  0
LINE
  5
11BA7
330
10588
100
AcDbEntity
  8
SUNPOU
370
    -2
100
AcDbLine
 10
60615.5537241119
 20
-1799.458970088037
 30
0.0
 11
60958.55372411191
 21
-1799.458970088037
 31
0.0
  0
LINE
  5
11BA8
330
10588
100
AcDbEntity
  8
SUNPOU
370
    -2
100
AcDbLine
 10
60934.55372411191
 20
-1754.458970088037
 30
0.0
 11
60934.55372411191
 21
-1674.458970088037
 31
0.0
  0
LINE
  5
11BA9
330
10588
100
AcDbEntity
  8
SUNPOU
370
    -2
100
AcDbLine
 10
60934.55372411191
 20
-1799.458970088037
 30
0.0
 11
60934.55372411191
 21
-2151.458970088037
 31
0.0
  0
LINE
  5
11BAA
330
10588
100
AcDbEntity
  8
SUNPOU
370
    -2
100
AcDbLine
 10
60934.55372411191
 20
-1754.458970088037
 30
0.0
 11
60934.55372411191
 21
-1799.458970088037
 31
0.0
  0
INSERT
  5
11BAB
330
10588
100
AcDbEntity
  8
SUNPOU
370
    -2
100
AcDbBlockReference
  2
_DotSmall
 10
60934.55372411191
 20
-1754.458970088037
 30
0.0
 41
80.0
 42
80.0
 43
80.0
 50
270.0
  0
INSERT
  5
11BAC
330
10588
100
AcDbEntity
  8
SUNPOU
370
    -2
100
AcDbBlockReference
  2
_DotSmall
 10
60934.55372411191
 20
-1799.458970088037
 30
0.0
 41
80.0
 42
80.0
 43
80.0
 50
90.0
  0
MTEXT
  5
11BAD
330
10588
100
AcDbEntity
  8
SUNPOU
100
AcDbMText
 10
60842.55372411191
 20
-2055.458970088027
 30
0.0
 40
120.0
 41
0.0
 71
     5
 72
     1
  1
\A1;15
 11
6.123031769111886E-17
 21
1.0
 31
0.0
 73
     1
 44
1.0
  0
POINT
  5
11BAE
330
10588
100
AcDbEntity
  8
DEFPOINTS
 62
     0
100
AcDbPoint
 10
60525.5537241119
 20
-1754.458970088037
 30
0.0
  0
POINT
  5
11BAF
330
10588
100
AcDbEntity
  8
DEFPOINTS
 62
     0
100
AcDbPoint
 10
60555.5537241119
 20
-1799.458970088037
 30
0.0
  0
POINT
  5
11BB0
330
10588
100
AcDbEntity
  8
DEFPOINTS
 62
     0
100
AcDbPoint
 10
60934.55372411191
 20
-1799.458970088037
 30
0.0
  0
ENDBLK
  5
10595
330
10588
100
AcDbEntity
  8
0
100
AcDbBlockEnd
  0
BLOCK
  5
105A0
330
10596
100
AcDbEntity
  8
0
100
AcDbBlockBegin
  2
*D36
 70
     1
 10
0.0
 20
0.0
 30
0.0
  3
*D36
  1

  0
LINE
  5
11B69
330
10596
100
AcDbEntity
  8
SUNPOU
370
    -2
100
AcDbLine
 10
60585.5537241119
 20
-1364.458970088037
 30
0.0
 11
61592.72522806581
 21
-1364.458970088037
 31
0.0
  0
LINE
  5
11B6A
330
10596
100
AcDbEntity
  8
SUNPOU
370
    -2
100
AcDbLine
 10
61348.72522806581
 20
-1799.458970088037
 30
0.0
 11
61592.72522806581
 21
-1799.458970088037
 31
0.0
  0
LINE
  5
11B6B
330
10596
100
AcDbEntity
  8
SUNPOU
370
    -2
100
AcDbLine
 10
61568.72522806581
 20
-1444.458970088037
 30
0.0
 11
61568.72522806581
 21
-1719.458970088037
 31
0.0
  0
SOLID
  5
11B6C
330
10596
100
AcDbEntity
  8
SUNPOU
100
AcDbTrace
 10
61555.39189473248
 20
-1444.458970088037
 30
0.0
 11
61582.05856139915
 21
-1444.458970088037
 31
0.0
 12
61568.72522806581
 22
-1364.458970088037
 32
0.0
 13
61568.72522806581
 23
-1364.458970088037
 33
0.0
  0
SOLID
  5
11B6D
330
10596
100
AcDbEntity
  8
SUNPOU
100
AcDbTrace
 10
61555.39189473248
 20
-1719.458970088037
 30
0.0
 11
61582.05856139915
 21
-1719.458970088037
 31
0.0
 12
61568.72522806581
 22
-1799.458970088037
 32
0.0
 13
61568.72522806581
 23
-1799.458970088037
 33
0.0
  0
MTEXT
  5
11B6E
330
10596
100
AcDbEntity
  8
SUNPOU
100
AcDbMText
 10
61476.72522806581
 20
-1581.958970088027
 30
0.0
 40
120.0
 41
0.0
 71
     5
 72
     1
  1
\A1;145
 11
6.123031769111886E-17
 21
1.0
 31
0.0
 73
     1
 44
1.0
  0
POINT
  5
11B6F
330
10596
100
AcDbEntity
  8
DEFPOINTS
 62
     0
100
AcDbPoint
 10
60525.5537241119
 20
-1364.458970088037
 30
0.0
  0
POINT
  5
11B70
330
10596
100
AcDbEntity
  8
DEFPOINTS
 62
     0
100
AcDbPoint
 10
61288.72522806581
 20
-1799.458970088037
 30
0.0
  0
POINT
  5
11B71
330
10596
100
AcDbEntity
  8
DEFPOINTS
 62
     0
100
AcDbPoint
 10
61568.72522806581
 20
-1799.458970088037
 30
0.0
  0
ENDBLK
  5
105A1
330
10596
100
AcDbEntity
  8
0
100
AcDbBlockEnd
  0
BLOCK
  5
105AC
330
105A2
100
AcDbEntity
  8
0
100
AcDbBlockBegin
  2
*D37
 70
     1
 10
0.0
 20
0.0
 30
0.0
  3
*D37
  1

  0
LINE
  5
11B2D
330
105A2
100
AcDbEntity
  8
SUNPOU
370
    -2
100
AcDbLine
 10
60345.5537241119
 20
1431.898245343882
 30
0.0
 11
61592.0371224027
 21
1431.898245343882
 31
0.0
  0
LINE
  5
11B2E
330
105A2
100
AcDbEntity
  8
SUNPOU
370
    -2
100
AcDbLine
 10
61348.72522806581
 20
1956.898245343882
 30
0.0
 11
61592.0371224027
 21
1956.898245343882
 31
0.0
  0
LINE
  5
11B2F
330
105A2
100
AcDbEntity
  8
SUNPOU
370
    -2
100
AcDbLine
 10
61568.0371224027
 20
1511.898245343882
 30
0.0
 11
61568.0371224027
 21
1876.898245343882
 31
0.0
  0
SOLID
  5
11B30
330
105A2
100
AcDbEntity
  8
SUNPOU
100
AcDbTrace
 10
61554.70378906937
 20
1511.898245343882
 30
0.0
 11
61581.37045573604
 21
1511.898245343882
 31
0.0
 12
61568.0371224027
 22
1431.898245343882
 32
0.0
 13
61568.0371224027
 23
1431.898245343882
 33
0.0
  0
SOLID
  5
11B31
330
105A2
100
AcDbEntity
  8
SUNPOU
100
AcDbTrace
 10
61554.70378906937
 20
1876.898245343882
 30
0.0
 11
61581.37045573604
 21
1876.898245343882
 31
0.0
 12
61568.0371224027
 22
1956.898245343882
 32
0.0
 13
61568.0371224027
 23
1956.898245343882
 33
0.0
  0
MTEXT
  5
11B32
330
105A2
100
AcDbEntity
  8
SUNPOU
100
AcDbMText
 10
61476.0371224027
 20
1694.398245343892
 30
0.0
 40
120.0
 41
0.0
 71
     5
 72
     1
  1
\A1;175
 11
6.123031769111886E-17
 21
1.0
 31
0.0
 73
     1
 44
1.0
  0
POINT
  5
11B33
330
105A2
100
AcDbEntity
  8
DEFPOINTS
 62
     0
100
AcDbPoint
 10
60285.5537241119
 20
1431.898245343882
 30
0.0
  0
POINT
  5
11B34
330
105A2
100
AcDbEntity
  8
DEFPOINTS
 62
     0
100
AcDbPoint
 10
61288.72522806581
 20
1956.898245343882
 30
0.0
  0
POINT
  5
11B35
330
105A2
100
AcDbEntity
  8
DEFPOINTS
 62
     0
100
AcDbPoint
 10
61568.0371224027
 20
1956.898245343882
 30
0.0
  0
ENDBLK
  5
105AD
330
105A2
100
AcDbEntity
  8
0
100
AcDbBlockEnd
  0
BLOCK
  5
105B8
330
105AE
100
AcDbEntity
  8
0
100
AcDbBlockBegin
  2
*D38
 70
     1
 10
0.0
 20
0.0
 30
0.0
  3
*D38
  1

  0
LINE
  5
11B24
330
105AE
100
AcDbEntity
  8
SUNPOU
370
    -2
100
AcDbLine
 10
60585.5537241119
 20
1371.898245343882
 30
0.0
 11
61592.0371224027
 21
1371.898245343882
 31
0.0
  0
LINE
  5
11B25
330
105AE
100
AcDbEntity
  8
SUNPOU
370
    -2
100
AcDbLine
 10
61348.72522806581
 20
816.8982453438821
 30
0.0
 11
61592.0371224027
 21
816.8982453438821
 31
0.0
  0
LINE
  5
11B26
330
105AE
100
AcDbEntity
  8
SUNPOU
370
    -2
100
AcDbLine
 10
61568.0371224027
 20
1291.898245343882
 30
0.0
 11
61568.0371224027
 21
896.8982453438821
 31
0.0
  0
SOLID
  5
11B27
330
105AE
100
AcDbEntity
  8
SUNPOU
100
AcDbTrace
 10
61554.70378906937
 20
1291.898245343882
 30
0.0
 11
61581.37045573604
 21
1291.898245343882
 31
0.0
 12
61568.0371224027
 22
1371.898245343882
 32
0.0
 13
61568.0371224027
 23
1371.898245343882
 33
0.0
  0
SOLID
  5
11B28
330
105AE
100
AcDbEntity
  8
SUNPOU
100
AcDbTrace
 10
61554.70378906937
 20
896.8982453438821
 30
0.0
 11
61581.37045573604
 21
896.8982453438821
 31
0.0
 12
61568.0371224027
 22
816.8982453438821
 32
0.0
 13
61568.0371224027
 23
816.8982453438821
 33
0.0
  0
MTEXT
  5
11B29
330
105AE
100
AcDbEntity
  8
SUNPOU
100
AcDbMText
 10
61476.0371224027
 20
1094.398245343892
 30
0.0
 40
120.0
 41
0.0
 71
     5
 72
     1
  1
\A1;185
 11
6.123031769111886E-17
 21
1.0
 31
0.0
 73
     1
 44
1.0
  0
POINT
  5
11B2A
330
105AE
100
AcDbEntity
  8
DEFPOINTS
 62
     0
100
AcDbPoint
 10
60525.5537241119
 20
1371.898245343882
 30
0.0
  0
POINT
  5
11B2B
330
105AE
100
AcDbEntity
  8
DEFPOINTS
 62
     0
100
AcDbPoint
 10
61288.72522806581
 20
816.8982453438821
 30
0.0
  0
POINT
  5
11B2C
330
105AE
100
AcDbEntity
  8
DEFPOINTS
 62
     0
100
AcDbPoint
 10
61568.0371224027
 20
816.8982453438821
 30
0.0
  0
ENDBLK
  5
105B9
330
105AE
100
AcDbEntity
  8
0
100
AcDbBlockEnd
  0
BLOCK
  5
105C4
330
105BA
100
AcDbEntity
  8
0
100
AcDbBlockBegin
  2
*D39
 70
     1
 10
0.0
 20
0.0
 30
0.0
  3
*D39
  1

  0
LINE
  5
1169B
330
105BA
100
AcDbEntity
  8
SUNPOU
370
    -2
100
AcDbLine
 10
60525.5537241119
 20
1431.898245343882
 30
0.0
 11
60525.5537241119
 21
2459.815780145363
 31
0.0
  0
LINE
  5
1169C
330
105BA
100
AcDbEntity
  8
SUNPOU
370
    -2
100
AcDbLine
 10
60285.5537241119
 20
2016.898245343883
 30
0.0
 11
60285.5537241119
 21
2459.815780145363
 31
0.0
  0
LINE
  5
1169D
330
105BA
100
AcDbEntity
  8
SUNPOU
370
    -2
100
AcDbLine
 10
60445.5537241119
 20
2435.815780145363
 30
0.0
 11
60365.5537241119
 21
2435.815780145363
 31
0.0
  0
SOLID
  5
1169E
330
105BA
100
AcDbEntity
  8
SUNPOU
100
AcDbTrace
 10
60445.5537241119
 20
2449.149113478696
 30
0.0
 11
60445.5537241119
 21
2422.482446812029
 31
0.0
 12
60525.5537241119
 22
2435.815780145363
 32
0.0
 13
60525.5537241119
 23
2435.815780145363
 33
0.0
  0
SOLID
  5
1169F
330
105BA
100
AcDbEntity
  8
SUNPOU
100
AcDbTrace
 10
60365.5537241119
 20
2449.149113478696
 30
0.0
 11
60365.5537241119
 21
2422.482446812029
 31
0.0
 12
60285.5537241119
 22
2435.815780145363
 32
0.0
 13
60285.5537241119
 23
2435.815780145363
 33
0.0
  0
MTEXT
  5
116A0
330
105BA
100
AcDbEntity
  8
SUNPOU
100
AcDbMText
 10
60405.5537241119
 20
2527.815780145363
 30
0.0
 40
120.0
 41
0.0
 71
     5
 72
     1
  1
\A1;80
 73
     1
 44
1.0
  0
POINT
  5
116A1
330
105BA
100
AcDbEntity
  8
DEFPOINTS
 62
     0
100
AcDbPoint
 10
60525.5537241119
 20
1371.898245343882
 30
0.0
  0
POINT
  5
116A2
330
105BA
100
AcDbEntity
  8
DEFPOINTS
 62
     0
100
AcDbPoint
 10
60285.5537241119
 20
1956.898245343883
 30
0.0
  0
POINT
  5
116A3
330
105BA
100
AcDbEntity
  8
DEFPOINTS
 62
     0
100
AcDbPoint
 10
60285.5537241119
 20
2435.815780145363
 30
0.0
  0
ENDBLK
  5
105C5
330
105BA
100
AcDbEntity
  8
0
100
AcDbBlockEnd
  0
BLOCK
  5
105D2
330
105C6
100
AcDbEntity
  8
0
100
AcDbBlockBegin
  2
*D40
 70
     1
 10
0.0
 20
0.0
 30
0.0
  3
*D40
  1

  0
LINE
  5
11B18
330
105C6
100
AcDbEntity
  8
SUNPOU
370
    -2
100
AcDbLine
 10
59988.72522806581
 20
1401.898245343882
 30
0.0
 11
58984.72522806582
 21
1401.898245343882
 31
0.0
  0
LINE
  5
11B19
330
105C6
100
AcDbEntity
  8
SUNPOU
370
    -2
100
AcDbLine
 10
60228.72522806581
 20
1341.898245343882
 30
0.0
 11
58984.72522806582
 21
1341.898245343882
 31
0.0
  0
LINE
  5
11B1A
330
105C6
100
AcDbEntity
  8
SUNPOU
370
    -2
100
AcDbLine
 10
59008.72522806582
 20
1481.898245343882
 30
0.0
 11
59008.72522806582
 21
1561.898245343882
 31
0.0
  0
LINE
  5
11B1B
330
105C6
100
AcDbEntity
  8
SUNPOU
370
    -2
100
AcDbLine
 10
59008.72522806582
 20
1261.898245343882
 30
0.0
 11
59008.72522806582
 21
1181.898245343882
 31
0.0
  0
LINE
  5
11B1C
330
105C6
100
AcDbEntity
  8
SUNPOU
370
    -2
100
AcDbLine
 10
59008.72522806582
 20
1401.898245343882
 30
0.0
 11
59008.72522806582
 21
1341.898245343882
 31
0.0
  0
SOLID
  5
11B1D
330
105C6
100
AcDbEntity
  8
SUNPOU
100
AcDbTrace
 10
58995.39189473249
 20
1481.898245343882
 30
0.0
 11
59022.05856139916
 21
1481.898245343882
 31
0.0
 12
59008.72522806582
 22
1401.898245343882
 32
0.0
 13
59008.72522806582
 23
1401.898245343882
 33
0.0
  0
SOLID
  5
11B1E
330
105C6
100
AcDbEntity
  8
SUNPOU
100
AcDbTrace
 10
58995.39189473249
 20
1261.898245343882
 30
0.0
 11
59022.05856139916
 21
1261.898245343882
 31
0.0
 12
59008.72522806582
 22
1341.898245343882
 32
0.0
 13
59008.72522806582
 23
1341.898245343882
 33
0.0
  0
MTEXT
  5
11B1F
330
105C6
100
AcDbEntity
  8
SUNPOU
100
AcDbMText
 10
58916.72522806582
 20
1371.898245343892
 30
0.0
 40
120.0
 41
0.0
 71
     5
 72
     1
  1
\A1;20
 11
6.123031769111886E-17
 21
1.0
 31
0.0
 73
     1
 44
1.0
  0
POINT
  5
11B20
330
105C6
100
AcDbEntity
  8
DEFPOINTS
 62
     0
100
AcDbPoint
 10
60048.72522806581
 20
1401.898245343882
 30
0.0
  0
POINT
  5
11B21
330
105C6
100
AcDbEntity
  8
DEFPOINTS
 62
     0
100
AcDbPoint
 10
60288.72522806581
 20
1341.898245343882
 30
0.0
  0
POINT
  5
11B22
330
105C6
100
AcDbEntity
  8
DEFPOINTS
 62
     0
100
AcDbPoint
 10
59008.72522806582
 20
1341.898245343882
 30
0.0
  0
ENDBLK
  5
105D3
330
105C6
100
AcDbEntity
  8
0
100
AcDbBlockEnd
  0
BLOCK
  5
105DE
330
105D4
100
AcDbEntity
  8
0
100
AcDbBlockBegin
  2
*D41
 70
     1
 10
0.0
 20
0.0
 30
0.0
  3
*D41
  1

  0
LINE
  5
11B0F
330
105D4
100
AcDbEntity
  8
SUNPOU
370
    -2
100
AcDbLine
 10
59228.72522806581
 20
1956.898245343883
 30
0.0
 11
58984.72522806582
 21
1956.898245343883
 31
0.0
  0
LINE
  5
11B10
330
105D4
100
AcDbEntity
  8
SUNPOU
370
    -2
100
AcDbLine
 10
59988.72522806581
 20
1401.898245343882
 30
0.0
 11
58984.72522806582
 21
1401.898245343882
 31
0.0
  0
LINE
  5
11B11
330
105D4
100
AcDbEntity
  8
SUNPOU
370
    -2
100
AcDbLine
 10
59008.72522806582
 20
1876.898245343883
 30
0.0
 11
59008.72522806582
 21
1481.898245343882
 31
0.0
  0
SOLID
  5
11B12
330
105D4
100
AcDbEntity
  8
SUNPOU
100
AcDbTrace
 10
58995.39189473249
 20
1876.898245343883
 30
0.0
 11
59022.05856139916
 21
1876.898245343883
 31
0.0
 12
59008.72522806582
 22
1956.898245343883
 32
0.0
 13
59008.72522806582
 23
1956.898245343883
 33
0.0
  0
SOLID
  5
11B13
330
105D4
100
AcDbEntity
  8
SUNPOU
100
AcDbTrace
 10
58995.39189473249
 20
1481.898245343882
 30
0.0
 11
59022.05856139916
 21
1481.898245343882
 31
0.0
 12
59008.72522806582
 22
1401.898245343882
 32
0.0
 13
59008.72522806582
 23
1401.898245343882
 33
0.0
  0
MTEXT
  5
11B14
330
105D4
100
AcDbEntity
  8
SUNPOU
100
AcDbMText
 10
58916.72522806582
 20
1679.398245343892
 30
0.0
 40
120.0
 41
0.0
 71
     5
 72
     1
  1
\A1;185
 11
6.123031769111886E-17
 21
1.0
 31
0.0
 73
     1
 44
1.0
  0
POINT
  5
11B15
330
105D4
100
AcDbEntity
  8
DEFPOINTS
 62
     0
100
AcDbPoint
 10
59288.72522806581
 20
1956.898245343883
 30
0.0
  0
POINT
  5
11B16
330
105D4
100
AcDbEntity
  8
DEFPOINTS
 62
     0
100
AcDbPoint
 10
60048.72522806581
 20
1401.898245343882
 30
0.0
  0
POINT
  5
11B17
330
105D4
100
AcDbEntity
  8
DEFPOINTS
 62
     0
100
AcDbPoint
 10
59008.72522806582
 20
1401.898245343882
 30
0.0
  0
ENDBLK
  5
105DF
330
105D4
100
AcDbEntity
  8
0
100
AcDbBlockEnd
  0
BLOCK
  5
105EA
330
105E0
100
AcDbEntity
  8
0
100
AcDbBlockBegin
  2
*D42
 70
     1
 10
0.0
 20
0.0
 30
0.0
  3
*D42
  1

  0
LINE
  5
11B06
330
105E0
100
AcDbEntity
  8
SUNPOU
370
    -2
100
AcDbLine
 10
59228.72522806581
 20
1956.898245343883
 30
0.0
 11
58704.72522806582
 21
1956.898245343883
 31
0.0
  0
LINE
  5
11B07
330
105E0
100
AcDbEntity
  8
SUNPOU
370
    -2
100
AcDbLine
 10
59228.72522806581
 20
816.8982453438821
 30
0.0
 11
58704.72522806582
 21
816.8982453438822
 31
0.0
  0
LINE
  5
11B08
330
105E0
100
AcDbEntity
  8
SUNPOU
370
    -2
100
AcDbLine
 10
58728.72522806582
 20
1876.898245343883
 30
0.0
 11
58728.72522806582
 21
896.8982453438822
 31
0.0
  0
SOLID
  5
11B09
330
105E0
100
AcDbEntity
  8
SUNPOU
100
AcDbTrace
 10
58715.39189473249
 20
1876.898245343883
 30
0.0
 11
58742.05856139916
 21
1876.898245343883
 31
0.0
 12
58728.72522806582
 22
1956.898245343883
 32
0.0
 13
58728.72522806582
 23
1956.898245343883
 33
0.0
  0
SOLID
  5
11B0A
330
105E0
100
AcDbEntity
  8
SUNPOU
100
AcDbTrace
 10
58715.39189473249
 20
896.8982453438822
 30
0.0
 11
58742.05856139916
 21
896.8982453438822
 31
0.0
 12
58728.72522806582
 22
816.8982453438822
 32
0.0
 13
58728.72522806582
 23
816.8982453438822
 33
0.0
  0
MTEXT
  5
11B0B
330
105E0
100
AcDbEntity
  8
SUNPOU
100
AcDbMText
 10
58636.72522806582
 20
1386.898245343892
 30
0.0
 40
120.0
 41
0.0
 71
     5
 72
     1
  1
\A1;380
 11
6.123031769111886E-17
 21
1.0
 31
0.0
 73
     1
 44
1.0
  0
POINT
  5
11B0C
330
105E0
100
AcDbEntity
  8
DEFPOINTS
 62
     0
100
AcDbPoint
 10
59288.72522806581
 20
1956.898245343883
 30
0.0
  0
POINT
  5
11B0D
330
105E0
100
AcDbEntity
  8
DEFPOINTS
 62
     0
100
AcDbPoint
 10
59288.72522806581
 20
816.8982453438821
 30
0.0
  0
POINT
  5
11B0E
330
105E0
100
AcDbEntity
  8
DEFPOINTS
 62
     0
100
AcDbPoint
 10
58728.72522806582
 20
816.8982453438822
 30
0.0
  0
ENDBLK
  5
105EB
330
105E0
100
AcDbEntity
  8
0
100
AcDbBlockEnd
  0
BLOCK
  5
105F6
330
105EC
100
AcDbEntity
  8
0
100
AcDbBlockBegin
  2
*D43
 70
     1
 10
0.0
 20
0.0
 30
0.0
  3
*D43
  1

  0
LINE
  5
11AFD
330
105EC
100
AcDbEntity
  8
SUNPOU
370
    -2
100
AcDbLine
 10
60228.72522806581
 20
1341.898245343882
 30
0.0
 11
58984.72522806582
 21
1341.898245343882
 31
0.0
  0
LINE
  5
11AFE
330
105EC
100
AcDbEntity
  8
SUNPOU
370
    -2
100
AcDbLine
 10
59228.72522806581
 20
816.8982453438821
 30
0.0
 11
58984.72522806582
 21
816.8982453438822
 31
0.0
  0
LINE
  5
11AFF
330
105EC
100
AcDbEntity
  8
SUNPOU
370
    -2
100
AcDbLine
 10
59008.72522806582
 20
1261.898245343882
 30
0.0
 11
59008.72522806582
 21
896.8982453438822
 31
0.0
  0
SOLID
  5
11B00
330
105EC
100
AcDbEntity
  8
SUNPOU
100
AcDbTrace
 10
58995.39189473249
 20
1261.898245343882
 30
0.0
 11
59022.05856139916
 21
1261.898245343882
 31
0.0
 12
59008.72522806582
 22
1341.898245343882
 32
0.0
 13
59008.72522806582
 23
1341.898245343882
 33
0.0
  0
SOLID
  5
11B01
330
105EC
100
AcDbEntity
  8
SUNPOU
100
AcDbTrace
 10
58995.39189473249
 20
896.8982453438822
 30
0.0
 11
59022.05856139916
 21
896.8982453438822
 31
0.0
 12
59008.72522806582
 22
816.8982453438822
 32
0.0
 13
59008.72522806582
 23
816.8982453438822
 33
0.0
  0
MTEXT
  5
11B02
330
105EC
100
AcDbEntity
  8
SUNPOU
100
AcDbMText
 10
58916.72522806582
 20
1079.398245343892
 30
0.0
 40
120.0
 41
0.0
 71
     5
 72
     1
  1
\A1;175
 11
6.123031769111886E-17
 21
1.0
 31
0.0
 73
     1
 44
1.0
  0
POINT
  5
11B03
330
105EC
100
AcDbEntity
  8
DEFPOINTS
 62
     0
100
AcDbPoint
 10
60288.72522806581
 20
1341.898245343882
 30
0.0
  0
POINT
  5
11B04
330
105EC
100
AcDbEntity
  8
DEFPOINTS
 62
     0
100
AcDbPoint
 10
59288.72522806581
 20
816.8982453438821
 30
0.0
  0
POINT
  5
11B05
330
105EC
100
AcDbEntity
  8
DEFPOINTS
 62
     0
100
AcDbPoint
 10
59008.72522806582
 20
816.8982453438822
 30
0.0
  0
ENDBLK
  5
105F7
330
105EC
100
AcDbEntity
  8
0
100
AcDbBlockEnd
  0
BLOCK
  5
10604
330
105F8
100
AcDbEntity
  8
0
100
AcDbBlockBegin
  2
*D44
 70
     1
 10
0.0
 20
0.0
 30
0.0
  3
*D44
  1

  0
LINE
  5
1166A
330
105F8
100
AcDbEntity
  8
SUNPOU
370
    -2
100
AcDbLine
 10
60525.5537241119
 20
801.8982453438821
 30
0.0
 11
60525.5537241119
 21
192.2227327153814
 31
0.0
  0
LINE
  5
1166B
330
105F8
100
AcDbEntity
  8
SUNPOU
370
    -2
100
AcDbLine
 10
60561.5537241119
 20
786.8982453438821
 30
0.0
 11
60561.5537241119
 21
192.2227327153814
 31
0.0
  0
LINE
  5
1166C
330
105F8
100
AcDbEntity
  8
SUNPOU
370
    -2
100
AcDbLine
 10
60445.5537241119
 20
216.2227327153814
 30
0.0
 11
60365.5537241119
 21
216.2227327153814
 31
0.0
  0
LINE
  5
1166D
330
105F8
100
AcDbEntity
  8
SUNPOU
370
    -2
100
AcDbLine
 10
60641.5537241119
 20
216.2227327153814
 30
0.0
 11
60913.5537241119
 21
216.2227327153814
 31
0.0
  0
LINE
  5
1166E
330
105F8
100
AcDbEntity
  8
SUNPOU
370
    -2
100
AcDbLine
 10
60525.5537241119
 20
216.2227327153814
 30
0.0
 11
60561.5537241119
 21
216.2227327153814
 31
0.0
  0
SOLID
  5
1166F
330
105F8
100
AcDbEntity
  8
SUNPOU
100
AcDbTrace
 10
60445.5537241119
 20
229.5560660487148
 30
0.0
 11
60445.5537241119
 21
202.8893993820481
 31
0.0
 12
60525.5537241119
 22
216.2227327153814
 32
0.0
 13
60525.5537241119
 23
216.2227327153814
 33
0.0
  0
SOLID
  5
11670
330
105F8
100
AcDbEntity
  8
SUNPOU
100
AcDbTrace
 10
60641.5537241119
 20
229.5560660487148
 30
0.0
 11
60641.5537241119
 21
202.8893993820481
 31
0.0
 12
60561.5537241119
 22
216.2227327153814
 32
0.0
 13
60561.5537241119
 23
216.2227327153814
 33
0.0
  0
MTEXT
  5
11671
330
105F8
100
AcDbEntity
  8
SUNPOU
100
AcDbMText
 10
60817.5537241119
 20
308.2227327153814
 30
0.0
 40
120.0
 41
0.0
 71
     5
 72
     1
  1
\A1;12
 73
     1
 44
1.0
  0
POINT
  5
11672
330
105F8
100
AcDbEntity
  8
DEFPOINTS
 62
     0
100
AcDbPoint
 10
60525.5537241119
 20
861.8982453438821
 30
0.0
  0
POINT
  5
11673
330
105F8
100
AcDbEntity
  8
DEFPOINTS
 62
     0
100
AcDbPoint
 10
60561.5537241119
 20
846.8982453438821
 30
0.0
  0
POINT
  5
11674
330
105F8
100
AcDbEntity
  8
DEFPOINTS
 62
     0
100
AcDbPoint
 10
60561.5537241119
 20
216.2227327153814
 30
0.0
  0
ENDBLK
  5
10605
330
105F8
100
AcDbEntity
  8
0
100
AcDbBlockEnd
  0
BLOCK
  5
10610
330
10606
100
AcDbEntity
  8
0
100
AcDbBlockBegin
  2
*D45
 70
     1
 10
0.0
 20
0.0
 30
0.0
  3
*D45
  1

  0
LINE
  5
11831
330
10606
100
AcDbEntity
  8
SUNPOU
370
    -2
100
AcDbLine
 10
60048.72522806581
 20
1341.898245343882
 30
0.0
 11
60048.72522806581
 21
537.8982453438821
 31
0.0
  0
LINE
  5
11832
330
10606
100
AcDbEntity
  8
SUNPOU
370
    -2
100
AcDbLine
 10
60288.72522806581
 20
756.8982453438821
 30
0.0
 11
60288.72522806581
 21
537.8982453438821
 31
0.0
  0
LINE
  5
11833
330
10606
100
AcDbEntity
  8
SUNPOU
370
    -2
100
AcDbLine
 10
60128.72522806581
 20
561.8982453438821
 30
0.0
 11
60208.72522806581
 21
561.8982453438821
 31
0.0
  0
SOLID
  5
11834
330
10606
100
AcDbEntity
  8
SUNPOU
100
AcDbTrace
 10
60128.72522806581
 20
575.2315786772155
 30
0.0
 11
60128.72522806581
 21
548.5649120105487
 31
0.0
 12
60048.72522806581
 22
561.8982453438821
 32
0.0
 13
60048.72522806581
 23
561.8982453438821
 33
0.0
  0
SOLID
  5
11835
330
10606
100
AcDbEntity
  8
SUNPOU
100
AcDbTrace
 10
60208.72522806581
 20
575.2315786772155
 30
0.0
 11
60208.72522806581
 21
548.5649120105487
 31
0.0
 12
60288.72522806581
 22
561.8982453438821
 32
0.0
 13
60288.72522806581
 23
561.8982453438821
 33
0.0
  0
MTEXT
  5
11836
330
10606
100
AcDbEntity
  8
SUNPOU
100
AcDbMText
 10
60168.72522806581
 20
653.8982453438821
 30
0.0
 40
120.0
 41
0.0
 71
     5
 72
     1
  1
\A1;80
 73
     1
 44
1.0
  0
POINT
  5
11837
330
10606
100
AcDbEntity
  8
DEFPOINTS
 62
     0
100
AcDbPoint
 10
60048.72522806581
 20
1401.898245343882
 30
0.0
  0
POINT
  5
11838
330
10606
100
AcDbEntity
  8
DEFPOINTS
 62
     0
100
AcDbPoint
 10
60288.72522806581
 20
816.8982453438821
 30
0.0
  0
POINT
  5
11839
330
10606
100
AcDbEntity
  8
DEFPOINTS
 62
     0
100
AcDbPoint
 10
60288.72522806581
 20
561.8982453438821
 30
0.0
  0
ENDBLK
  5
10611
330
10606
100
AcDbEntity
  8
0
100
AcDbBlockEnd
  0
BLOCK
  5
1061E
330
10612
100
AcDbEntity
  8
0
100
AcDbBlockBegin
  2
*D46
 70
     1
 10
0.0
 20
0.0
 30
0.0
  3
*D46
  1

  0
LINE
  5
10E32
330
10612
100
AcDbEntity
  8
SUNPOU
370
    -2
100
AcDbLine
 10
53404.13034564906
 20
3507.574308936171
 30
0.0
 11
53728.13034564906
 21
3507.574308936171
 31
0.0
  0
LINE
  5
10E33
330
10612
100
AcDbEntity
  8
SUNPOU
370
    -2
100
AcDbLine
 10
53404.13034564905
 20
4127.574308936173
 30
0.0
 11
53728.13034564906
 21
4127.574308936173
 31
0.0
  0
LINE
  5
10E34
330
10612
100
AcDbEntity
  8
SUNPOU
370
    -2
100
AcDbLine
 10
53704.13034564906
 20
3427.574308936171
 30
0.0
 11
53704.13034564906
 21
3347.574308936171
 31
0.0
  0
LINE
  5
10E35
330
10612
100
AcDbEntity
  8
SUNPOU
370
    -2
100
AcDbLine
 10
53704.13034564906
 20
4207.574308936173
 30
0.0
 11
53704.13034564906
 21
4287.574308936173
 31
0.0
  0
LINE
  5
10E36
330
10612
100
AcDbEntity
  8
SUNPOU
370
    -2
100
AcDbLine
 10
53704.13034564906
 20
3507.574308936171
 30
0.0
 11
53704.13034564906
 21
4127.574308936173
 31
0.0
  0
SOLID
  5
10E37
330
10612
100
AcDbEntity
  8
SUNPOU
100
AcDbTrace
 10
53690.79701231572
 20
3427.574308936171
 30
0.0
 11
53717.46367898239
 21
3427.574308936171
 31
0.0
 12
53704.13034564906
 22
3507.574308936171
 32
0.0
 13
53704.13034564906
 23
3507.574308936171
 33
0.0
  0
SOLID
  5
10E38
330
10612
100
AcDbEntity
  8
SUNPOU
100
AcDbTrace
 10
53690.79701231572
 20
4207.574308936173
 30
0.0
 11
53717.46367898239
 21
4207.574308936173
 31
0.0
 12
53704.13034564906
 22
4127.574308936173
 32
0.0
 13
53704.13034564906
 23
4127.574308936173
 33
0.0
  0
MTEXT
  5
10E39
330
10612
100
AcDbEntity
  8
SUNPOU
100
AcDbMText
 10
53612.13034564906
 20
3817.574308936181
 30
0.0
 40
120.0
 41
0.0
 71
     5
 72
     1
  1
\A1;2@310=620
 11
6.123031769111886E-17
 21
1.0
 31
0.0
 73
     1
 44
1.0
  0
POINT
  5
10E3A
330
10612
100
AcDbEntity
  8
DEFPOINTS
 62
     0
100
AcDbPoint
 10
53344.13034564906
 20
3507.574308936171
 30
0.0
  0
POINT
  5
10E3B
330
10612
100
AcDbEntity
  8
DEFPOINTS
 62
     0
100
AcDbPoint
 10
53344.13034564905
 20
4127.574308936173
 30
0.0
  0
POINT
  5
10E3C
330
10612
100
AcDbEntity
  8
DEFPOINTS
 62
     0
100
AcDbPoint
 10
53704.13034564906
 20
4127.574308936173
 30
0.0
  0
ENDBLK
  5
1061F
330
10612
100
AcDbEntity
  8
0
100
AcDbBlockEnd
  0
BLOCK
  5
1062C
330
10620
100
AcDbEntity
  8
0
100
AcDbBlockBegin
  2
*D47
 70
     1
 10
0.0
 20
0.0
 30
0.0
  3
*D47
  1

  0
LINE
  5
10DEE
330
10620
100
AcDbEntity
  8
SUNPOU
370
    -2
100
AcDbLine
 10
53404.13034564906
 20
3507.574308936171
 30
0.0
 11
53728.13034564906
 21
3507.574308936171
 31
0.0
  0
LINE
  5
10DEF
330
10620
100
AcDbEntity
  8
SUNPOU
370
    -2
100
AcDbLine
 10
53239.13034564905
 20
3277.574308936174
 30
0.0
 11
53728.13034564906
 21
3277.574308936174
 31
0.0
  0
LINE
  5
10DF0
330
10620
100
AcDbEntity
  8
SUNPOU
370
    -2
100
AcDbLine
 10
53704.13034564906
 20
3427.574308936171
 30
0.0
 11
53704.13034564906
 21
3357.574308936174
 31
0.0
  0
LINE
  5
10DF1
330
10620
100
AcDbEntity
  8
SUNPOU
370
    -2
100
AcDbLine
 10
53704.13034564906
 20
3277.574308936174
 30
0.0
 11
53704.13034564906
 21
2893.574308936174
 31
0.0
  0
SOLID
  5
10DF2
330
10620
100
AcDbEntity
  8
SUNPOU
100
AcDbTrace
 10
53690.79701231572
 20
3427.574308936171
 30
0.0
 11
53717.46367898239
 21
3427.574308936171
 31
0.0
 12
53704.13034564906
 22
3507.574308936171
 32
0.0
 13
53704.13034564906
 23
3507.574308936171
 33
0.0
  0
SOLID
  5
10DF3
330
10620
100
AcDbEntity
  8
SUNPOU
100
AcDbTrace
 10
53690.79701231572
 20
3357.574308936174
 30
0.0
 11
53717.46367898239
 21
3357.574308936174
 31
0.0
 12
53704.13034564906
 22
3277.574308936174
 32
0.0
 13
53704.13034564906
 23
3277.574308936174
 33
0.0
  0
MTEXT
  5
10DF4
330
10620
100
AcDbEntity
  8
SUNPOU
100
AcDbMText
 10
53612.13034564906
 20
3045.574308936183
 30
0.0
 40
120.0
 41
0.0
 71
     5
 72
     1
  1
\A1;230
 11
6.123031769111886E-17
 21
1.0
 31
0.0
 73
     1
 44
1.0
  0
POINT
  5
10DF5
330
10620
100
AcDbEntity
  8
DEFPOINTS
 62
     0
100
AcDbPoint
 10
53344.13034564906
 20
3507.574308936171
 30
0.0
  0
POINT
  5
10DF6
330
10620
100
AcDbEntity
  8
DEFPOINTS
 62
     0
100
AcDbPoint
 10
53179.13034564905
 20
3277.574308936174
 30
0.0
  0
POINT
  5
10DF7
330
10620
100
AcDbEntity
  8
DEFPOINTS
 62
     0
100
AcDbPoint
 10
53704.13034564906
 20
3277.574308936174
 30
0.0
  0
ENDBLK
  5
1062D
330
10620
100
AcDbEntity
  8
0
100
AcDbBlockEnd
  0
BLOCK
  5
1063A
330
1062E
100
AcDbEntity
  8
0
100
AcDbBlockBegin
  2
*D48
 70
     1
 10
0.0
 20
0.0
 30
0.0
  3
*D48
  1

  0
LINE
  5
119E8
330
1062E
100
AcDbEntity
  8
SUNPOU
370
    -2
100
AcDbLine
 10
56477.71867732251
 20
1530.229096359918
 30
0.0
 11
56477.71867732251
 21
2062.952666249165
 31
0.0
  0
LINE
  5
119E9
330
1062E
100
AcDbEntity
  8
SUNPOU
370
    -2
100
AcDbLine
 10
56707.71867732251
 20
1530.229096359918
 30
0.0
 11
56707.71867732251
 21
2062.952666249165
 31
0.0
  0
LINE
  5
119EA
330
1062E
100
AcDbEntity
  8
SUNPOU
370
    -2
100
AcDbLine
 10
56557.71867732251
 20
2038.952666249165
 30
0.0
 11
56627.71867732251
 21
2038.952666249165
 31
0.0
  0
LINE
  5
119EB
330
1062E
100
AcDbEntity
  8
SUNPOU
370
    -2
100
AcDbLine
 10
56707.71867732251
 20
2038.952666249165
 30
0.0
 11
57091.71867732251
 21
2038.952666249165
 31
0.0
  0
SOLID
  5
119EC
330
1062E
100
AcDbEntity
  8
SUNPOU
100
AcDbTrace
 10
56557.71867732251
 20
2052.285999582499
 30
0.0
 11
56557.71867732251
 21
2025.619332915832
 31
0.0
 12
56477.71867732251
 22
2038.952666249165
 32
0.0
 13
56477.71867732251
 23
2038.952666249165
 33
0.0
  0
SOLID
  5
119ED
330
1062E
100
AcDbEntity
  8
SUNPOU
100
AcDbTrace
 10
56627.71867732251
 20
2052.285999582499
 30
0.0
 11
56627.71867732251
 21
2025.619332915832
 31
0.0
 12
56707.71867732251
 22
2038.952666249165
 32
0.0
 13
56707.71867732251
 23
2038.952666249165
 33
0.0
  0
MTEXT
  5
119EE
330
1062E
100
AcDbEntity
  8
SUNPOU
100
AcDbMText
 10
56939.71867732251
 20
2130.952666249165
 30
0.0
 40
120.0
 41
0.0
 71
     5
 72
     1
  1
\A1;230
 73
     1
 44
1.0
  0
POINT
  5
119EF
330
1062E
100
AcDbEntity
  8
DEFPOINTS
 62
     0
100
AcDbPoint
 10
56477.71867732251
 20
1470.229096359918
 30
0.0
  0
POINT
  5
119F0
330
1062E
100
AcDbEntity
  8
DEFPOINTS
 62
     0
100
AcDbPoint
 10
56707.71867732251
 20
1470.229096359918
 30
0.0
  0
POINT
  5
119F1
330
1062E
100
AcDbEntity
  8
DEFPOINTS
 62
     0
100
AcDbPoint
 10
56707.71867732251
 20
2038.952666249165
 30
0.0
  0
ENDBLK
  5
1063B
330
1062E
100
AcDbEntity
  8
0
100
AcDbBlockEnd
  0
BLOCK
  5
10648
330
1063C
100
AcDbEntity
  8
0
100
AcDbBlockBegin
  2
*D49
 70
     1
 10
0.0
 20
0.0
 30
0.0
  3
*D49
  1

  0
LINE
  5
119BE
330
1063C
100
AcDbEntity
  8
SUNPOU
370
    -2
100
AcDbLine
 10
55857.71867732251
 20
1530.229096359918
 30
0.0
 11
55857.71867732251
 21
2062.952666249165
 31
0.0
  0
LINE
  5
119BF
330
1063C
100
AcDbEntity
  8
SUNPOU
370
    -2
100
AcDbLine
 10
56477.71867732251
 20
1530.229096359918
 30
0.0
 11
56477.71867732251
 21
2062.952666249165
 31
0.0
  0
LINE
  5
119C0
330
1063C
100
AcDbEntity
  8
SUNPOU
370
    -2
100
AcDbLine
 10
55777.71867732251
 20
2038.952666249165
 30
0.0
 11
55697.71867732251
 21
2038.952666249165
 31
0.0
  0
LINE
  5
119C1
330
1063C
100
AcDbEntity
  8
SUNPOU
370
    -2
100
AcDbLine
 10
56557.71867732251
 20
2038.952666249165
 30
0.0
 11
56637.71867732251
 21
2038.952666249165
 31
0.0
  0
LINE
  5
119C2
330
1063C
100
AcDbEntity
  8
SUNPOU
370
    -2
100
AcDbLine
 10
55857.71867732251
 20
2038.952666249165
 30
0.0
 11
56477.71867732251
 21
2038.952666249165
 31
0.0
  0
SOLID
  5
119C3
330
1063C
100
AcDbEntity
  8
SUNPOU
100
AcDbTrace
 10
55777.71867732251
 20
2052.285999582499
 30
0.0
 11
55777.71867732251
 21
2025.619332915832
 31
0.0
 12
55857.71867732251
 22
2038.952666249165
 32
0.0
 13
55857.71867732251
 23
2038.952666249165
 33
0.0
  0
SOLID
  5
119C4
330
1063C
100
AcDbEntity
  8
SUNPOU
100
AcDbTrace
 10
56557.71867732251
 20
2052.285999582499
 30
0.0
 11
56557.71867732251
 21
2025.619332915832
 31
0.0
 12
56477.71867732251
 22
2038.952666249165
 32
0.0
 13
56477.71867732251
 23
2038.952666249165
 33
0.0
  0
MTEXT
  5
119C5
330
1063C
100
AcDbEntity
  8
SUNPOU
100
AcDbMText
 10
56167.71867732251
 20
2130.952666249165
 30
0.0
 40
120.0
 41
0.0
 71
     5
 72
     1
  1
\A1;2@310=620
 73
     1
 44
1.0
  0
POINT
  5
119C6
330
1063C
100
AcDbEntity
  8
DEFPOINTS
 62
     0
100
AcDbPoint
 10
55857.71867732251
 20
1470.229096359918
 30
0.0
  0
POINT
  5
119C7
330
1063C
100
AcDbEntity
  8
DEFPOINTS
 62
     0
100
AcDbPoint
 10
56477.71867732251
 20
1470.229096359918
 30
0.0
  0
POINT
  5
119C8
330
1063C
100
AcDbEntity
  8
DEFPOINTS
 62
     0
100
AcDbPoint
 10
56477.71867732251
 20
2038.952666249165
 30
0.0
  0
ENDBLK
  5
10649
330
1063C
100
AcDbEntity
  8
0
100
AcDbBlockEnd
  0
BLOCK
  5
10656
330
1064A
100
AcDbEntity
  8
0
100
AcDbBlockBegin
  2
*D50
 70
     1
 10
0.0
 20
0.0
 30
0.0
  3
*D50
  1

  0
LINE
  5
119C9
330
1064A
100
AcDbEntity
  8
SUNPOU
370
    -2
100
AcDbLine
 10
55627.71867732251
 20
1530.229096359917
 30
0.0
 11
55627.71867732251
 21
2062.952666249165
 31
0.0
  0
LINE
  5
119CA
330
1064A
100
AcDbEntity
  8
SUNPOU
370
    -2
100
AcDbLine
 10
55857.71867732251
 20
1530.229096359918
 30
0.0
 11
55857.71867732251
 21
2062.952666249165
 31
0.0
  0
LINE
  5
119CB
330
1064A
100
AcDbEntity
  8
SUNPOU
370
    -2
100
AcDbLine
 10
55777.71867732251
 20
2038.952666249165
 30
0.0
 11
55707.71867732251
 21
2038.952666249165
 31
0.0
  0
LINE
  5
119CC
330
1064A
100
AcDbEntity
  8
SUNPOU
370
    -2
100
AcDbLine
 10
55627.71867732251
 20
2038.952666249165
 30
0.0
 11
55243.71867732251
 21
2038.952666249165
 31
0.0
  0
SOLID
  5
119CD
330
1064A
100
AcDbEntity
  8
SUNPOU
100
AcDbTrace
 10
55777.71867732251
 20
2052.285999582499
 30
0.0
 11
55777.71867732251
 21
2025.619332915832
 31
0.0
 12
55857.71867732251
 22
2038.952666249165
 32
0.0
 13
55857.71867732251
 23
2038.952666249165
 33
0.0
  0
SOLID
  5
119CE
330
1064A
100
AcDbEntity
  8
SUNPOU
100
AcDbTrace
 10
55707.71867732251
 20
2052.285999582499
 30
0.0
 11
55707.71867732251
 21
2025.619332915832
 31
0.0
 12
55627.71867732251
 22
2038.952666249165
 32
0.0
 13
55627.71867732251
 23
2038.952666249165
 33
0.0
  0
MTEXT
  5
119CF
330
1064A
100
AcDbEntity
  8
SUNPOU
100
AcDbMText
 10
55395.71867732251
 20
2130.952666249165
 30
0.0
 40
120.0
 41
0.0
 71
     5
 72
     1
  1
\A1;230
 73
     1
 44
1.0
  0
POINT
  5
119D0
330
1064A
100
AcDbEntity
  8
DEFPOINTS
 62
     0
100
AcDbPoint
 10
55627.71867732251
 20
1470.229096359917
 30
0.0
  0
POINT
  5
119D1
330
1064A
100
AcDbEntity
  8
DEFPOINTS
 62
     0
100
AcDbPoint
 10
55857.71867732251
 20
1470.229096359918
 30
0.0
  0
POINT
  5
119D2
330
1064A
100
AcDbEntity
  8
DEFPOINTS
 62
     0
100
AcDbPoint
 10
55857.71867732251
 20
2038.952666249165
 30
0.0
  0
ENDBLK
  5
10657
330
1064A
100
AcDbEntity
  8
0
100
AcDbBlockEnd
  0
BLOCK
  5
10664
330
10658
100
AcDbEntity
  8
0
100
AcDbBlockBegin
  2
*D51
 70
     1
 10
0.0
 20
0.0
 30
0.0
  3
*D51
  1

  0
LINE
  5
11989
330
10658
100
AcDbEntity
  8
SUNPOU
370
    -2
100
AcDbLine
 10
55647.71867732251
 20
-1649.770903640081
 30
0.0
 11
55034.99510743326
 21
-1649.770903640081
 31
0.0
  0
LINE
  5
1198A
330
10658
100
AcDbEntity
  8
SUNPOU
370
    -2
100
AcDbLine
 10
55647.71867732251
 20
-1789.770903640081
 30
0.0
 11
55034.99510743326
 21
-1789.770903640081
 31
0.0
  0
LINE
  5
1198B
330
10658
100
AcDbEntity
  8
SUNPOU
370
    -2
100
AcDbLine
 10
55058.99510743326
 20
-1649.770903640081
 30
0.0
 11
55058.99510743326
 21
-1569.770903640081
 31
0.0
  0
LINE
  5
1198C
330
10658
100
AcDbEntity
  8
SUNPOU
370
    -2
100
AcDbLine
 10
55058.99510743326
 20
-1869.770903640081
 30
0.0
 11
55058.99510743326
 21
-2221.770903640081
 31
0.0
  0
LINE
  5
1198D
330
10658
100
AcDbEntity
  8
SUNPOU
370
    -2
100
AcDbLine
 10
55058.99510743326
 20
-1649.770903640081
 30
0.0
 11
55058.99510743326
 21
-1789.770903640081
 31
0.0
  0
INSERT
  5
1198E
330
10658
100
AcDbEntity
  8
SUNPOU
370
    -2
100
AcDbBlockReference
  2
_DotSmall
 10
55058.99510743326
 20
-1649.770903640081
 30
0.0
 41
80.0
 42
80.0
 43
80.0
 50
270.0
  0
SOLID
  5
1198F
330
10658
100
AcDbEntity
  8
SUNPOU
100
AcDbTrace
 10
55045.66177409993
 20
-1869.770903640081
 30
0.0
 11
55072.3284407666
 21
-1869.770903640081
 31
0.0
 12
55058.99510743326
 22
-1789.770903640081
 32
0.0
 13
55058.99510743326
 23
-1789.770903640081
 33
0.0
  0
MTEXT
  5
11990
330
10658
100
AcDbEntity
  8
SUNPOU
100
AcDbMText
 10
54966.99510743326
 20
-2085.770903640072
 30
0.0
 40
120.0
 41
0.0
 71
     5
 72
     1
  1
\A1;140
 11
6.123031769111886E-17
 21
1.0
 31
0.0
 73
     1
 44
1.0
  0
POINT
  5
11991
330
10658
100
AcDbEntity
  8
DEFPOINTS
 62
     0
100
AcDbPoint
 10
55707.71867732251
 20
-1649.770903640081
 30
0.0
  0
POINT
  5
11992
330
10658
100
AcDbEntity
  8
DEFPOINTS
 62
     0
100
AcDbPoint
 10
55707.71867732251
 20
-1789.770903640081
 30
0.0
  0
POINT
  5
11993
330
10658
100
AcDbEntity
  8
DEFPOINTS
 62
     0
100
AcDbPoint
 10
55058.99510743326
 20
-1789.770903640081
 30
0.0
  0
ENDBLK
  5
10665
330
10658
100
AcDbEntity
  8
0
100
AcDbBlockEnd
  0
BLOCK
  5
10670
330
10666
100
AcDbEntity
  8
0
100
AcDbBlockBegin
  2
*D52
 70
     1
 10
0.0
 20
0.0
 30
0.0
  3
*D52
  1

  0
LINE
  5
11975
330
10666
100
AcDbEntity
  8
SUNPOU
370
    -2
100
AcDbLine
 10
55627.71867732251
 20
-1849.770903640081
 30
0.0
 11
55627.71867732251
 21
-2731.770903640081
 31
0.0
  0
LINE
  5
11976
330
10666
100
AcDbEntity
  8
SUNPOU
370
    -2
100
AcDbLine
 10
56707.71867732251
 20
-1849.770903640081
 30
0.0
 11
56707.71867732251
 21
-2731.770903640081
 31
0.0
  0
LINE
  5
11977
330
10666
100
AcDbEntity
  8
SUNPOU
370
    -2
100
AcDbLine
 10
55707.71867732251
 20
-2707.770903640081
 30
0.0
 11
56627.71867732251
 21
-2707.770903640081
 31
0.0
  0
SOLID
  5
11978
330
10666
100
AcDbEntity
  8
SUNPOU
100
AcDbTrace
 10
55707.71867732251
 20
-2694.437570306748
 30
0.0
 11
55707.71867732251
 21
-2721.104236973415
 31
0.0
 12
55627.71867732251
 22
-2707.770903640081
 32
0.0
 13
55627.71867732251
 23
-2707.770903640081
 33
0.0
  0
SOLID
  5
11979
330
10666
100
AcDbEntity
  8
SUNPOU
100
AcDbTrace
 10
56627.71867732251
 20
-2694.437570306748
 30
0.0
 11
56627.71867732251
 21
-2721.104236973415
 31
0.0
 12
56707.71867732251
 22
-2707.770903640081
 32
0.0
 13
56707.71867732251
 23
-2707.770903640081
 33
0.0
  0
MTEXT
  5
1197A
330
10666
100
AcDbEntity
  8
SUNPOU
100
AcDbMText
 10
56167.71867732251
 20
-2615.770903640081
 30
0.0
 40
120.0
 41
0.0
 71
     5
 72
     1
  1
\A1;1080
 73
     1
 44
1.0
  0
POINT
  5
1197B
330
10666
100
AcDbEntity
  8
DEFPOINTS
 62
     0
100
AcDbPoint
 10
55627.71867732251
 20
-1789.770903640081
 30
0.0
  0
POINT
  5
1197C
330
10666
100
AcDbEntity
  8
DEFPOINTS
 62
     0
100
AcDbPoint
 10
56707.71867732251
 20
-1789.770903640081
 30
0.0
  0
POINT
  5
1197D
330
10666
100
AcDbEntity
  8
DEFPOINTS
 62
     0
100
AcDbPoint
 10
56707.71867732251
 20
-2707.770903640081
 30
0.0
  0
ENDBLK
  5
10671
330
10666
100
AcDbEntity
  8
0
100
AcDbBlockEnd
  0
BLOCK
  5
1067C
330
10672
100
AcDbEntity
  8
0
100
AcDbBlockBegin
  2
*D53
 70
     1
 10
0.0
 20
0.0
 30
0.0
  3
*D53
  1

  0
LINE
  5
1196C
330
10672
100
AcDbEntity
  8
SUNPOU
370
    -2
100
AcDbLine
 10
55627.71867732251
 20
-1849.770903640081
 30
0.0
 11
55627.71867732251
 21
-2453.770903640081
 31
0.0
  0
LINE
  5
1196D
330
10672
100
AcDbEntity
  8
SUNPOU
370
    -2
100
AcDbLine
 10
56627.71867732251
 20
-1849.770903640081
 30
0.0
 11
56627.71867732251
 21
-2453.770903640081
 31
0.0
  0
LINE
  5
1196E
330
10672
100
AcDbEntity
  8
SUNPOU
370
    -2
100
AcDbLine
 10
55707.71867732251
 20
-2429.770903640081
 30
0.0
 11
56547.71867732251
 21
-2429.770903640081
 31
0.0
  0
SOLID
  5
1196F
330
10672
100
AcDbEntity
  8
SUNPOU
100
AcDbTrace
 10
55707.71867732251
 20
-2416.437570306748
 30
0.0
 11
55707.71867732251
 21
-2443.104236973415
 31
0.0
 12
55627.71867732251
 22
-2429.770903640081
 32
0.0
 13
55627.71867732251
 23
-2429.770903640081
 33
0.0
  0
SOLID
  5
11970
330
10672
100
AcDbEntity
  8
SUNPOU
100
AcDbTrace
 10
56547.71867732251
 20
-2416.437570306748
 30
0.0
 11
56547.71867732251
 21
-2443.104236973415
 31
0.0
 12
56627.71867732251
 22
-2429.770903640081
 32
0.0
 13
56627.71867732251
 23
-2429.770903640081
 33
0.0
  0
MTEXT
  5
11971
330
10672
100
AcDbEntity
  8
SUNPOU
100
AcDbMText
 10
56127.71867732251
 20
-2337.770903640081
 30
0.0
 40
120.0
 41
0.0
 71
     5
 72
     1
  1
\A1;1000
 73
     1
 44
1.0
  0
POINT
  5
11972
330
10672
100
AcDbEntity
  8
DEFPOINTS
 62
     0
100
AcDbPoint
 10
55627.71867732251
 20
-1789.770903640081
 30
0.0
  0
POINT
  5
11973
330
10672
100
AcDbEntity
  8
DEFPOINTS
 62
     0
100
AcDbPoint
 10
56627.71867732251
 20
-1789.770903640081
 30
0.0
  0
POINT
  5
11974
330
10672
100
AcDbEntity
  8
DEFPOINTS
 62
     0
100
AcDbPoint
 10
56627.71867732251
 20
-2429.770903640081
 30
0.0
  0
ENDBLK
  5
1067D
330
10672
100
AcDbEntity
  8
0
100
AcDbBlockEnd
  0
BLOCK
  5
1068A
330
1067E
100
AcDbEntity
  8
0
100
AcDbBlockBegin
  2
*D54
 70
     1
 10
0.0
 20
0.0
 30
0.0
  3
*D54
  1

  0
LINE
  5
1199E
330
1067E
100
AcDbEntity
  8
SUNPOU
370
    -2
100
AcDbLine
 10
56627.71867732251
 20
-1849.770903640081
 30
0.0
 11
56627.71867732251
 21
-2453.770903640081
 31
0.0
  0
LINE
  5
1199F
330
1067E
100
AcDbEntity
  8
SUNPOU
370
    -2
100
AcDbLine
 10
56707.71867732251
 20
-1849.770903640081
 30
0.0
 11
56707.71867732251
 21
-2453.770903640081
 31
0.0
  0
LINE
  5
119A0
330
1067E
100
AcDbEntity
  8
SUNPOU
370
    -2
100
AcDbLine
 10
56547.71867732251
 20
-2429.770903640081
 30
0.0
 11
56467.71867732251
 21
-2429.770903640081
 31
0.0
  0
LINE
  5
119A1
330
1067E
100
AcDbEntity
  8
SUNPOU
370
    -2
100
AcDbLine
 10
56787.71867732251
 20
-2429.770903640081
 30
0.0
 11
57075.71867732251
 21
-2429.770903640081
 31
0.0
  0
LINE
  5
119A2
330
1067E
100
AcDbEntity
  8
SUNPOU
370
    -2
100
AcDbLine
 10
56627.71867732251
 20
-2429.770903640081
 30
0.0
 11
56707.71867732251
 21
-2429.770903640081
 31
0.0
  0
SOLID
  5
119A3
330
1067E
100
AcDbEntity
  8
SUNPOU
100
AcDbTrace
 10
56547.71867732251
 20
-2416.437570306748
 30
0.0
 11
56547.71867732251
 21
-2443.104236973415
 31
0.0
 12
56627.71867732251
 22
-2429.770903640081
 32
0.0
 13
56627.71867732251
 23
-2429.770903640081
 33
0.0
  0
SOLID
  5
119A4
330
1067E
100
AcDbEntity
  8
SUNPOU
100
AcDbTrace
 10
56787.71867732251
 20
-2416.437570306748
 30
0.0
 11
56787.71867732251
 21
-2443.104236973415
 31
0.0
 12
56707.71867732251
 22
-2429.770903640081
 32
0.0
 13
56707.71867732251
 23
-2429.770903640081
 33
0.0
  0
MTEXT
  5
119A5
330
1067E
100
AcDbEntity
  8
SUNPOU
100
AcDbMText
 10
56971.71867732251
 20
-2337.770903640081
 30
0.0
 40
120.0
 41
0.0
 71
     5
 72
     1
  1
\A1;80
 73
     1
 44
1.0
  0
POINT
  5
119A6
330
1067E
100
AcDbEntity
  8
DEFPOINTS
 62
     0
100
AcDbPoint
 10
56627.71867732251
 20
-1789.770903640081
 30
0.0
  0
POINT
  5
119A7
330
1067E
100
AcDbEntity
  8
DEFPOINTS
 62
     0
100
AcDbPoint
 10
56707.71867732251
 20
-1789.770903640081
 30
0.0
  0
POINT
  5
119A8
330
1067E
100
AcDbEntity
  8
DEFPOINTS
 62
     0
100
AcDbPoint
 10
56707.71867732251
 20
-2429.770903640081
 30
0.0
  0
ENDBLK
  5
1068B
330
1067E
100
AcDbEntity
  8
0
100
AcDbBlockEnd
  0
BLOCK
  5
10698
330
1068C
100
AcDbEntity
  8
0
100
AcDbBlockBegin
  2
*D55
 70
     1
 10
0.0
 20
0.0
 30
0.0
  3
*D55
  1

  0
LINE
  5
1197E
330
1068C
100
AcDbEntity
  8
SUNPOU
370
    -2
100
AcDbLine
 10
55627.71867732251
 20
-1849.770903640081
 30
0.0
 11
55627.71867732251
 21
-2173.770903640081
 31
0.0
  0
LINE
  5
1197F
330
1068C
100
AcDbEntity
  8
SUNPOU
370
    -2
100
AcDbLine
 10
55707.71867732251
 20
-1849.770903640081
 30
0.0
 11
55707.71867732251
 21
-2173.770903640081
 31
0.0
  0
LINE
  5
11980
330
1068C
100
AcDbEntity
  8
SUNPOU
370
    -2
100
AcDbLine
 10
55547.71867732251
 20
-2149.770903640081
 30
0.0
 11
55467.71867732251
 21
-2149.770903640081
 31
0.0
  0
LINE
  5
11981
330
1068C
100
AcDbEntity
  8
SUNPOU
370
    -2
100
AcDbLine
 10
55787.71867732251
 20
-2149.770903640081
 30
0.0
 11
56075.71867732251
 21
-2149.770903640081
 31
0.0
  0
LINE
  5
11982
330
1068C
100
AcDbEntity
  8
SUNPOU
370
    -2
100
AcDbLine
 10
55627.71867732251
 20
-2149.770903640081
 30
0.0
 11
55707.71867732251
 21
-2149.770903640081
 31
0.0
  0
SOLID
  5
11983
330
1068C
100
AcDbEntity
  8
SUNPOU
100
AcDbTrace
 10
55547.71867732251
 20
-2136.437570306748
 30
0.0
 11
55547.71867732251
 21
-2163.104236973415
 31
0.0
 12
55627.71867732251
 22
-2149.770903640081
 32
0.0
 13
55627.71867732251
 23
-2149.770903640081
 33
0.0
  0
SOLID
  5
11984
330
1068C
100
AcDbEntity
  8
SUNPOU
100
AcDbTrace
 10
55787.71867732251
 20
-2136.437570306748
 30
0.0
 11
55787.71867732251
 21
-2163.104236973415
 31
0.0
 12
55707.71867732251
 22
-2149.770903640081
 32
0.0
 13
55707.71867732251
 23
-2149.770903640081
 33
0.0
  0
MTEXT
  5
11985
330
1068C
100
AcDbEntity
  8
SUNPOU
100
AcDbMText
 10
55971.71867732251
 20
-2057.770903640081
 30
0.0
 40
120.0
 41
0.0
 71
     5
 72
     1
  1
\A1;80
 73
     1
 44
1.0
  0
POINT
  5
11986
330
1068C
100
AcDbEntity
  8
DEFPOINTS
 62
     0
100
AcDbPoint
 10
55627.71867732251
 20
-1789.770903640081
 30
0.0
  0
POINT
  5
11987
330
1068C
100
AcDbEntity
  8
DEFPOINTS
 62
     0
100
AcDbPoint
 10
55707.71867732251
 20
-1789.770903640081
 30
0.0
  0
POINT
  5
11988
330
1068C
100
AcDbEntity
  8
DEFPOINTS
 62
     0
100
AcDbPoint
 10
55707.71867732251
 20
-2149.770903640081
 30
0.0
  0
ENDBLK
  5
10699
330
1068C
100
AcDbEntity
  8
0
100
AcDbBlockEnd
  0
BLOCK
  5
106A4
330
1069A
100
AcDbEntity
  8
0
100
AcDbBlockBegin
  2
*D56
 70
     1
 10
0.0
 20
0.0
 30
0.0
  3
*D56
  1

  0
LINE
  5
11A4F
330
1069A
100
AcDbEntity
  8
SUNPOU
370
    -2
100
AcDbLine
 10
48244.13034564906
 20
-1849.770903640081
 30
0.0
 11
48244.13034564906
 21
-2731.770903640081
 31
0.0
  0
LINE
  5
11A50
330
1069A
100
AcDbEntity
  8
SUNPOU
370
    -2
100
AcDbLine
 10
53344.13034564906
 20
-1849.770903640081
 30
0.0
 11
53344.13034564906
 21
-2731.770903640081
 31
0.0
  0
LINE
  5
11A51
330
1069A
100
AcDbEntity
  8
SUNPOU
370
    -2
100
AcDbLine
 10
48324.13034564906
 20
-2707.770903640081
 30
0.0
 11
53264.13034564906
 21
-2707.770903640081
 31
0.0
  0
SOLID
  5
11A52
330
1069A
100
AcDbEntity
  8
SUNPOU
100
AcDbTrace
 10
48324.13034564906
 20
-2694.437570306748
 30
0.0
 11
48324.13034564906
 21
-2721.104236973415
 31
0.0
 12
48244.13034564906
 22
-2707.770903640081
 32
0.0
 13
48244.13034564906
 23
-2707.770903640081
 33
0.0
  0
SOLID
  5
11A53
330
1069A
100
AcDbEntity
  8
SUNPOU
100
AcDbTrace
 10
53264.13034564906
 20
-2694.437570306748
 30
0.0
 11
53264.13034564906
 21
-2721.104236973415
 31
0.0
 12
53344.13034564906
 22
-2707.770903640081
 32
0.0
 13
53344.13034564906
 23
-2707.770903640081
 33
0.0
  0
MTEXT
  5
11A54
330
1069A
100
AcDbEntity
  8
SUNPOU
100
AcDbMText
 10
50794.13034564906
 20
-2615.770903640081
 30
0.0
 40
120.0
 41
0.0
 71
     5
 72
     1
  1
\A1;5100
 73
     1
 44
1.0
  0
POINT
  5
11A55
330
1069A
100
AcDbEntity
  8
DEFPOINTS
 62
     0
100
AcDbPoint
 10
48244.13034564906
 20
-1789.770903640081
 30
0.0
  0
POINT
  5
11A56
330
1069A
100
AcDbEntity
  8
DEFPOINTS
 62
     0
100
AcDbPoint
 10
53344.13034564906
 20
-1789.770903640081
 30
0.0
  0
POINT
  5
11A57
330
1069A
100
AcDbEntity
  8
DEFPOINTS
 62
     0
100
AcDbPoint
 10
53344.13034564906
 20
-2707.770903640081
 30
0.0
  0
ENDBLK
  5
106A5
330
1069A
100
AcDbEntity
  8
0
100
AcDbBlockEnd
  0
BLOCK
  5
106B0
330
106A6
100
AcDbEntity
  8
0
100
AcDbBlockBegin
  2
*D57
 70
     1
 10
0.0
 20
0.0
 30
0.0
  3
*D57
  1

  0
LINE
  5
11A58
330
106A6
100
AcDbEntity
  8
SUNPOU
370
    -2
100
AcDbLine
 10
53044.13034564906
 20
-1849.770903640081
 30
0.0
 11
53044.13034564906
 21
-2451.79281744578
 31
0.0
  0
LINE
  5
11A59
330
106A6
100
AcDbEntity
  8
SUNPOU
370
    -2
100
AcDbLine
 10
48544.13034564905
 20
-1849.770903640081
 30
0.0
 11
48544.13034564905
 21
-2451.79281744578
 31
0.0
  0
LINE
  5
11A5A
330
106A6
100
AcDbEntity
  8
SUNPOU
370
    -2
100
AcDbLine
 10
52964.13034564906
 20
-2427.79281744578
 30
0.0
 11
48624.13034564905
 21
-2427.79281744578
 31
0.0
  0
SOLID
  5
11A5B
330
106A6
100
AcDbEntity
  8
SUNPOU
100
AcDbTrace
 10
52964.13034564906
 20
-2414.459484112446
 30
0.0
 11
52964.13034564906
 21
-2441.126150779113
 31
0.0
 12
53044.13034564906
 22
-2427.79281744578
 32
0.0
 13
53044.13034564906
 23
-2427.79281744578
 33
0.0
  0
SOLID
  5
11A5C
330
106A6
100
AcDbEntity
  8
SUNPOU
100
AcDbTrace
 10
48624.13034564905
 20
-2414.459484112446
 30
0.0
 11
48624.13034564905
 21
-2441.126150779113
 31
0.0
 12
48544.13034564905
 22
-2427.79281744578
 32
0.0
 13
48544.13034564905
 23
-2427.79281744578
 33
0.0
  0
MTEXT
  5
11A5D
330
106A6
100
AcDbEntity
  8
SUNPOU
100
AcDbMText
 10
50794.13034564906
 20
-2335.79281744578
 30
0.0
 40
120.0
 41
0.0
 71
     5
 72
     1
  1
\A1;4500
 73
     1
 44
1.0
  0
POINT
  5
11A5E
330
106A6
100
AcDbEntity
  8
DEFPOINTS
 62
     0
100
AcDbPoint
 10
53044.13034564906
 20
-1789.770903640081
 30
0.0
  0
POINT
  5
11A5F
330
106A6
100
AcDbEntity
  8
DEFPOINTS
 62
     0
100
AcDbPoint
 10
48544.13034564905
 20
-1789.770903640081
 30
0.0
  0
POINT
  5
11A60
330
106A6
100
AcDbEntity
  8
DEFPOINTS
 62
     0
100
AcDbPoint
 10
48544.13034564905
 20
-2427.79281744578
 30
0.0
  0
ENDBLK
  5
106B1
330
106A6
100
AcDbEntity
  8
0
100
AcDbBlockEnd
  0
BLOCK
  5
106BC
330
106B2
100
AcDbEntity
  8
0
100
AcDbBlockBegin
  2
*D58
 70
     1
 10
0.0
 20
0.0
 30
0.0
  3
*D58
  1

  0
LINE
  5
11A6A
330
106B2
100
AcDbEntity
  8
SUNPOU
370
    -2
100
AcDbLine
 10
53044.13034564906
 20
-1849.770903640081
 30
0.0
 11
53044.13034564906
 21
-2451.770903640083
 31
0.0
  0
LINE
  5
11A6B
330
106B2
100
AcDbEntity
  8
SUNPOU
370
    -2
100
AcDbLine
 10
53344.13034564906
 20
-1849.770903640081
 30
0.0
 11
53344.13034564906
 21
-2451.770903640083
 31
0.0
  0
LINE
  5
11A6C
330
106B2
100
AcDbEntity
  8
SUNPOU
370
    -2
100
AcDbLine
 10
53124.13034564906
 20
-2427.770903640083
 30
0.0
 11
53264.13034564906
 21
-2427.770903640083
 31
0.0
  0
SOLID
  5
11A6D
330
106B2
100
AcDbEntity
  8
SUNPOU
100
AcDbTrace
 10
53124.13034564906
 20
-2414.43757030675
 30
0.0
 11
53124.13034564906
 21
-2441.104236973417
 31
0.0
 12
53044.13034564906
 22
-2427.770903640083
 32
0.0
 13
53044.13034564906
 23
-2427.770903640083
 33
0.0
  0
SOLID
  5
11A6E
330
106B2
100
AcDbEntity
  8
SUNPOU
100
AcDbTrace
 10
53264.13034564906
 20
-2414.43757030675
 30
0.0
 11
53264.13034564906
 21
-2441.104236973417
 31
0.0
 12
53344.13034564906
 22
-2427.770903640083
 32
0.0
 13
53344.13034564906
 23
-2427.770903640083
 33
0.0
  0
MTEXT
  5
11A6F
330
106B2
100
AcDbEntity
  8
SUNPOU
100
AcDbMText
 10
53194.13034564906
 20
-2335.770903640083
 30
0.0
 40
120.0
 41
0.0
 71
     5
 72
     1
  1
\A1;300
 73
     1
 44
1.0
  0
POINT
  5
11A70
330
106B2
100
AcDbEntity
  8
DEFPOINTS
 62
     0
100
AcDbPoint
 10
53044.13034564906
 20
-1789.770903640081
 30
0.0
  0
POINT
  5
11A71
330
106B2
100
AcDbEntity
  8
DEFPOINTS
 62
     0
100
AcDbPoint
 10
53344.13034564906
 20
-1789.770903640081
 30
0.0
  0
POINT
  5
11A72
330
106B2
100
AcDbEntity
  8
DEFPOINTS
 62
     0
100
AcDbPoint
 10
53344.13034564906
 20
-2427.770903640083
 30
0.0
  0
ENDBLK
  5
106BD
330
106B2
100
AcDbEntity
  8
0
100
AcDbBlockEnd
  0
BLOCK
  5
106C8
330
106BE
100
AcDbEntity
  8
0
100
AcDbBlockBegin
  2
*D59
 70
     1
 10
0.0
 20
0.0
 30
0.0
  3
*D59
  1

  0
LINE
  5
11A61
330
106BE
100
AcDbEntity
  8
SUNPOU
370
    -2
100
AcDbLine
 10
48244.13034564906
 20
-1849.770903640081
 30
0.0
 11
48244.13034564906
 21
-2451.79281744578
 31
0.0
  0
LINE
  5
11A62
330
106BE
100
AcDbEntity
  8
SUNPOU
370
    -2
100
AcDbLine
 10
48544.13034564905
 20
-1849.770903640081
 30
0.0
 11
48544.13034564905
 21
-2451.79281744578
 31
0.0
  0
LINE
  5
11A63
330
106BE
100
AcDbEntity
  8
SUNPOU
370
    -2
100
AcDbLine
 10
48324.13034564906
 20
-2427.79281744578
 30
0.0
 11
48464.13034564905
 21
-2427.79281744578
 31
0.0
  0
SOLID
  5
11A64
330
106BE
100
AcDbEntity
  8
SUNPOU
100
AcDbTrace
 10
48324.13034564906
 20
-2414.459484112446
 30
0.0
 11
48324.13034564906
 21
-2441.126150779113
 31
0.0
 12
48244.13034564906
 22
-2427.79281744578
 32
0.0
 13
48244.13034564906
 23
-2427.79281744578
 33
0.0
  0
SOLID
  5
11A65
330
106BE
100
AcDbEntity
  8
SUNPOU
100
AcDbTrace
 10
48464.13034564905
 20
-2414.459484112446
 30
0.0
 11
48464.13034564905
 21
-2441.126150779113
 31
0.0
 12
48544.13034564905
 22
-2427.79281744578
 32
0.0
 13
48544.13034564905
 23
-2427.79281744578
 33
0.0
  0
MTEXT
  5
11A66
330
106BE
100
AcDbEntity
  8
SUNPOU
100
AcDbMText
 10
48394.13034564906
 20
-2335.79281744578
 30
0.0
 40
120.0
 41
0.0
 71
     5
 72
     1
  1
\A1;300
 73
     1
 44
1.0
  0
POINT
  5
11A67
330
106BE
100
AcDbEntity
  8
DEFPOINTS
 62
     0
100
AcDbPoint
 10
48244.13034564906
 20
-1789.770903640081
 30
0.0
  0
POINT
  5
11A68
330
106BE
100
AcDbEntity
  8
DEFPOINTS
 62
     0
100
AcDbPoint
 10
48544.13034564905
 20
-1789.770903640081
 30
0.0
  0
POINT
  5
11A69
330
106BE
100
AcDbEntity
  8
DEFPOINTS
 62
     0
100
AcDbPoint
 10
48544.13034564905
 20
-2427.79281744578
 30
0.0
  0
ENDBLK
  5
106C9
330
106BE
100
AcDbEntity
  8
0
100
AcDbBlockEnd
  0
ENDSEC
  0
SECTION
  2
ENTITIES
  0
TEXT
  5
416
330
17
100
AcDbEntity
  8
SUNPOU
100
AcDbText
 10
5150.0
 20
4155.536076919234
 30
0.0
 40
150.0
  1

 72
     1
 11
5150.0
 21
4155.536076919234
 31
0.0
100
AcDbText
  0
TEXT
  5
6D79
330
17
100
AcDbEntity
  8
SUNPOU
100
AcDbText
 10
16032.94782817519
 20
4057.622502763472
 30
0.0
 40
90.0
  1

 72
     1
 11
16032.94782817519
 21
4057.622502763472
 31
0.0
100
AcDbText
  0
LINE
  5
1024F
330
17
100
AcDbEntity
  8
HASEN
100
AcDbLine
 10
48529.13034564906
 20
4277.574308936199
 30
0.0
 11
48544.13034564909
 21
4265.574308936173
 31
0.0
  0
LINE
  5
10250
330
17
100
AcDbEntity
  8
HASEN
100
AcDbLine
 10
48379.13034564906
 20
4357.574308936171
 30
0.0
 11
48399.13034564906
 21
4277.574308936175
 31
0.0
  0
DIMENSION
  5
10251
330
17
100
AcDbEntity
  8
SUNPOU
100
AcDbDimension
  2
*D8
 10
53044.13034564906
 20
582.3656410759286
 30
0.0
 11
52894.13034564906
 21
674.3656410759286
 31
0.0
 70
    32
  1
<>
 71
     5
 42
300.0
  3
1-40
100
AcDbAlignedDimension
 13
52744.13034564906
 23
1090.229096359917
 33
0.0
 14
53044.13034564906
 24
790.2290963599171
 34
0.0
100
AcDbRotatedDimension
  0
DIMENSION
  5
10252
330
17
100
AcDbEntity
  8
SUNPOU
100
AcDbDimension
  2
*D9
 10
52566.26689036506
 20
1090.229096359917
 30
0.0
 11
52474.26689036506
 21
940.2290963599257
 31
0.0
 70
    32
 71
     5
 42
300.0
  3
1-40
100
AcDbAlignedDimension
 13
53044.13034564906
 23
790.2290963599171
 33
0.0
 14
52744.13034564906
 24
1090.229096359917
 34
0.0
 50
90.0
100
AcDbRotatedDimension
  0
LINE
  5
10253
330
17
100
AcDbEntity
  8
SUNPOU
100
AcDbLine
 10
53199.13034564906
 20
1285.229096359917
 30
0.0
 11
53199.13034564906
 21
-1604.770903640085
 31
0.0
  0
LINE
  5
10254
330
17
100
AcDbEntity
  8
SUNPOU
100
AcDbLine
 10
53179.13034564906
 20
1265.229096359917
 30
0.0
 11
53179.13034564906
 21
-1584.770903640085
 31
0.0
  0
LINE
  5
10255
330
17
100
AcDbEntity
  8
SUNPOU
100
AcDbLine
 10
50794.13034564906
 20
-1584.770903640085
 30
0.0
 11
53179.13034564906
 21
-1584.770903640085
 31
0.0
  0
LINE
  5
10256
330
17
100
AcDbEntity
  8
SUNPOU
100
AcDbLine
 10
50794.13034564906
 20
-1604.770903640085
 30
0.0
 11
53199.13034564906
 21
-1604.770903640085
 31
0.0
  0
LINE
  5
10257
330
17
100
AcDbEntity
  8
SUNPOU
100
AcDbLine
 10
50794.13034564906
 20
1285.229096359917
 30
0.0
 11
53199.13034564906
 21
1285.229096359917
 31
0.0
  0
LINE
  5
10258
330
17
100
AcDbEntity
  8
SUNPOU
100
AcDbLine
 10
50794.13034564906
 20
1265.229096359917
 30
0.0
 11
53179.13034564906
 21
1265.229096359917
 31
0.0
  0
ARC
  5
10259
330
17
100
AcDbEntity
  8
SUNPOU
100
AcDbCircle
 10
48595.13034564905
 20
-1358.770903640081
 30
0.0
 40
115.0
100
AcDbArc
 50
180.0
 51
270.0
  0
ARC
  5
1025A
330
17
100
AcDbEntity
  8
SUNPOU
100
AcDbCircle
 10
48597.13034564905
 20
-1356.770903640081
 30
0.0
 40
95.0
100
AcDbArc
 50
180.0
 51
270.0
  0
LINE
  5
1025B
330
17
100
AcDbEntity
  8
SUNPOU
100
AcDbLine
 10
48837.91714221346
 20
-1424.770903640083
 30
0.0
 11
48529.13034564906
 21
-1115.98410707567
 31
0.0
  0
ARC
  5
1025C
330
17
100
AcDbEntity
  8
SUNPOU
100
AcDbCircle
 10
48595.13034564906
 20
1039.229096359916
 30
0.0
 40
115.0
100
AcDbArc
 50
90.0
 51
180.0
  0
ARC
  5
1025D
330
17
100
AcDbEntity
  8
SUNPOU
100
AcDbCircle
 10
48597.13034564906
 20
1037.229096359916
 30
0.0
 40
95.0
100
AcDbArc
 50
90.0
 51
180.0
  0
LINE
  5
1025E
330
17
100
AcDbEntity
  8
SUNPOU
100
AcDbLine
 10
48529.13034564906
 20
796.4422997955135
 30
0.0
 11
48837.91714221346
 21
1105.229096359916
 31
0.0
  0
LINE
  5
1025F
330
17
100
AcDbEntity
  8
SUNPOU
100
AcDbLine
 10
48837.91714221346
 20
-1424.770903640083
 30
0.0
 11
50794.13034564906
 21
-1424.770903640083
 31
0.0
  0
LINE
  5
10260
330
17
100
AcDbEntity
  8
SUNPOU
100
AcDbLine
 10
48597.13034564905
 20
-1451.770903640081
 30
0.0
 11
50794.13034564906
 21
-1451.770903640083
 31
0.0
  0
LINE
  5
10261
330
17
100
AcDbEntity
  8
SUNPOU
100
AcDbLine
 10
48595.13034564905
 20
-1473.770903640081
 30
0.0
 11
50794.13034564906
 21
-1473.770903640083
 31
0.0
  0
LINE
  5
10262
330
17
100
AcDbEntity
  8
SUNPOU
100
AcDbLine
 10
48399.13034564904
 20
-1594.770903640081
 30
0.0
 11
50794.13034564906
 21
-1594.770903640083
 31
0.0
  0
LINE
  5
10263
330
17
100
AcDbEntity
  8
SUNPOU
100
AcDbLine
 10
48379.13034564904
 20
-1614.770903640081
 30
0.0
 11
50794.13034564906
 21
-1614.770903640083
 31
0.0
  0
LINE
  5
10264
330
17
100
AcDbEntity
  8
SUNPOU
100
AcDbLine
 10
48379.13034564904
 20
-1614.770903640081
 30
0.0
 11
48379.13034564906
 21
1295.229096359916
 31
0.0
  0
LINE
  5
10265
330
17
100
AcDbEntity
  8
SUNPOU
100
AcDbLine
 10
48399.13034564904
 20
-1594.770903640081
 30
0.0
 11
48399.13034564906
 21
1275.229096359916
 31
0.0
  0
LINE
  5
10266
330
17
100
AcDbEntity
  8
SUNPOU
100
AcDbLine
 10
48480.13034564905
 20
-1358.770903640081
 30
0.0
 11
48480.13034564906
 21
1039.229096359916
 31
0.0
  0
LINE
  5
10267
330
17
100
AcDbEntity
  8
SUNPOU
100
AcDbLine
 10
48502.13034564905
 20
-1356.770903640081
 30
0.0
 11
48502.13034564906
 21
1037.229096359916
 31
0.0
  0
LINE
  5
10268
330
17
100
AcDbEntity
  8
SUNPOU
100
AcDbLine
 10
48529.13034564906
 20
-1115.98410707567
 30
0.0
 11
48529.13034564906
 21
796.4422997955135
 31
0.0
  0
LINE
  5
10269
330
17
100
AcDbEntity
  8
SUNPOU
100
AcDbLine
 10
48379.13034564906
 20
1295.229096359916
 30
0.0
 11
50794.13034564906
 21
1295.229096359917
 31
0.0
  0
LINE
  5
1026A
330
17
100
AcDbEntity
  8
SUNPOU
100
AcDbLine
 10
48399.13034564906
 20
1275.229096359916
 30
0.0
 11
50794.13034564906
 21
1275.229096359917
 31
0.0
  0
LINE
  5
1026B
330
17
100
AcDbEntity
  8
SUNPOU
100
AcDbLine
 10
48595.13034564906
 20
1154.229096359916
 30
0.0
 11
50794.13034564906
 21
1154.229096359917
 31
0.0
  0
LINE
  5
1026C
330
17
100
AcDbEntity
  8
SUNPOU
100
AcDbLine
 10
48597.13034564906
 20
1132.229096359916
 30
0.0
 11
50794.13034564906
 21
1132.229096359917
 31
0.0
  0
LINE
  5
1026D
330
17
100
AcDbEntity
  8
SUNPOU
100
AcDbLine
 10
48837.91714221346
 20
1105.229096359916
 30
0.0
 11
50794.13034564906
 21
1105.229096359917
 31
0.0
  0
LINE
  5
1026F
330
17
100
AcDbEntity
  8
SEIHIN
100
AcDbLine
 10
53044.13034564906
 20
-1109.770903640087
 30
0.0
 11
52744.13034564906
 21
-1409.770903640081
 31
0.0
  0
LINE
  5
10270
330
17
100
AcDbEntity
  8
SEIHIN
100
AcDbLine
 10
48544.13034564905
 20
790.2290963599153
 30
0.0
 11
48844.13034564906
 21
1090.229096359916
 31
0.0
  0
LINE
  5
10271
330
17
100
AcDbEntity
  8
SEIHIN
100
AcDbLine
 10
53044.13034564906
 20
790.2290963599153
 30
0.0
 11
52744.13034564906
 21
1090.229096359917
 31
0.0
  0
LINE
  5
10272
330
17
100
AcDbEntity
  8
SEIHIN
100
AcDbLine
 10
48844.13034564906
 20
-1409.770903640081
 30
0.0
 11
48544.13034564905
 21
-1109.770903640076
 31
0.0
  0
LINE
  5
10273
330
17
100
AcDbEntity
  8
SEIHIN
100
AcDbLine
 10
52744.13034564906
 20
-1409.770903640081
 30
0.0
 11
48844.13034564906
 21
-1409.770903640081
 31
0.0
  0
LINE
  5
10274
330
17
100
AcDbEntity
  8
SEIHIN
100
AcDbLine
 10
48844.13034564906
 20
1090.229096359916
 30
0.0
 11
52744.13034564906
 21
1090.229096359917
 31
0.0
  0
LINE
  5
10275
330
17
100
AcDbEntity
  8
SEIHIN
100
AcDbLine
 10
53044.13034564906
 20
790.2290963599153
 30
0.0
 11
53044.13034564906
 21
-1109.770903640087
 31
0.0
  0
LINE
  5
10276
330
17
100
AcDbEntity
  8
SEIHIN
100
AcDbLine
 10
48544.13034564905
 20
-1109.770903640076
 30
0.0
 11
48544.13034564905
 21
790.2290963599153
 31
0.0
  0
LINE
  5
10277
330
17
100
AcDbEntity
  8
PC
100
AcDbLine
 10
55805.2186773225
 20
-1649.770903640081
 30
0.0
 11
55910.2186773225
 21
-1649.770903640081
 31
0.0
  0
LINE
  5
10278
330
17
100
AcDbEntity
  8
PC
100
AcDbLine
 10
55857.71867732251
 20
-1702.270903640081
 30
0.0
 11
55857.71867732251
 21
-1597.270903640081
 31
0.0
  0
CIRCLE
  5
10279
330
17
100
AcDbEntity
  8
PC
100
AcDbCircle
 10
55857.7186773225
 20
-1649.770903640081
 30
0.0
 40
52.5
  0
CIRCLE
  5
1027A
330
17
100
AcDbEntity
  8
PC
100
AcDbCircle
 10
55857.7186773225
 20
-1489.770903640081
 30
0.0
 40
52.5
  0
LINE
  5
1027B
330
17
100
AcDbEntity
  8
PC
100
AcDbLine
 10
55857.71867732251
 20
-1542.270903640081
 30
0.0
 11
55857.71867732251
 21
-1437.270903640081
 31
0.0
  0
LINE
  5
1027C
330
17
100
AcDbEntity
  8
PC
100
AcDbLine
 10
55805.2186773225
 20
-1489.770903640081
 30
0.0
 11
55910.2186773225
 21
-1489.770903640081
 31
0.0
  0
LINE
  5
1027D
330
17
100
AcDbEntity
  8
PC
100
AcDbLine
 10
56115.2186773225
 20
-1489.770903640081
 30
0.0
 11
56220.2186773225
 21
-1489.770903640081
 31
0.0
  0
LINE
  5
1027E
330
17
100
AcDbEntity
  8
PC
100
AcDbLine
 10
56167.71867732251
 20
-1542.270903640081
 30
0.0
 11
56167.71867732251
 21
-1437.270903640081
 31
0.0
  0
CIRCLE
  5
1027F
330
17
100
AcDbEntity
  8
PC
100
AcDbCircle
 10
56167.7186773225
 20
-1489.770903640081
 30
0.0
 40
52.5
  0
CIRCLE
  5
10280
330
17
100
AcDbEntity
  8
PC
100
AcDbCircle
 10
56167.7186773225
 20
-1649.770903640081
 30
0.0
 40
52.5
  0
LINE
  5
10281
330
17
100
AcDbEntity
  8
PC
100
AcDbLine
 10
56167.71867732251
 20
-1702.270903640081
 30
0.0
 11
56167.71867732251
 21
-1597.270903640081
 31
0.0
  0
LINE
  5
10282
330
17
100
AcDbEntity
  8
PC
100
AcDbLine
 10
56115.2186773225
 20
-1649.770903640081
 30
0.0
 11
56220.2186773225
 21
-1649.770903640081
 31
0.0
  0
CIRCLE
  5
10283
330
17
100
AcDbEntity
  8
PC
100
AcDbCircle
 10
56477.7186773225
 20
-1489.770903640081
 30
0.0
 40
52.5
  0
LINE
  5
10284
330
17
100
AcDbEntity
  8
PC
100
AcDbLine
 10
56477.71867732251
 20
-1542.270903640081
 30
0.0
 11
56477.71867732251
 21
-1437.270903640081
 31
0.0
  0
LINE
  5
10285
330
17
100
AcDbEntity
  8
PC
100
AcDbLine
 10
56425.2186773225
 20
-1489.770903640081
 30
0.0
 11
56530.2186773225
 21
-1489.770903640081
 31
0.0
  0
LINE
  5
10286
330
17
100
AcDbEntity
  8
PC
100
AcDbLine
 10
56425.2186773225
 20
-1649.770903640081
 30
0.0
 11
56530.2186773225
 21
-1649.770903640081
 31
0.0
  0
LINE
  5
10287
330
17
100
AcDbEntity
  8
PC
100
AcDbLine
 10
56477.71867732251
 20
-1702.270903640081
 30
0.0
 11
56477.71867732251
 21
-1597.270903640081
 31
0.0
  0
CIRCLE
  5
10288
330
17
100
AcDbEntity
  8
PC
100
AcDbCircle
 10
56477.7186773225
 20
-1649.770903640081
 30
0.0
 40
52.5
  0
LINE
  5
10289
330
17
100
AcDbEntity
  8
PC
100
AcDbLine
 10
56425.21867732251
 20
1335.229096359918
 30
0.0
 11
56530.21867732251
 21
1335.229096359918
 31
0.0
  0
CIRCLE
  5
1028A
330
17
100
AcDbEntity
  8
PC
100
AcDbCircle
 10
56477.71867732251
 20
1335.229096359918
 30
0.0
 40
52.5
  0
CIRCLE
  5
1028B
330
17
100
AcDbEntity
  8
PC
100
AcDbCircle
 10
56477.71867732251
 20
1175.229096359917
 30
0.0
 40
52.5
  0
LINE
  5
1028C
330
17
100
AcDbEntity
  8
PC
100
AcDbLine
 10
56425.21867732251
 20
1175.229096359917
 30
0.0
 11
56530.21867732251
 21
1175.229096359917
 31
0.0
  0
LINE
  5
1028D
330
17
100
AcDbEntity
  8
PC
100
AcDbLine
 10
55805.21867732251
 20
1335.229096359918
 30
0.0
 11
55910.21867732251
 21
1335.229096359918
 31
0.0
  0
LINE
  5
1028E
330
17
100
AcDbEntity
  8
PC
100
AcDbLine
 10
55857.71867732251
 20
1387.729096359918
 30
0.0
 11
55857.71867732251
 21
1282.729096359918
 31
0.0
  0
CIRCLE
  5
1028F
330
17
100
AcDbEntity
  8
PC
100
AcDbCircle
 10
55857.71867732251
 20
1335.229096359918
 30
0.0
 40
52.5
  0
CIRCLE
  5
10290
330
17
100
AcDbEntity
  8
PC
100
AcDbCircle
 10
55857.71867732251
 20
1175.229096359917
 30
0.0
 40
52.5
  0
LINE
  5
10291
330
17
100
AcDbEntity
  8
PC
100
AcDbLine
 10
55857.71867732251
 20
1227.729096359917
 30
0.0
 11
55857.71867732251
 21
1122.729096359917
 31
0.0
  0
LINE
  5
10292
330
17
100
AcDbEntity
  8
PC
100
AcDbLine
 10
55805.21867732251
 20
1175.229096359917
 30
0.0
 11
55910.21867732251
 21
1175.229096359917
 31
0.0
  0
LINE
  5
10293
330
17
100
AcDbEntity
  8
PC
100
AcDbLine
 10
56115.21867732251
 20
1175.229096359917
 30
0.0
 11
56220.21867732251
 21
1175.229096359917
 31
0.0
  0
LINE
  5
10294
330
17
100
AcDbEntity
  8
PC
100
AcDbLine
 10
56167.71867732251
 20
1227.729096359917
 30
0.0
 11
56167.71867732251
 21
1122.729096359917
 31
0.0
  0
CIRCLE
  5
10295
330
17
100
AcDbEntity
  8
PC
100
AcDbCircle
 10
56167.71867732251
 20
1175.229096359917
 30
0.0
 40
52.5
  0
CIRCLE
  5
10296
330
17
100
AcDbEntity
  8
PC
100
AcDbCircle
 10
56167.71867732251
 20
1335.229096359918
 30
0.0
 40
52.5
  0
LINE
  5
10297
330
17
100
AcDbEntity
  8
PC
100
AcDbLine
 10
56167.71867732251
 20
1387.729096359918
 30
0.0
 11
56167.71867732251
 21
1282.729096359918
 31
0.0
  0
LINE
  5
10298
330
17
100
AcDbEntity
  8
PC
100
AcDbLine
 10
56115.21867732251
 20
1335.229096359918
 30
0.0
 11
56220.21867732251
 21
1335.229096359918
 31
0.0
  0
LINE
  5
10299
330
17
100
AcDbEntity
  8
PC
100
AcDbLine
 10
56477.71867732251
 20
1387.729096359918
 30
0.0
 11
56477.71867732251
 21
1282.729096359918
 31
0.0
  0
LINE
  5
1029A
330
17
100
AcDbEntity
  8
PC
100
AcDbLine
 10
56477.71867732251
 20
1227.729096359917
 30
0.0
 11
56477.71867732251
 21
1122.729096359917
 31
0.0
  0
LINE
  5
1029B
330
17
100
AcDbEntity
  8
PC
  6
HIDDEN
 48
0.4
100
AcDbLine
 10
53244.13034564906
 20
3542.574308936169
 30
0.0
 11
53244.13034564906
 21
3472.574308936169
 31
0.0
  0
LINE
  5
1029C
330
17
100
AcDbEntity
  8
PC
  6
HIDDEN
 48
0.4
100
AcDbLine
 10
53244.13034564906
 20
3472.574308936171
 30
0.0
 11
53344.13034564906
 21
3455.074308936173
 31
0.0
  0
LINE
  5
1029D
330
17
100
AcDbEntity
  8
PC
  6
HIDDEN
 48
0.4
100
AcDbLine
 10
53244.13034564906
 20
3542.574308936171
 30
0.0
 11
53344.13034564906
 21
3560.074308936173
 31
0.0
  0
LINE
  5
1029E
330
17
100
AcDbEntity
  8
PC
  6
HIDDEN
 48
0.4
100
AcDbLine
 10
53244.13034564906
 20
3852.574308936169
 30
0.0
 11
53244.13034564906
 21
3782.574308936169
 31
0.0
  0
LINE
  5
1029F
330
17
100
AcDbEntity
  8
PC
  6
HIDDEN
 48
0.4
100
AcDbLine
 10
53244.13034564906
 20
3782.574308936171
 30
0.0
 11
53344.13034564906
 21
3765.074308936173
 31
0.0
  0
LINE
  5
102A0
330
17
100
AcDbEntity
  8
PC
  6
HIDDEN
 48
0.4
100
AcDbLine
 10
53244.13034564906
 20
3852.574308936171
 30
0.0
 11
53344.13034564906
 21
3870.074308936173
 31
0.0
  0
LINE
  5
102A5
330
17
100
AcDbEntity
  8
SUNPOU
100
AcDbLine
 10
55513.65600197944
 20
2416.2195260268
 30
0.0
 11
56773.14787366767
 21
2416.2195260268
 31
0.0
  0
DIMENSION
  5
102A6
330
17
100
AcDbEntity
  8
SUNPOU
100
AcDbDimension
  2
*D10
 10
53704.13034564906
 20
4357.574308936173
 30
0.0
 11
53704.13034564906
 21
4589.574308936181
 31
0.0
 70
   160
 71
     5
 42
230.0
  3
1-40
100
AcDbAlignedDimension
 13
53344.13034564905
 23
4127.574308936173
 33
0.0
 14
53344.13034564906
 24
4357.574308936173
 34
0.0
 50
90.0
100
AcDbRotatedDimension
  0
TEXT
  5
102A7
330
17
100
AcDbEntity
  8
SUNPOU
100
AcDbText
 10
58550.79701231572
 20
-2979.092357730489
 30
0.0
 40
140.0
  1
名　   　称
 72
     4
 11
58994.13034564906
 21
-2909.092357730489
 31
0.0
100
AcDbText
  0
LINE
  5
102A8
330
17
100
AcDbEntity
  8
HAIKIN
100
AcDbLine
 10
58394.13034564906
 20
-2789.092357730489
 30
0.0
 11
58394.13034564906
 21
-4602.425691063823
 31
0.0
  0
LINE
  5
102A9
330
17
100
AcDbEntity
  8
HAIKIN
100
AcDbLine
 10
58394.13034564906
 20
-2789.092357730489
 30
0.0
 11
63194.13034564905
 21
-2789.092357730489
 31
0.0
  0
LINE
  5
102AA
330
17
100
AcDbEntity
  8
SUNPOU
100
AcDbLine
 10
58394.13034564906
 20
-3029.092357730489
 30
0.0
 11
63194.13034564905
 21
-3029.092357730489
 31
0.0
  0
LINE
  5
102AB
330
17
100
AcDbEntity
  8
SUNPOU
100
AcDbLine
 10
58394.13034564906
 20
-3269.092357730489
 30
0.0
 11
63194.13034564905
 21
-3269.092357730489
 31
0.0
  0
LINE
  5
102AC
330
17
100
AcDbEntity
  8
SUNPOU
100
AcDbLine
 10
58394.13034564906
 20
-3509.092357730489
 30
0.0
 11
63194.13034564905
 21
-3509.092357730489
 31
0.0
  0
LINE
  5
102AD
330
17
100
AcDbEntity
  8
SUNPOU
100
AcDbLine
 10
58394.13034564906
 20
-3749.092357730489
 30
0.0
 11
63194.13034564905
 21
-3749.092357730489
 31
0.0
  0
LINE
  5
102AE
330
17
100
AcDbEntity
  8
SUNPOU
100
AcDbLine
 10
58394.13034564906
 20
-4055.759024397157
 30
0.0
 11
63194.13034564905
 21
-4055.759024397157
 31
0.0
  0
LINE
  5
102AF
330
17
100
AcDbEntity
  8
SUNPOU
100
AcDbLine
 10
58394.13034564906
 20
-4362.425691063823
 30
0.0
 11
63194.13034564905
 21
-4362.425691063823
 31
0.0
  0
LINE
  5
102B0
330
17
100
AcDbEntity
  8
SUNPOU
100
AcDbLine
 10
59594.13034564906
 20
-2789.092357730489
 30
0.0
 11
59594.13034564906
 21
-3749.092357730489
 31
0.0
  0
LINE
  5
102B1
330
17
100
AcDbEntity
  8
SUNPOU
100
AcDbLine
 10
61194.13034564905
 20
-3269.092357730489
 30
0.0
 11
61194.13034564905
 21
-3509.092357730489
 31
0.0
  0
LINE
  5
102B2
330
17
100
AcDbEntity
  8
SUNPOU
100
AcDbLine
 10
61994.13034564905
 20
-3269.092357730489
 30
0.0
 11
61994.13034564905
 21
-3509.092357730489
 31
0.0
  0
TEXT
  5
102B3
330
17
100
AcDbEntity
  8
SUNPOU
100
AcDbText
 10
58550.79701231572
 20
-3219.092357730489
 30
0.0
 40
140.0
  1
呼 び 寸 法
 72
     4
 11
58994.13034564906
 21
-3149.092357730489
 31
0.0
100
AcDbText
  0
TEXT
  5
102B4
330
17
100
AcDbEntity
  8
SUNPOU
100
AcDbText
 10
58560.13034564906
 20
-3459.092357730489
 30
0.0
 40
140.0
  1
発 行 年 月
 72
     4
 11
58994.13034564906
 21
-3389.092357730489
 31
0.0
100
AcDbText
  0
TEXT
  5
102B5
330
17
100
AcDbEntity
  8
SUNPOU
100
AcDbText
 10
58546.13034564906
 20
-3699.092357730489
 30
0.0
 40
140.0
  1
図　   　番
 72
     4
 11
58994.13034564906
 21
-3629.092357730489
 31
0.0
100
AcDbText
  0
TEXT
  5
102B6
330
17
100
AcDbEntity
  8
SUNPOU
100
AcDbText
 10
58555.46367898239
 20
-4552.425691063823
 30
0.0
 40
140.0
  1
社　   　名
 72
     4
 11
58994.13034564906
 21
-4482.425691063823
 31
0.0
100
AcDbText
  0
TEXT
  5
102B7
330
17
100
AcDbEntity
  8
SUNPOU
100
AcDbText
 10
59744.58095575868
 20
-2958.852561119504
 30
0.0
 40
120.0
  1
PCボックスカルバート 構造図  (150型)
 11
59744.58095575868
 21
-2974.852561119504
 31
0.0
100
AcDbText
 73
     1
  0
TEXT
  5
102B8
330
17
100
AcDbEntity
  8
SUNPOU
100
AcDbText
 10
59744.58095575868
 20
-3457.287663569434
 30
0.0
 40
120.0
  1
平成   年   月版
 11
59744.58095575868
 21
-3473.287663569434
 31
0.0
100
AcDbText
 73
     1
  0
TEXT
  5
102B9
330
17
100
AcDbEntity
  8
SUNPOU
100
AcDbText
 10
61391.83211629123
 20
-3472.080702806699
 30
0.0
 40
140.0
  1
縮 尺
 72
     4
 11
61583.16544962456
 21
-3402.080702806699
 31
0.0
100
AcDbText
  0
TEXT
  5
102BA
330
17
100
AcDbEntity
  8
SUNPOU
100
AcDbText
 10
62276.16240845192
 20
-3462.080702806699
 30
0.0
 40
120.0
  1
S = 1/40
 41
0.8
 72
     4
 11
62581.76240845192
 21
-3402.080702806699
 31
0.0
100
AcDbText
  0
LINE
  5
102BB
330
17
100
AcDbEntity
  8
SUNPOU
100
AcDbLine
 10
59594.13034564906
 20
-4362.425691063823
 30
0.0
 11
59594.13034564906
 21
-4602.425691063823
 31
0.0
  0
TEXT
  5
102BC
330
17
100
AcDbEntity
  8
SUNPOU
100
AcDbText
 10
59788.89867859675
 20
-4542.425691063823
 30
0.0
 40
120.0
  1
新和コンクリ－ト工業株式会社
 11
59788.89867859675
 21
-4482.425691063823
 31
0.0
100
AcDbText
 73
     2
  0
TEXT
  5
102BD
330
17
100
AcDbEntity
  8
SUNPOU
100
AcDbText
 10
59744.58095575868
 20
-3198.852561119504
 30
0.0
 40
120.0
  1
4500x2500x1000
 41
0.8
 11
59744.58095575868
 21
-3214.852561119504
 31
0.0
100
AcDbText
 73
     1
  0
TEXT
  5
102BE
330
17
100
AcDbEntity
  8
SUNPOU
100
AcDbText
 10
58533.8785133607
 20
-4282.959421695523
 30
0.0
 40
140.0
  1
全国ボックスカルバート協会
 11
58533.8785133607
 21
-4212.959421695523
 31
0.0
100
AcDbText
 73
     2
  0
LINE
  5
102BF
330
17
100
AcDbEntity
  8
HAIKIN
100
AcDbLine
 10
47594.13034564906
 20
-4602.425691063823
 30
0.0
 11
63194.13034564905
 21
-4602.425691063823
 31
0.0
  0
LINE
  5
102C0
330
17
100
AcDbEntity
  8
HAIKIN
100
AcDbLine
 10
47594.13034564906
 20
-4602.425691063823
 30
0.0
 11
47594.13034564906
 21
6397.574308936175
 31
0.0
  0
LINE
  5
102C1
330
17
100
AcDbEntity
  8
HAIKIN
100
AcDbLine
 10
47594.13034564906
 20
6397.574308936175
 30
0.0
 11
63194.13034564905
 21
6397.574308936175
 31
0.0
  0
LINE
  5
102C2
330
17
100
AcDbEntity
  8
HAIKIN
100
AcDbLine
 10
63194.13034564905
 20
6397.574308936175
 30
0.0
 11
63194.13034564905
 21
-4602.425691063823
 31
0.0
  0
LINE
  5
102C3
330
17
100
AcDbEntity
  8
SUNPOU
100
AcDbLine
 10
48244.13034564906
 20
2416.2195260268
 30
0.0
 11
49489.48092707018
 21
2416.2195260268
 31
0.0
  0
DIMENSION
  5
102C4
330
17
100
AcDbEntity
  8
SUNPOU
100
AcDbDimension
  2
*D11
 10
55058.99510743326
 20
1470.229096359918
 30
0.0
 11
55058.99510743326
 21
1774.229096359927
 31
0.0
 70
   160
 71
     5
 42
135.0
  3
1-40
100
AcDbAlignedDimension
 13
55707.71867732251
 23
1335.229096359918
 33
0.0
 14
55707.71867732251
 24
1470.229096359918
 34
0.0
 50
90.0
100
AcDbRotatedDimension
1001
ACAD
1000
DSTYLE
1002
{
1070
   344
1005
0
1070
   173
1070
     1
1070
   343
1005
D4A3
1002
}
  0
DIMENSION
  5
102C5
330
17
100
AcDbEntity
  8
SUNPOU
100
AcDbDimension
  2
*D12
 10
54778.99510743326
 20
1470.229096359917
 30
0.0
 11
54778.99510743326
 21
1774.229096359926
 31
0.0
 70
   160
 71
     5
 42
215.0000000000027
  3
1-40
100
AcDbAlignedDimension
 13
55627.71867732251
 23
1255.229096359914
 33
0.0
 14
55707.71867732251
 24
1470.229096359917
 34
0.0
 50
270.0
100
AcDbRotatedDimension
1001
ACAD
1000
DSTYLE
1002
{
1070
   343
1005
D4A3
1070
   173
1070
     1
1070
   344
1005
0
1002
}
  0
DIMENSION
  5
102C6
330
17
100
AcDbEntity
  8
SUNPOU
100
AcDbDimension
  2
*D13
 10
55058.99510743326
 20
1090.229096359919
 30
0.0
 11
55058.99510743326
 21
818.2290963599278
 31
0.0
 70
   160
 71
     5
 42
84.99999999999818
  3
1-40
100
AcDbAlignedDimension
 13
55627.71867732251
 23
1175.229096359917
 33
0.0
 14
55627.71867732251
 24
1090.229096359919
 34
0.0
 50
270.0
100
AcDbRotatedDimension
1001
ACAD
1000
DSTYLE
1002
{
1070
   173
1070
     1
1070
   343
1005
D4A3
1002
}
  0
DIMENSION
  5
102C7
330
17
100
AcDbEntity
  8
SUNPOU
100
AcDbDimension
  2
*D14
 10
54778.99510743326
 20
1090.229096359919
 30
0.0
 11
54778.99510743326
 21
786.2290963599278
 31
0.0
 70
   160
 71
     5
 42
164.9999999999955
  3
1-40
100
AcDbAlignedDimension
 13
55627.71867732251
 23
1255.229096359914
 33
0.0
 14
55627.71867732251
 24
1090.229096359919
 34
0.0
 50
270.0
100
AcDbRotatedDimension
1001
ACAD
1000
DSTYLE
1002
{
1070
   344
1005
0
1070
   173
1070
     1
1070
   343
1005
D4A3
1002
}
  0
LINE
  5
102C8
330
17
100
AcDbEntity
  8
HASEN
100
AcDbLine
 10
56627.71867732251
 20
1105.22909635992
 30
0.0
 11
56615.71867732251
 21
1090.22909635992
 31
0.0
  0
LINE
  5
102C9
330
17
100
AcDbEntity
  8
HASEN
100
AcDbLine
 10
56707.71867732251
 20
1295.229096359918
 30
0.0
 11
56627.7186773225
 21
1275.229096359923
 31
0.0
  0
DIMENSION
  5
102CA
330
17
100
AcDbEntity
  8
SUNPOU
100
AcDbDimension
  2
*D15
 10
54778.99510743326
 20
-1409.770903640081
 30
0.0
 11
54778.99510743326
 21
-1113.770903640072
 31
0.0
 70
   160
 71
     5
 42
160.0
  3
1-40
100
AcDbAlignedDimension
 13
55627.71867732251
 23
-1569.770903640081
 33
0.0
 14
55627.71867732251
 24
-1409.770903640081
 34
0.0
 50
90.0
100
AcDbRotatedDimension
1001
ACAD
1000
DSTYLE
1002
{
1070
   173
1070
     1
1070
   343
1005
D4A3
1002
}
  0
DIMENSION
  5
102CB
330
17
100
AcDbEntity
  8
SUNPOU
100
AcDbDimension
  2
*D16
 10
55058.99510743326
 20
-1409.770903640081
 30
0.0
 11
55058.99510743326
 21
-1145.770903640072
 31
0.0
 70
   160
 71
     5
 42
80.0
  3
1-40
100
AcDbAlignedDimension
 13
55627.71867732251
 23
-1489.770903640081
 33
0.0
 14
55627.71867732251
 24
-1409.770903640081
 34
0.0
 50
90.0
100
AcDbRotatedDimension
1001
ACAD
1000
DSTYLE
1002
{
1070
   173
1070
     1
1070
   343
1005
D4A3
1002
}
  0
DIMENSION
  5
102CC
330
17
100
AcDbEntity
  8
SUNPOU
100
AcDbDimension
  2
*D17
 10
54778.99510743326
 20
-1789.770903640081
 30
0.0
 11
54778.99510743326
 21
-2101.770903640072
 31
0.0
 70
   160
 71
     5
 42
220.0
  3
1-40
100
AcDbAlignedDimension
 13
55627.71867732251
 23
-1569.770903640081
 33
0.0
 14
55707.71867732251
 24
-1789.770903640081
 34
0.0
 50
90.0
100
AcDbRotatedDimension
1001
ACAD
1000
DSTYLE
1002
{
1070
   173
1070
     1
1070
   343
1005
D4A3
1002
}
  0
LINE
  5
102CD
330
17
100
AcDbEntity
  8
HASEN
100
AcDbLine
 10
56627.71867732251
 20
-1424.770903640081
 30
0.0
 11
56615.71867732251
 21
-1409.770903640081
 31
0.0
  0
DIMENSION
  5
102CE
330
17
100
AcDbEntity
  8
SUNPOU
100
AcDbDimension
  2
*D18
 10
60534.5537241119
 20
2155.815780145363
 30
0.0
 11
60758.5537241119
 21
2155.815780145363
 31
0.0
 70
   160
 71
     5
 42
2.999997
  3
1-40
100
AcDbAlignedDimension
 13
60525.5537241119
 23
1371.898245343882
 33
0.0
 14
60534.5537241119
 24
1008.898245343882
 34
0.0
100
AcDbRotatedDimension
1001
ACAD
1000
DSTYLE
1002
{
1070
   144
1040
0.333333
1002
}
  0
DIMENSION
  5
102CF
330
17
100
AcDbEntity
  8
SUNPOU
100
AcDbDimension
  2
*D19
 10
60561.5537241119
 20
-2400.134482716538
 30
0.0
 11
60846.68368199385
 21
-2400.134482716538
 31
0.0
 70
   160
 71
     5
 42
11.999988
  3
1-40
100
AcDbAlignedDimension
 13
60525.5537241119
 23
-1754.458970088037
 33
0.0
 14
60561.5537241119
 24
-1769.458970088037
 34
0.0
100
AcDbRotatedDimension
1001
ACAD
1000
DSTYLE
1002
{
1070
   144
1040
0.333333
1002
}
  0
TEXT
  5
102D0
330
17
100
AcDbEntity
  8
SUNPOU
100
AcDbText
 10
61368.55363073791
 20
3760.907412700779
 30
0.0
 40
66.66666666666666
  1
t 
 41
0.8
100
AcDbText
  0
DIMENSION
  5
102D1
330
17
100
AcDbEntity
  8
SUNPOU
100
AcDbDimension
  2
*D20
 10
60934.55372411191
 20
816.898245343882
 30
0.0
 11
60934.55372411191
 21
560.8982453438917
 31
0.0
 70
   160
 71
     5
 42
14.999985
  3
1-40
100
AcDbAlignedDimension
 13
60525.5537241119
 23
861.8982453438821
 33
0.0
 14
60555.5537241119
 24
816.8982453438821
 34
0.0
 50
90.0
100
AcDbRotatedDimension
1001
ACAD
1000
DSTYLE
1002
{
1070
   144
1040
0.333333
1070
   173
1070
     1
1070
   343
1005
D4A3
1070
   344
1005
D4A3
1002
}
  0
DIMENSION
  5
102D2
330
17
100
AcDbEntity
  8
SUNPOU
100
AcDbDimension
  2
*D21
 10
60934.55372411191
 20
1008.898245343882
 30
0.0
 11
60934.55372411191
 21
1200.898245343892
 31
0.0
 70
   160
  1
<>
 71
     5
 42
21.999978
  3
1-40
100
AcDbAlignedDimension
 13
60534.5537241119
 23
942.8982453438821
 33
0.0
 14
60534.5537241119
 24
1008.898245343882
 34
0.0
 50
90.0
100
AcDbRotatedDimension
1001
ACAD
1000
DSTYLE
1002
{
1070
   144
1040
0.333333
1070
   173
1070
     1
1070
   343
1005
D4A3
1070
   344
1005
D4A3
1002
}
  0
DIMENSION
  5
102D3
330
17
100
AcDbEntity
  8
SUNPOU
100
AcDbDimension
  2
*D22
 10
60934.55372411191
 20
942.898245343882
 30
0.0
 11
60934.55372411191
 21
902.3982453438917
 31
0.0
 70
   160
 71
     5
 42
26.999973
  3
1-40
100
AcDbAlignedDimension
 13
60525.5537241119
 23
861.8982453438821
 33
0.0
 14
60534.5537241119
 24
942.8982453438821
 34
0.0
 50
90.0
100
AcDbRotatedDimension
1001
ACAD
1000
DSTYLE
1002
{
1070
   343
1005
D4A3
1070
   173
1070
     1
1070
   344
1005
D4A3
1070
   144
1040
0.333333
1002
}
  0
DIMENSION
  5
102D4
330
17
100
AcDbEntity
  8
SUNPOU
100
AcDbDimension
  2
*D23
 10
61568.0371224027
 20
1431.898245343882
 30
0.0
 11
61568.0371224027
 21
1401.898245343892
 31
0.0
 70
   160
 71
     5
 42
19.99998
  3
1-40
100
AcDbAlignedDimension
 13
60525.5537241119
 23
1371.898245343882
 33
0.0
 14
60285.5537241119
 24
1431.898245343882
 34
0.0
 50
90.0
100
AcDbRotatedDimension
1001
ACAD
1000
DSTYLE
1002
{
1070
   144
1040
0.333333
1002
}
  0
LINE
  5
102D5
330
17
100
AcDbEntity
  8
SUNPOU
100
AcDbLine
 10
60103.99796163761
 20
-2744.096324497419
 30
0.0
 11
59624.29393095894
 21
-2744.096324497419
 31
0.0
1001
ACAD
1000
DSTYLE
1002
{
1070
    78
1070
     8
1070
   284
1070
     8
1070
   140
1040
2.5
1070
   145
1040
1.0
1070
    74
1070
     0
1070
    73
1070
     0
1070
    40
1040
30.0
1070
   287
1070
     5
1070
    42
1040
2.0
1070
    44
1040
1.0
1070
    43
1040
7.0
1070
   141
1040
0.0
1070
   275
1070
     1
1070
    41
1040
2.0
1070
   285
1070
     8
1070
   286
1070
     8
1002
}
  0
LINE
  5
102D6
330
17
100
AcDbEntity
  8
SUNPOU
100
AcDbLine
 10
61288.72522806581
 20
-1394.458970088037
 30
0.0
 11
61258.72522806581
 21
-1379.458970088037
 31
0.0
  0
LINE
  5
102D7
330
17
100
AcDbEntity
  8
SUNPOU
100
AcDbLine
 10
61258.72522806581
 20
-1379.458970088037
 30
0.0
 11
61318.72522806581
 21
-1289.458970088037
 31
0.0
  0
LINE
  5
102D8
330
17
100
AcDbEntity
  8
SUNPOU
100
AcDbLine
 10
61318.72522806581
 20
-1289.458970088037
 30
0.0
 11
61288.72522806581
 21
-1274.458970088037
 31
0.0
  0
LINE
  5
102D9
330
17
100
AcDbEntity
  8
SUNPOU
100
AcDbLine
 10
61288.72522806581
 20
-824.458970088037
 30
0.0
 11
61288.72522806581
 21
-1274.45897008804
 31
0.0
  0
LINE
  5
102DA
330
17
100
AcDbEntity
  8
SEIHIN
100
AcDbLine
 10
60525.5537241119
 20
-1598.458970088037
 30
0.0
 11
60534.5537241119
 21
-1607.458970088037
 31
0.0
  0
LINE
  5
102DB
330
17
100
AcDbEntity
  8
SEIHIN
100
AcDbLine
 10
60534.5537241119
 20
-1673.458970088037
 30
0.0
 11
60525.5537241119
 21
-1682.458970088037
 31
0.0
  0
LINE
  5
102DC
330
17
100
AcDbEntity
  8
SEIHIN
100
AcDbLine
 10
60534.5537241119
 20
-1607.458970088037
 30
0.0
 11
60534.5537241119
 21
-1673.458970088037
 31
0.0
  0
LINE
  5
102DD
330
17
100
AcDbEntity
  8
SEIHIN
100
AcDbLine
 10
60525.5537241119
 20
-1364.458970088037
 30
0.0
 11
60525.5537241119
 21
-1598.458970088037
 31
0.0
  0
DIMENSION
  5
102DE
330
17
100
AcDbEntity
  8
SUNPOU
100
AcDbDimension
  2
*D24
 10
60534.5537241119
 20
-700.3379374182102
 30
0.0
 11
60758.5537241119
 21
-700.3379374182102
 31
0.0
 70
   160
 71
     5
 42
2.999997
  3
1-40
100
AcDbAlignedDimension
 13
60525.5537241119
 23
-1364.458970088037
 33
0.0
 14
60534.5537241119
 24
-1607.458970088037
 34
0.0
100
AcDbRotatedDimension
1001
ACAD
1000
DSTYLE
1002
{
1070
   144
1040
0.333333
1002
}
  0
LINE
  5
102DF
330
17
100
AcDbEntity
  8
SEIHIN
100
AcDbLine
 10
60048.72522806581
 20
-1334.458970088037
 30
0.0
 11
60288.72522806581
 21
-1394.458970088037
 31
0.0
  0
LINE
  5
102E0
330
17
100
AcDbEntity
  8
SEIHIN
100
AcDbLine
 10
60048.72522806581
 20
-899.458970088037
 30
0.0
 11
60048.72522806581
 21
-1334.458970088037
 31
0.0
  0
LINE
  5
102E1
330
17
100
AcDbEntity
  8
SEIHIN
100
AcDbLine
 10
60285.5537241119
 20
-899.458970088037
 30
0.0
 11
60285.5537241119
 21
-1304.458970088037
 31
0.0
  0
LINE
  5
102E2
330
17
100
AcDbEntity
  8
SUNPOU
100
AcDbLine
 10
59288.72522806581
 20
-1394.458970088037
 30
0.0
 11
59258.72522806581
 21
-1379.458970088037
 31
0.0
  0
LINE
  5
102E3
330
17
100
AcDbEntity
  8
SUNPOU
100
AcDbLine
 10
59258.72522806581
 20
-1379.458970088037
 30
0.0
 11
59318.72522806581
 21
-1289.458970088037
 31
0.0
  0
LINE
  5
102E4
330
17
100
AcDbEntity
  8
SUNPOU
100
AcDbLine
 10
59318.72522806581
 20
-1289.458970088037
 30
0.0
 11
59288.72522806581
 21
-1274.458970088037
 31
0.0
  0
LINE
  5
102E5
330
17
100
AcDbEntity
  8
SUNPOU
100
AcDbLine
 10
59288.72522806581
 20
-824.458970088037
 30
0.0
 11
59288.72522806581
 21
-1274.45897008804
 31
0.0
  0
LINE
  5
102E6
330
17
100
AcDbEntity
  8
SEIHIN
100
AcDbLine
 10
59288.72522806582
 20
-899.458970088037
 30
0.0
 11
60048.72522806581
 21
-899.458970088037
 31
0.0
  0
DIMENSION
  5
102E7
330
17
100
AcDbEntity
  8
SUNPOU
100
AcDbDimension
  2
*D25
 10
59008.72522806582
 20
-1334.458970088037
 30
0.0
 11
58916.72522806582
 21
-1116.958970088027
 31
0.0
 70
    32
 71
     5
 42
144.9998550000002
  3
1-40
100
AcDbAlignedDimension
 13
59288.72522806581
 23
-899.458970088036
 33
0.0
 14
60048.72522806581
 24
-1334.458970088037
 34
0.0
 50
90.0
100
AcDbRotatedDimension
1001
ACAD
1000
DSTYLE
1002
{
1070
   144
1040
0.333333
1002
}
  0
DIMENSION
  5
102E8
330
17
100
AcDbEntity
  8
SUNPOU
100
AcDbDimension
  2
*D26
 10
59008.72522806582
 20
-1394.458970088037
 30
0.0
 11
59008.72522806582
 21
-1364.458970088027
 31
0.0
 70
   160
 71
     5
 42
19.99998
  3
1-40
100
AcDbAlignedDimension
 13
60048.72522806581
 23
-1334.458970088037
 33
0.0
 14
60288.72522806581
 24
-1394.458970088037
 34
0.0
 50
90.0
100
AcDbRotatedDimension
1001
ACAD
1000
DSTYLE
1002
{
1070
   144
1040
0.333333
1002
}
  0
DIMENSION
  5
102E9
330
17
100
AcDbEntity
  8
SUNPOU
100
AcDbDimension
  2
*D27
 10
61568.72522806581
 20
-1304.458970088037
 30
0.0
 11
61568.72522806581
 21
-1334.458970088027
 31
0.0
 70
   160
 71
     5
 42
19.99998
  3
1-40
100
AcDbAlignedDimension
 13
60525.5537241119
 23
-1364.458970088037
 33
0.0
 14
60285.5537241119
 24
-1304.458970088037
 34
0.0
 50
90.0
100
AcDbRotatedDimension
1001
ACAD
1000
DSTYLE
1002
{
1070
   144
1040
0.333333
1002
}
  0
LINE
  5
102EA
330
17
100
AcDbEntity
  8
SEIHIN
100
AcDbLine
 10
60285.5537241119
 20
-1304.458970088037
 30
0.0
 11
60525.5537241119
 21
-1364.458970088037
 31
0.0
  0
LINE
  5
102EB
330
17
100
AcDbEntity
  8
SEIHIN
100
AcDbLine
 10
60285.5537241119
 20
-899.458970088037
 30
0.0
 11
61288.72522806581
 21
-899.458970088037
 31
0.0
  0
DIMENSION
  5
102EC
330
17
100
AcDbEntity
  8
SUNPOU
100
AcDbDimension
  2
*D28
 10
60285.5537241119
 20
-420.3379374182102
 30
0.0
 11
60405.5537241119
 21
-328.3379374182102
 31
0.0
 70
    32
 71
     5
 42
79.99992
  3
1-40
100
AcDbAlignedDimension
 13
60525.5537241119
 23
-1364.458970088037
 33
0.0
 14
60285.5537241119
 24
-899.458970088036
 34
0.0
100
AcDbRotatedDimension
1001
ACAD
1000
DSTYLE
1002
{
1070
   144
1040
0.333333
1002
}
  0
DIMENSION
  5
102ED
330
17
100
AcDbEntity
  8
SUNPOU
100
AcDbDimension
  2
*D29
 10
61568.72522806581
 20
-899.458970088037
 30
0.0
 11
61476.72522806581
 21
-1101.958970088027
 31
0.0
 70
    32
 71
     5
 42
134.9998650000001
  3
1-40
100
AcDbAlignedDimension
 13
60285.5537241119
 23
-1304.458970088037
 33
0.0
 14
61288.72522806581
 24
-899.458970088037
 34
0.0
 50
90.0
100
AcDbRotatedDimension
1001
ACAD
1000
DSTYLE
1002
{
1070
   144
1040
0.333333
1002
}
  0
LINE
  5
102EF
330
17
100
AcDbEntity
  8
SEIHIN
100
AcDbLine
 10
60561.5537241119
 20
-1769.458970088037
 30
0.0
 11
60555.5537241119
 21
-1799.458970088037
 31
0.0
  0
LINE
  5
102F0
330
17
100
AcDbEntity
  8
SEIHIN
100
AcDbLine
 10
60525.5537241119
 20
-1754.458970088037
 30
0.0
 11
60561.5537241119
 21
-1769.458970088037
 31
0.0
  0
LINE
  5
102F1
330
17
100
AcDbEntity
  8
SEIHIN
100
AcDbLine
 10
60555.5537241119
 20
-1799.458970088037
 30
0.0
 11
61288.72522806581
 21
-1799.458970088037
 31
0.0
  0
TEXT
  5
102F2
330
17
100
AcDbEntity
  8
SUNPOU
100
AcDbText
 10
59664.48819796855
 20
-2708.265613916257
 30
0.0
 40
120.0
  1
目地溝
100
AcDbText
  0
TEXT
  5
102F3
330
17
100
AcDbEntity
  8
SUNPOU
100
AcDbText
 10
59359.60803099012
 20
-2499.43986844999
 30
0.0
 40
120.0
  1
パッキン溝
100
AcDbText
  0
LINE
  5
102F4
330
17
100
AcDbEntity
  8
SUNPOU
100
AcDbLine
 10
60077.99501464274
 20
-2526.436889073244
 30
0.0
 11
59357.373732876
 21
-2526.436889073244
 31
0.0
1001
ACAD
1000
DSTYLE
1002
{
1070
    78
1070
     8
1070
   284
1070
     8
1070
   140
1040
2.5
1070
   145
1040
1.0
1070
    74
1070
     0
1070
    73
1070
     0
1070
    40
1040
30.0
1070
   287
1070
     5
1070
    42
1040
2.0
1070
    44
1040
1.0
1070
    43
1040
7.0
1070
   141
1040
0.0
1070
   275
1070
     1
1070
    41
1040
2.0
1070
   285
1070
     8
1070
   286
1070
     8
1002
}
  0
LINE
  5
102F5
330
17
100
AcDbEntity
  8
SEIHIN
100
AcDbLine
 10
60288.72522806581
 20
-1799.458970088037
 30
0.0
 11
59288.72522806581
 21
-1799.458970088037
 31
0.0
  0
LEADER
  5
102F6
330
17
100
AcDbEntity
  8
SUNPOU
100
AcDbLeader
  3
1-40
 76
     2
 10
60558.5537241119
 20
-1784.458970088037
 30
0.0
 10
60103.99796163761
 20
-2744.096324497419
 30
0.0
  0
DIMENSION
  5
102F7
330
17
100
AcDbEntity
  8
SUNPOU
100
AcDbDimension
  2
*D30
 10
60288.72522806581
 20
-2054.458970088037
 30
0.0
 11
60168.72522806581
 21
-1962.458970088037
 31
0.0
 70
    32
 71
     5
 42
79.99992
  3
1-40
100
AcDbAlignedDimension
 13
60048.72522806581
 23
-1334.458970088037
 33
0.0
 14
60288.72522806581
 24
-1799.458970088037
 34
0.0
100
AcDbRotatedDimension
1001
ACAD
1000
DSTYLE
1002
{
1070
   144
1040
0.333333
1002
}
  0
DIMENSION
  5
102F8
330
17
100
AcDbEntity
  8
SUNPOU
100
AcDbDimension
  2
*D31
 10
58728.72522806582
 20
-1799.458970088037
 30
0.0
 11
58636.72522806582
 21
-1349.458970088027
 31
0.0
 70
    32
 71
     5
 42
299.9997000000003
  3
1-40
100
AcDbAlignedDimension
 13
59288.72522806581
 23
-899.458970088036
 33
0.0
 14
59288.72522806581
 24
-1799.458970088037
 34
0.0
 50
90.0
100
AcDbRotatedDimension
1001
ACAD
1000
DSTYLE
1002
{
1070
   144
1040
0.333333
1002
}
  0
DIMENSION
  5
102F9
330
17
100
AcDbEntity
  8
SUNPOU
100
AcDbDimension
  2
*D32
 10
59008.72522806582
 20
-1799.458970088037
 30
0.0
 11
58916.72522806582
 21
-1596.958970088027
 31
0.0
 70
    32
 71
     5
 42
134.9998650000001
  3
1-40
100
AcDbAlignedDimension
 13
60288.72522806581
 23
-1394.458970088037
 33
0.0
 14
59288.72522806581
 24
-1799.458970088037
 34
0.0
 50
90.0
100
AcDbRotatedDimension
1001
ACAD
1000
DSTYLE
1002
{
1070
   144
1040
0.333333
1002
}
  0
LINE
  5
102FA
330
17
100
AcDbEntity
  8
SUNPOU
100
AcDbLine
 10
59288.72522806581
 20
-1394.45897008804
 30
0.0
 11
59288.72522806582
 21
-1874.458970088037
 31
0.0
  0
LINE
  5
102FB
330
17
100
AcDbEntity
  8
SEIHIN
100
AcDbLine
 10
60288.72522806581
 20
-1394.458970088037
 30
0.0
 11
60288.72522806581
 21
-1799.458970088037
 31
0.0
  0
LINE
  5
102FC
330
17
100
AcDbEntity
  8
SUNPOU
100
AcDbLine
 10
61288.72522806581
 20
-1394.45897008804
 30
0.0
 11
61288.72522806581
 21
-1874.458970088037
 31
0.0
  0
LINE
  5
102FD
330
17
100
AcDbEntity
  8
SEIHIN
100
AcDbLine
 10
60525.5537241119
 20
-1682.458970088037
 30
0.0
 11
60525.5537241119
 21
-1754.458970088037
 31
0.0
  0
DIMENSION
  5
102FE
330
17
100
AcDbEntity
  8
SUNPOU
100
AcDbDimension
  2
*D33
 10
60934.55372411191
 20
-1607.458970088037
 30
0.0
 11
60934.55372411191
 21
-1415.458970088026
 31
0.0
 70
   160
  1
<>
 71
     5
 42
21.999978
  3
1-40
100
AcDbAlignedDimension
 13
60534.5537241119
 23
-1673.458970088037
 33
0.0
 14
60534.5537241119
 24
-1607.458970088037
 34
0.0
 50
90.0
100
AcDbRotatedDimension
1001
ACAD
1000
DSTYLE
1002
{
1070
   144
1040
0.333333
1070
   173
1070
     1
1070
   343
1005
D4A3
1070
   344
1005
D4A3
1002
}
  0
DIMENSION
  5
102FF
330
17
100
AcDbEntity
  8
SUNPOU
100
AcDbDimension
  2
*D34
 10
60934.55372411191
 20
-1673.458970088037
 30
0.0
 11
60842.55372411191
 21
-1713.958970088027
 31
0.0
 70
    32
 71
     5
 42
26.999973
  3
1-40
100
AcDbAlignedDimension
 13
60525.5537241119
 23
-1754.458970088037
 33
0.0
 14
60534.5537241119
 24
-1673.458970088037
 34
0.0
 50
90.0
100
AcDbRotatedDimension
1001
ACAD
1000
DSTYLE
1002
{
1070
   144
1040
0.333333
1070
   173
1070
     1
1070
   343
1005
D4A3
1070
   344
1005
D4A3
1002
}
  0
DIMENSION
  5
10300
330
17
100
AcDbEntity
  8
SUNPOU
100
AcDbDimension
  2
*D35
 10
60934.55372411191
 20
-1799.458970088037
 30
0.0
 11
60934.55372411191
 21
-2055.458970088027
 31
0.0
 70
   160
 71
     5
 42
14.999985
  3
1-40
100
AcDbAlignedDimension
 13
60525.5537241119
 23
-1754.458970088037
 33
0.0
 14
60555.5537241119
 24
-1799.458970088037
 34
0.0
 50
90.0
100
AcDbRotatedDimension
1001
ACAD
1000
DSTYLE
1002
{
1070
   144
1040
0.333333
1070
   173
1070
     1
1070
   343
1005
D4A3
1070
   344
1005
D4A3
1002
}
  0
DIMENSION
  5
10301
330
17
100
AcDbEntity
  8
SUNPOU
100
AcDbDimension
  2
*D36
 10
61568.72522806581
 20
-1799.458970088037
 30
0.0
 11
61476.72522806581
 21
-1581.958970088027
 31
0.0
 70
    32
 71
     5
 42
144.9998549999999
  3
1-40
100
AcDbAlignedDimension
 13
60525.5537241119
 23
-1364.458970088037
 33
0.0
 14
61288.72522806581
 24
-1799.458970088037
 34
0.0
 50
90.0
100
AcDbRotatedDimension
1001
ACAD
1000
DSTYLE
1002
{
1070
   144
1040
0.333333
1002
}
  0
LEADER
  5
10302
330
17
100
AcDbEntity
  8
SUNPOU
100
AcDbLeader
  3
1-40
 76
     2
 10
60534.5537241119
 20
-1629.948189910907
 30
0.0
 10
60077.99501464274
 20
-2526.436889073244
 30
0.0
  0
LINE
  5
10304
330
17
100
AcDbEntity
  8
HASEN
100
AcDbLine
 10
55627.71867732251
 20
-1109.770903640081
 30
0.0
 11
56615.71867732252
 21
-1109.770903640081
 31
0.0
  0
LINE
  5
10305
330
17
100
AcDbEntity
  8
HASEN
100
AcDbLine
 10
55627.71867732251
 20
-1409.770903640081
 30
0.0
 11
56615.71867732251
 21
-1409.770903640081
 31
0.0
  0
TEXT
  5
10306
330
17
100
AcDbEntity
  8
SUNPOU
100
AcDbText
 10
59430.74217944185
 20
226.4104439662979
 30
0.0
 40
120.0
  1
パッキン溝
100
AcDbText
  0
TEXT
  5
10307
330
17
100
AcDbEntity
  8
SUNPOU
100
AcDbText
 10
59602.64590874528
 20
22.84384323814447
 30
0.0
 40
120.0
  1
目地溝
100
AcDbText
  0
LINE
  5
10308
330
17
100
AcDbEntity
  8
SUNPOU
100
AcDbLine
 10
60136.87646739159
 20
-4.153177385109302
 30
0.0
 11
59551.97032268709
 21
-4.153177385109302
 31
0.0
1001
ACAD
1000
DSTYLE
1002
{
1070
    78
1070
     8
1070
   284
1070
     8
1070
   140
1040
2.5
1070
   145
1040
1.0
1070
    74
1070
     0
1070
    73
1070
     0
1070
    40
1040
30.0
1070
   287
1070
     5
1070
    42
1040
2.0
1070
    44
1040
1.0
1070
    43
1040
7.0
1070
   141
1040
0.0
1070
   275
1070
     1
1070
    41
1040
2.0
1070
   285
1070
     8
1070
   286
1070
     8
1002
}
  0
LINE
  5
10309
330
17
100
AcDbEntity
  8
SUNPOU
100
AcDbLine
 10
60138.03116225549
 20
199.413423343045
 30
0.0
 11
59428.50788132772
 21
199.413423343045
 31
0.0
1001
ACAD
1000
DSTYLE
1002
{
1070
    78
1070
     8
1070
   284
1070
     8
1070
   140
1040
2.5
1070
   145
1040
1.0
1070
    74
1070
     0
1070
    73
1070
     0
1070
    40
1040
30.0
1070
   287
1070
     5
1070
    42
1040
2.0
1070
    44
1040
1.0
1070
    43
1040
7.0
1070
   141
1040
0.0
1070
   275
1070
     1
1070
    41
1040
2.0
1070
   285
1070
     8
1070
   286
1070
     8
1002
}
  0
LEADER
  5
1030A
330
17
100
AcDbEntity
  8
SUNPOU
100
AcDbLeader
  3
1-40
 76
     2
 10
60558.5537241119
 20
831.8982453438821
 30
0.0
 10
60136.87646739159
 20
-4.153177385109302
 30
0.0
  0
LEADER
  5
1030B
330
17
100
AcDbEntity
  8
SUNPOU
100
AcDbLeader
  3
1-40
 76
     2
 10
60534.5537241119
 20
986.4090255210122
 30
0.0
 10
60138.03116225549
 20
199.413423343045
 30
0.0
  0
DIMENSION
  5
1030E
330
17
100
AcDbEntity
  8
SUNPOU
100
AcDbDimension
  2
*D37
 10
61568.0371224027
 20
1956.898245343882
 30
0.0
 11
61476.0371224027
 21
1694.398245343892
 31
0.0
 70
    32
 71
     5
 42
174.9998250000001
  3
1-40
100
AcDbAlignedDimension
 13
60285.5537241119
 23
1431.898245343882
 33
0.0
 14
61288.72522806581
 24
1956.898245343882
 34
0.0
 50
90.0
100
AcDbRotatedDimension
1001
ACAD
1000
DSTYLE
1002
{
1070
   144
1040
0.333333
1002
}
  0
DIMENSION
  5
1030F
330
17
100
AcDbEntity
  8
SUNPOU
100
AcDbDimension
  2
*D38
 10
61568.0371224027
 20
816.8982453438821
 30
0.0
 11
61476.0371224027
 21
1094.398245343892
 31
0.0
 70
    32
 71
     5
 42
184.9998149999999
  3
1-40
100
AcDbAlignedDimension
 13
60525.5537241119
 23
1371.898245343882
 33
0.0
 14
61288.72522806581
 24
816.8982453438821
 34
0.0
 50
90.0
100
AcDbRotatedDimension
1001
ACAD
1000
DSTYLE
1002
{
1070
   144
1040
0.333333
1002
}
  0
DIMENSION
  5
10310
330
17
100
AcDbEntity
  8
SUNPOU
100
AcDbDimension
  2
*D39
 10
60285.5537241119
 20
2435.815780145363
 30
0.0
 11
60405.5537241119
 21
2527.815780145363
 31
0.0
 70
    32
 71
     5
 42
79.99992
  3
1-40
100
AcDbAlignedDimension
 13
60525.5537241119
 23
1371.898245343882
 33
0.0
 14
60285.5537241119
 24
1956.898245343883
 34
0.0
100
AcDbRotatedDimension
1001
ACAD
1000
DSTYLE
1002
{
1070
   144
1040
0.333333
1002
}
  0
DIMENSION
  5
10311
330
17
100
AcDbEntity
  8
SUNPOU
100
AcDbDimension
  2
*D40
 10
59008.72522806582
 20
1341.898245343882
 30
0.0
 11
59008.72522806582
 21
1371.898245343892
 31
0.0
 70
   160
 71
     5
 42
19.99998
  3
1-40
100
AcDbAlignedDimension
 13
60048.72522806581
 23
1401.898245343882
 33
0.0
 14
60288.72522806581
 24
1341.898245343882
 34
0.0
 50
90.0
100
AcDbRotatedDimension
1001
ACAD
1000
DSTYLE
1002
{
1070
   144
1040
0.333333
1002
}
  0
DIMENSION
  5
10312
330
17
100
AcDbEntity
  8
SUNPOU
100
AcDbDimension
  2
*D41
 10
59008.72522806582
 20
1401.898245343882
 30
0.0
 11
58916.72522806582
 21
1679.398245343892
 31
0.0
 70
    32
 71
     5
 42
184.9998150000002
  3
1-40
100
AcDbAlignedDimension
 13
59288.72522806581
 23
1956.898245343883
 33
0.0
 14
60048.72522806581
 24
1401.898245343882
 34
0.0
 50
90.0
100
AcDbRotatedDimension
1001
ACAD
1000
DSTYLE
1002
{
1070
   144
1040
0.333333
1002
}
  0
DIMENSION
  5
10313
330
17
100
AcDbEntity
  8
SUNPOU
100
AcDbDimension
  2
*D42
 10
58728.72522806582
 20
816.8982453438822
 30
0.0
 11
58636.72522806582
 21
1386.898245343892
 31
0.0
 70
    32
 71
     5
 42
379.9996200000003
  3
1-40
100
AcDbAlignedDimension
 13
59288.72522806581
 23
1956.898245343883
 33
0.0
 14
59288.72522806581
 24
816.8982453438821
 34
0.0
 50
90.0
100
AcDbRotatedDimension
1001
ACAD
1000
DSTYLE
1002
{
1070
   144
1040
0.333333
1002
}
  0
DIMENSION
  5
10314
330
17
100
AcDbEntity
  8
SUNPOU
100
AcDbDimension
  2
*D43
 10
59008.72522806582
 20
816.8982453438822
 30
0.0
 11
58916.72522806582
 21
1079.398245343892
 31
0.0
 70
    32
 71
     5
 42
174.9998250000001
  3
1-40
100
AcDbAlignedDimension
 13
60288.72522806581
 23
1341.898245343882
 33
0.0
 14
59288.72522806581
 24
816.8982453438821
 34
0.0
 50
90.0
100
AcDbRotatedDimension
1001
ACAD
1000
DSTYLE
1002
{
1070
   144
1040
0.333333
1002
}
  0
DIMENSION
  5
10317
330
17
100
AcDbEntity
  8
SUNPOU
100
AcDbDimension
  2
*D44
 10
60561.5537241119
 20
216.2227327153814
 30
0.0
 11
60817.5537241119
 21
216.2227327153814
 31
0.0
 70
   160
 71
     5
 42
11.999988
  3
1-40
100
AcDbAlignedDimension
 13
60525.5537241119
 23
861.8982453438821
 33
0.0
 14
60561.5537241119
 24
846.8982453438821
 34
0.0
100
AcDbRotatedDimension
1001
ACAD
1000
DSTYLE
1002
{
1070
   144
1040
0.333333
1002
}
  0
DIMENSION
  5
10318
330
17
100
AcDbEntity
  8
SUNPOU
100
AcDbDimension
  2
*D45
 10
60288.72522806581
 20
561.8982453438821
 30
0.0
 11
60168.72522806581
 21
653.8982453438821
 31
0.0
 70
    32
 71
     5
 42
79.99992
  3
1-40
100
AcDbAlignedDimension
 13
60048.72522806581
 23
1401.898245343882
 33
0.0
 14
60288.72522806581
 24
816.8982453438821
 34
0.0
100
AcDbRotatedDimension
1001
ACAD
1000
DSTYLE
1002
{
1070
   144
1040
0.333333
1002
}
  0
TEXT
  5
10319
330
17
100
AcDbEntity
  8
SUNPOU
100
AcDbText
 10
59653.958835082
 20
4996.914536638124
 30
0.0
 40
120.0
  1
SBPR 1080/1230
 41
0.8
100
AcDbText
  0
DIMENSION
  5
1031A
330
17
100
AcDbEntity
  8
SUNPOU
100
AcDbDimension
  2
*D46
 10
53704.13034564906
 20
4127.574308936173
 30
0.0
 11
53612.13034564906
 21
3817.574308936181
 31
0.0
 70
    32
  1
2@310=<>
 71
     5
 42
620.0000000000018
  3
1-40
100
AcDbAlignedDimension
 13
53344.13034564906
 23
3507.574308936171
 33
0.0
 14
53344.13034564905
 24
4127.574308936173
 34
0.0
 50
90.0
100
AcDbRotatedDimension
  0
DIMENSION
  5
1031B
330
17
100
AcDbEntity
  8
SUNPOU
100
AcDbDimension
  2
*D47
 10
53704.13034564906
 20
3277.574308936174
 30
0.0
 11
53704.13034564906
 21
3045.574308936183
 31
0.0
 70
   160
 71
     5
 42
229.9999999999973
  3
1-40
100
AcDbAlignedDimension
 13
53344.13034564906
 23
3507.574308936171
 33
0.0
 14
53179.13034564905
 24
3277.574308936174
 34
0.0
 50
90.0
100
AcDbRotatedDimension
  0
LINE
  5
1031C
330
17
100
AcDbEntity
  8
PC
100
AcDbLine
 10
48294.13034564906
 20
3517.574308936173
 30
0.0
 11
48244.13034564906
 21
3522.574308936173
 31
0.0
  0
LINE
  5
1031D
330
17
100
AcDbEntity
  8
PC
100
AcDbLine
 10
48294.13034564906
 20
3497.574308936173
 30
0.0
 11
48244.13034564906
 21
3492.574308936173
 31
0.0
  0
LINE
  5
1031E
330
17
100
AcDbEntity
  8
PC
100
AcDbLine
 10
48294.13034564906
 20
3517.574308936173
 30
0.0
 11
48294.13034564906
 21
3497.574308936173
 31
0.0
  0
LINE
  5
1031F
330
17
100
AcDbEntity
  8
PC
  6
CENTER
 48
0.5
100
AcDbLine
 10
48264.13034564906
 20
3507.574308936173
 30
0.0
 11
53324.13034564906
 21
3507.574308936171
 31
0.0
  0
LINE
  5
10320
330
17
100
AcDbEntity
  8
PC
100
AcDbLine
 10
48294.13034564906
 20
3827.574308936173
 30
0.0
 11
48294.13034564906
 21
3807.574308936173
 31
0.0
  0
LINE
  5
10321
330
17
100
AcDbEntity
  8
PC
100
AcDbLine
 10
48294.13034564906
 20
3827.574308936173
 30
0.0
 11
48244.13034564906
 21
3832.574308936173
 31
0.0
  0
LINE
  5
10322
330
17
100
AcDbEntity
  8
PC
100
AcDbLine
 10
48294.13034564906
 20
3807.574308936173
 30
0.0
 11
48244.13034564906
 21
3802.574308936173
 31
0.0
  0
LINE
  5
10323
330
17
100
AcDbEntity
  8
PC
  6
CENTER
 48
0.5
100
AcDbLine
 10
48264.13034564906
 20
3817.574308936173
 30
0.0
 11
53324.13034564906
 21
3817.574308936171
 31
0.0
  0
LINE
  5
10324
330
17
100
AcDbEntity
  8
PC
  6
HIDDEN
 48
0.4
100
AcDbLine
 10
53244.13034564906
 20
4162.574308936169
 30
0.0
 11
53244.13034564906
 21
4092.574308936169
 31
0.0
  0
LINE
  5
10325
330
17
100
AcDbEntity
  8
PC
  6
HIDDEN
 48
0.4
100
AcDbLine
 10
53244.13034564906
 20
4092.574308936171
 30
0.0
 11
53344.13034564906
 21
4075.074308936173
 31
0.0
  0
LINE
  5
10326
330
17
100
AcDbEntity
  8
PC
  6
HIDDEN
 48
0.4
100
AcDbLine
 10
53244.13034564906
 20
4162.574308936171
 30
0.0
 11
53344.13034564906
 21
4180.074308936173
 31
0.0
  0
LINE
  5
10327
330
17
100
AcDbEntity
  8
PC
100
AcDbLine
 10
48294.13034564906
 20
4137.574308936173
 30
0.0
 11
48294.13034564906
 21
4117.574308936173
 31
0.0
  0
LINE
  5
10328
330
17
100
AcDbEntity
  8
PC
100
AcDbLine
 10
48294.13034564906
 20
4117.574308936173
 30
0.0
 11
48244.13034564906
 21
4112.574308936173
 31
0.0
  0
LINE
  5
10329
330
17
100
AcDbEntity
  8
PC
100
AcDbLine
 10
48294.13034564906
 20
4137.574308936173
 30
0.0
 11
48244.13034564906
 21
4142.574308936173
 31
0.0
  0
LINE
  5
1032A
330
17
100
AcDbEntity
  8
PC
  6
CENTER
 48
0.5
100
AcDbLine
 10
48264.13034564906
 20
4127.574308936173
 30
0.0
 11
53324.13034564906
 21
4127.574308936171
 31
0.0
  0
DIMENSION
  5
1032B
330
17
100
AcDbEntity
  8
SUNPOU
100
AcDbDimension
  2
*D48
 10
56707.71867732251
 20
2038.952666249165
 30
0.0
 11
56939.71867732251
 21
2038.952666249165
 31
0.0
 70
   160
 71
     5
 42
230.0
  3
1-40
100
AcDbAlignedDimension
 13
56477.71867732251
 23
1470.229096359918
 33
0.0
 14
56707.71867732251
 24
1470.229096359918
 34
0.0
100
AcDbRotatedDimension
  0
DIMENSION
  5
1032C
330
17
100
AcDbEntity
  8
SUNPOU
100
AcDbDimension
  2
*D49
 10
56477.71867732251
 20
2038.952666249165
 30
0.0
 11
56167.71867732251
 21
2130.952666249165
 31
0.0
 70
    32
  1
2@310=<>
 71
     5
 42
620.0
  3
1-40
100
AcDbAlignedDimension
 13
55857.71867732251
 23
1470.229096359918
 33
0.0
 14
56477.71867732251
 24
1470.229096359918
 34
0.0
100
AcDbRotatedDimension
  0
DIMENSION
  5
1032D
330
17
100
AcDbEntity
  8
SUNPOU
100
AcDbDimension
  2
*D50
 10
55857.71867732251
 20
2038.952666249165
 30
0.0
 11
55395.71867732251
 21
2038.952666249165
 31
0.0
 70
   160
 71
     5
 42
230.0
  3
1-40
100
AcDbAlignedDimension
 13
55627.71867732251
 23
1470.229096359917
 33
0.0
 14
55857.71867732251
 24
1470.229096359918
 34
0.0
100
AcDbRotatedDimension
  0
TEXT
  5
1032E
330
17
100
AcDbEntity
  8
SUNPOU
100
AcDbText
 10
56896.62924685467
 20
-1880.964150784021
 30
0.0
 40
120.0
  1
PC鋼棒φ17mm(C種)
100
AcDbText
  0
LEADER
  5
1032F
330
17
100
AcDbEntity
  8
SUNPOU
100
AcDbLeader
  3
1-40
 76
     2
 10
56508.43460719019
 20
-1532.347677265656
 30
0.0
 10
56894.39494874055
 20
-1907.961171407274
 30
0.0
210
0.0
220
0.0
230
-1.0
  0
LINE
  5
10330
330
17
100
AcDbEntity
  8
SUNPOU
100
AcDbLine
 10
58434.71738337714
 20
-1907.961171407274
 30
0.0
 11
56894.39494874055
 21
-1907.961171407274
 31
0.0
1001
ACAD
1000
DSTYLE
1002
{
1070
    78
1070
     8
1070
   284
1070
     8
1070
   140
1040
2.5
1070
   145
1040
1.0
1070
    74
1070
     0
1070
    73
1070
     0
1070
    40
1040
30.0
1070
   287
1070
     5
1070
    42
1040
2.0
1070
    44
1040
1.0
1070
    43
1040
7.0
1070
   141
1040
0.0
1070
   275
1070
     1
1070
    41
1040
2.0
1070
   285
1070
     8
1070
   286
1070
     8
1002
}
  0
LEADER
  5
10331
330
17
100
AcDbEntity
  8
SUNPOU
100
AcDbLeader
  3
1-40
 76
     2
 10
56518.77311981095
 20
1367.951913353016
 30
0.0
 10
56830.13309470039
 20
1694.415316653405
 30
0.0
210
0.0
220
0.0
230
-1.0
  0
LINE
  5
10332
330
17
100
AcDbEntity
  8
SUNPOU
100
AcDbLine
 10
58356.21114015687
 20
1694.415316653405
 30
0.0
 11
56830.13309470039
 21
1694.415316653405
 31
0.0
1001
ACAD
1000
DSTYLE
1002
{
1070
    78
1070
     8
1070
   284
1070
     8
1070
   140
1040
2.5
1070
   145
1040
1.0
1070
    74
1070
     0
1070
    73
1070
     0
1070
    40
1040
30.0
1070
   287
1070
     5
1070
    42
1040
2.0
1070
    44
1040
1.0
1070
    43
1040
7.0
1070
   141
1040
0.0
1070
   275
1070
     1
1070
    41
1040
2.0
1070
   285
1070
     8
1070
   286
1070
     8
1002
}
  0
TEXT
  5
10333
330
17
100
AcDbEntity
  8
SUNPOU
100
AcDbText
 10
56846.15048377943
 20
1732.020445302867
 30
0.0
 40
120.0
  1
PC鋼棒φ17mm(C種)
100
AcDbText
  0
DIMENSION
  5
10334
330
17
100
AcDbEntity
  8
SUNPOU
100
AcDbDimension
  2
*D51
 10
55058.99510743326
 20
-1789.770903640081
 30
0.0
 11
55058.99510743326
 21
-2085.770903640072
 31
0.0
 70
   160
 71
     5
 42
140.0
  3
1-40
100
AcDbAlignedDimension
 13
55707.71867732251
 23
-1649.770903640081
 33
0.0
 14
55707.71867732251
 24
-1789.770903640081
 34
0.0
 50
270.0
100
AcDbRotatedDimension
1001
ACAD
1000
DSTYLE
1002
{
1070
   173
1070
     1
1070
   343
1005
D4A3
1002
}
  0
DIMENSION
  5
10335
330
17
100
AcDbEntity
  8
SUNPOU
100
AcDbDimension
  2
*D52
 10
56707.71867732251
 20
-2707.770903640081
 30
0.0
 11
56167.71867732251
 21
-2615.770903640081
 31
0.0
 70
    32
 71
     5
 42
1080.0
  3
1-40
100
AcDbAlignedDimension
 13
55627.71867732251
 23
-1789.770903640081
 33
0.0
 14
56707.71867732251
 24
-1789.770903640081
 34
0.0
100
AcDbRotatedDimension
  0
DIMENSION
  5
10336
330
17
100
AcDbEntity
  8
SUNPOU
100
AcDbDimension
  2
*D53
 10
56627.71867732251
 20
-2429.770903640081
 30
0.0
 11
56127.71867732251
 21
-2337.770903640081
 31
0.0
 70
    32
 71
     5
 42
1000.0
  3
1-40
100
AcDbAlignedDimension
 13
55627.71867732251
 23
-1789.770903640081
 33
0.0
 14
56627.71867732251
 24
-1789.770903640081
 34
0.0
100
AcDbRotatedDimension
  0
DIMENSION
  5
10337
330
17
100
AcDbEntity
  8
SUNPOU
100
AcDbDimension
  2
*D54
 10
56707.71867732251
 20
-2429.770903640081
 30
0.0
 11
56971.71867732251
 21
-2429.770903640081
 31
0.0
 70
   160
 71
     5
 42
80.0
  3
1-40
100
AcDbAlignedDimension
 13
56627.71867732251
 23
-1789.770903640081
 33
0.0
 14
56707.71867732251
 24
-1789.770903640081
 34
0.0
100
AcDbRotatedDimension
  0
DIMENSION
  5
10338
330
17
100
AcDbEntity
  8
SUNPOU
100
AcDbDimension
  2
*D55
 10
55707.71867732251
 20
-2149.770903640081
 30
0.0
 11
55971.71867732251
 21
-2149.770903640081
 31
0.0
 70
   160
 71
     5
 42
80.0
  3
1-40
100
AcDbAlignedDimension
 13
55627.71867732251
 23
-1789.770903640081
 33
0.0
 14
55707.71867732251
 24
-1789.770903640081
 34
0.0
100
AcDbRotatedDimension
  0
DIMENSION
  5
10339
330
17
100
AcDbEntity
  8
SUNPOU
100
AcDbDimension
  2
*D56
 10
53344.13034564906
 20
-2707.770903640081
 30
0.0
 11
50794.13034564906
 21
-2615.770903640081
 31
0.0
 70
    32
 71
     5
 42
5100.0
  3
1-40
100
AcDbAlignedDimension
 13
48244.13034564906
 23
-1789.770903640081
 33
0.0
 14
53344.13034564906
 24
-1789.770903640081
 34
0.0
100
AcDbRotatedDimension
  0
DIMENSION
  5
1033A
330
17
100
AcDbEntity
  8
SUNPOU
100
AcDbDimension
  2
*D57
 10
48544.13034564905
 20
-2427.79281744578
 30
0.0
 11
50794.13034564906
 21
-2335.79281744578
 31
0.0
 70
    32
  1
<>
 71
     5
 42
4500.000000000007
  3
1-40
100
AcDbAlignedDimension
 13
53044.13034564906
 23
-1789.770903640081
 33
0.0
 14
48544.13034564905
 24
-1789.770903640081
 34
0.0
100
AcDbRotatedDimension
  0
DIMENSION
  5
1033B
330
17
100
AcDbEntity
  8
SUNPOU
100
AcDbDimension
  2
*D58
 10
53344.13034564906
 20
-2427.770903640083
 30
0.0
 11
53194.13034564906
 21
-2335.770903640083
 31
0.0
 70
    32
 71
     5
 42
300.0
  3
1-40
100
AcDbAlignedDimension
 13
53044.13034564906
 23
-1789.770903640081
 33
0.0
 14
53344.13034564906
 24
-1789.770903640081
 34
0.0
100
AcDbRotatedDimension
  0
DIMENSION
  5
1033C
330
17
100
AcDbEntity
  8
SUNPOU
100
AcDbDimension
  2
*D59
 10
48544.13034564905
 20
-2427.79281744578
 30
0.0
 11
48394.13034564906
 21
-2335.79281744578
 31
0.0
 70
    32
 71
     5
 42
299.9999999999927
  3
1-40
100
AcDbAlignedDimension
 13
48244.13034564906
 23
-1789.770903640081
 33
0.0
 14
48544.13034564905
 24
-1789.770903640081
 34
0.0
100
AcDbRotatedDimension
  0
DIMENSION
  5
1033D
330
17
100
AcDbEntity
  8
SUNPOU
100
AcDbDimension
  2
*D1
 10
54264.13034564905
 20
-1789.770903640081
 30
0.0
 11
54172.13034564905
 21
-159.7709036400735
 31
0.0
 70
    32
 71
     5
 42
3259.999999999998
  3
1-40
100
AcDbAlignedDimension
 13
53344.13034564906
 23
1470.229096359917
 33
0.0
 14
53344.13034564906
 24
-1789.770903640081
 34
0.0
 50
90.0
100
AcDbRotatedDimension
  0
DIMENSION
  5
1033E
330
17
100
AcDbEntity
  8
SUNPOU
100
AcDbDimension
  2
*D2
 10
53983.47436114345
 20
1090.229096359917
 30
0.0
 11
53891.47436114345
 21
-159.7709036400744
 31
0.0
 70
    32
 71
     5
 42
2500.0
  3
1-40
100
AcDbAlignedDimension
 13
53344.13034564906
 23
-1409.770903640083
 33
0.0
 14
53344.13034564906
 24
1090.229096359917
 34
0.0
 50
90.0
100
AcDbRotatedDimension
  0
DIMENSION
  5
1033F
330
17
100
AcDbEntity
  8
SUNPOU
100
AcDbDimension
  2
*D3
 10
53983.47436114345
 20
1470.229096359917
 30
0.0
 11
53891.47436114345
 21
1280.229096359926
 31
0.0
 70
    32
 71
     5
 42
380.0
  3
1-40
100
AcDbAlignedDimension
 13
53344.13034564906
 23
1090.229096359917
 33
0.0
 14
53344.13034564906
 24
1470.229096359917
 34
0.0
 50
90.0
100
AcDbRotatedDimension
  0
DIMENSION
  5
10340
330
17
100
AcDbEntity
  8
SUNPOU
100
AcDbDimension
  2
*D4
 10
53983.47436114345
 20
-1789.770903640081
 30
0.0
 11
53983.47436114345
 21
-1599.770903640081
 31
0.0
 70
   160
 71
     5
 42
380.0
  3
1-40
100
AcDbAlignedDimension
 13
53344.13034564906
 23
-1409.770903640081
 33
0.0
 14
53344.13034564906
 24
-1789.770903640081
 34
0.0
 50
90.0
100
AcDbRotatedDimension
  0
DIMENSION
  5
10341
330
17
100
AcDbEntity
  8
SUNPOU
100
AcDbDimension
  2
*D5
 10
54264.13034564906
 20
4277.574308936173
 30
0.0
 11
54264.13034564906
 21
4621.574308936181
 31
0.0
 70
   160
 71
     5
 42
80.0
  3
1-40
100
AcDbAlignedDimension
 13
53344.13034564906
 23
4357.574308936173
 33
0.0
 14
53344.13034564906
 24
4277.574308936173
 34
0.0
 50
90.0
100
AcDbRotatedDimension
  0
DIMENSION
  5
10342
330
17
100
AcDbEntity
  8
SUNPOU
100
AcDbDimension
  2
*D6
 10
54264.13034564906
 20
4277.574308936173
 30
0.0
 11
54172.13034564906
 21
3777.574308936182
 31
0.0
 70
    32
 71
     5
 42
999.9999999999991
  3
1-40
100
AcDbAlignedDimension
 13
53179.13034564905
 23
3277.574308936174
 33
0.0
 14
53344.13034564906
 24
4277.574308936173
 34
0.0
 50
90.0
100
AcDbRotatedDimension
  0
DIMENSION
  5
10343
330
17
100
AcDbEntity
  8
SUNPOU
100
AcDbDimension
  2
*D7
 10
53984.13034564906
 20
3277.574308936174
 30
0.0
 11
53984.13034564906
 21
3013.574308936183
 31
0.0
 70
   160
 71
     5
 42
79.99999999999909
  3
1-40
100
AcDbAlignedDimension
 13
53344.13034564906
 23
3357.574308936173
 33
0.0
 14
53179.13034564905
 24
3277.574308936174
 34
0.0
 50
90.0
100
AcDbRotatedDimension
  0
TEXT
  5
10344
330
17
100
AcDbEntity
  8
SUNPOU
100
AcDbText
 10
61742.43488292096
 20
3357.678571138102
 30
0.0
 40
120.0
  1
13890
 41
0.8
100
AcDbText
  0
TEXT
  5
10345
330
17
100
AcDbEntity
  8
SUNPOU
100
AcDbText
 10
60875.38982563826
 20
2910.75479734683
 30
0.0
 40
160.0
  1
S=1/10
 41
0.8
 72
     1
 11
61184.7231589716
 21
2910.75479734683
 31
0.0
100
AcDbText
  0
LINE
  5
10346
330
17
100
AcDbEntity
  8
HASEN
100
AcDbLine
 10
56707.71867732251
 20
-1614.770903640081
 30
0.0
 11
56627.71867732251
 21
-1594.770903640081
 31
0.0
  0
LINE
  5
10347
330
17
100
AcDbEntity
  8
SEIHIN
100
AcDbLine
 10
56707.71867732251
 20
-1789.770903640081
 30
0.0
 11
56707.71867732251
 21
-1704.770903640081
 31
0.0
  0
LINE
  5
10348
330
17
100
AcDbEntity
  8
HASEN
100
AcDbLine
 10
56615.71867732251
 20
1090.229096359918
 30
0.0
 11
56615.71867732251
 21
-1409.770903640081
 31
0.0
  0
LINE
  5
10349
330
17
100
AcDbEntity
  8
HASEN
100
AcDbLine
 10
56627.7186773225
 20
1275.229096359923
 30
0.0
 11
56627.71867732251
 21
-1594.770903640081
 31
0.0
  0
LINE
  5
1034A
330
17
100
AcDbEntity
  8
SEIHIN
100
AcDbLine
 10
56707.71867732251
 20
1470.229096359918
 30
0.0
 11
56707.71867732251
 21
1350.229096359918
 31
0.0
  0
LINE
  5
1034B
330
17
100
AcDbEntity
  8
SEIHIN
100
AcDbLine
 10
55707.71867732251
 20
-1789.770903640081
 30
0.0
 11
55707.71867732251
 21
1340.229096359919
 31
0.0
  0
LINE
  5
1034C
330
17
100
AcDbEntity
  8
SEIHIN
100
AcDbLine
 10
55707.71867732251
 20
-1604.770903640076
 30
0.0
 11
55627.71867732251
 21
-1584.770903640077
 31
0.0
  0
LINE
  5
1034D
330
17
100
AcDbEntity
  8
SEIHIN
100
AcDbLine
 10
55627.71867732251
 20
-1584.770903640077
 30
0.0
 11
55627.71867732251
 21
1265.229096359918
 31
0.0
  0
LINE
  5
1034E
330
17
100
AcDbEntity
  8
SEIHIN
100
AcDbLine
 10
55707.71867732251
 20
1285.229096359918
 30
0.0
 11
55627.71867732251
 21
1265.229096359918
 31
0.0
  0
LINE
  5
1034F
330
17
100
AcDbEntity
  8
SEIHIN
100
AcDbLine
 10
55707.71867732251
 20
1470.229096359918
 30
0.0
 11
55707.71867732251
 21
1340.229096359918
 31
0.0
  0
LINE
  5
10350
330
17
100
AcDbEntity
  8
SEIHIN
100
AcDbLine
 10
48244.13034564906
 20
-1789.770903640081
 30
0.0
 11
48244.13034564906
 21
1470.229096359917
 31
0.0
  0
LINE
  5
10351
330
17
100
AcDbEntity
  8
SEIHIN
100
AcDbLine
 10
53199.13034564906
 20
3357.574308936173
 30
0.0
 11
53179.13034564905
 21
3277.574308936174
 31
0.0
  0
LINE
  5
10352
330
17
100
AcDbEntity
  8
HASEN
100
AcDbLine
 10
53059.13034564905
 20
4277.574308936199
 30
0.0
 11
53044.13034564901
 21
4265.574308936175
 31
0.0
  0
LINE
  5
10353
330
17
100
AcDbEntity
  8
HASEN
100
AcDbLine
 10
53209.13034564906
 20
4357.574308936171
 30
0.0
 11
53189.13034564905
 21
4277.574308936175
 31
0.0
  0
LINE
  5
10354
330
17
100
AcDbEntity
  8
SEIHIN
100
AcDbLine
 10
53344.13034564906
 20
4357.574308936173
 30
0.0
 11
53344.13034564906
 21
3357.574308936173
 31
0.0
  0
LINE
  5
10355
330
17
100
AcDbEntity
  8
HASEN
100
AcDbLine
 10
53044.13034564906
 20
4265.574308936175
 30
0.0
 11
53044.13034564906
 21
3277.574308936174
 31
0.0
  0
LINE
  5
10356
330
17
100
AcDbEntity
  8
HASEN
100
AcDbLine
 10
52744.13034564906
 20
4265.574308936175
 30
0.0
 11
52744.13034564906
 21
3277.574308936174
 31
0.0
  0
LINE
  5
10357
330
17
100
AcDbEntity
  8
HASEN
100
AcDbLine
 10
53189.13034564905
 20
4277.574308936175
 30
0.0
 11
53184.13034564906
 21
4277.574308936173
 31
0.0
  0
LINE
  5
10358
330
17
100
AcDbEntity
  8
HASEN
100
AcDbLine
 10
53044.13034564901
 20
4265.574308936175
 30
0.0
 11
49444.13034564906
 21
4265.574308936175
 31
0.0
  0
LINE
  5
10359
330
17
100
AcDbEntity
  8
SEIHIN
100
AcDbLine
 10
53344.13034564906
 20
4357.574308936171
 30
0.0
 11
48244.13034564906
 21
4357.574308936175
 31
0.0
  0
LINE
  5
1035A
330
17
100
AcDbEntity
  8
HASEN
100
AcDbLine
 10
48544.13034564909
 20
4265.574308936173
 30
0.0
 11
49444.13034564906
 21
4265.574308936175
 31
0.0
  0
LINE
  5
1035B
330
17
100
AcDbEntity
  8
HASEN
100
AcDbLine
 10
48399.13034564906
 20
4277.574308936175
 30
0.0
 11
53189.13034564905
 21
4277.574308936173
 31
0.0
  0
LINE
  5
1035C
330
17
100
AcDbEntity
  8
HASEN
100
AcDbLine
 10
48844.13034564905
 20
4265.574308936173
 30
0.0
 11
48844.13034564905
 21
3277.574308936176
 31
0.0
  0
LINE
  5
1035D
330
17
100
AcDbEntity
  8
SEIHIN
100
AcDbLine
 10
49444.13034564906
 20
3277.574308936176
 30
0.0
 11
53179.13034564905
 21
3277.574308936174
 31
0.0
  0
LINE
  5
1035E
330
17
100
AcDbEntity
  8
SEIHIN
100
AcDbLine
 10
48389.13034564906
 20
3357.574308936177
 30
0.0
 11
48409.13034564906
 21
3277.574308936174
 31
0.0
  0
LINE
  5
1035F
330
17
100
AcDbEntity
  8
SEIHIN
100
AcDbLine
 10
48244.13034564906
 20
3357.574308936177
 30
0.0
 11
48339.13034564906
 21
3357.574308936177
 31
0.0
  0
LINE
  5
10360
330
17
100
AcDbEntity
  8
SEIHIN
100
AcDbLine
 10
49444.13034564906
 20
3277.574308936176
 30
0.0
 11
48409.13034564906
 21
3277.574308936174
 31
0.0
  0
LINE
  5
10361
330
17
100
AcDbEntity
  8
SEIHIN
100
AcDbLine
 10
48244.13034564906
 20
4357.574308936175
 30
0.0
 11
48244.13034564906
 21
3357.574308936177
 31
0.0
  0
LINE
  5
10362
330
17
100
AcDbEntity
  8
HASEN
100
AcDbLine
 10
48544.13034564905
 20
4265.574308936173
 30
0.0
 11
48544.13034564905
 21
3277.574308936176
 31
0.0
  0
TEXT
  5
10364
330
17
100
AcDbEntity
  8
SUNPOU
100
AcDbText
 10
62205.3819152053
 20
3359.333652040325
 30
0.0
 40
120.0
  1
kg
 41
0.8
100
AcDbText
  0
TEXT
  5
10365
330
17
100
AcDbEntity
  8
SUNPOU
100
AcDbText
 10
61256.09340812292
 20
3359.333652040325
 30
0.0
 40
120.0
  1
W  =
 41
0.8
100
AcDbText
  0
TEXT
  5
10366
330
17
100
AcDbEntity
  8
SUNPOU
100
AcDbText
 10
61386.35278440542
 20
3569.15115387163
 30
0.0
 40
66.66666666666666
  1
0
 41
0.8
100
AcDbText
  0
TEXT
  5
10367
330
17
100
AcDbEntity
  8
SUNPOU
100
AcDbText
 10
61273.89256179043
 20
3566.85694892683
 30
0.0
 40
120.0
  1
K  =
 41
0.8
100
AcDbText
  0
TEXT
  5
10368
330
17
100
AcDbEntity
  8
SUNPOU
100
AcDbText
 10
61772.26895347566
 20
3566.85694892683
 30
0.0
 40
120.0
  1
0.50
 41
0.8
100
AcDbText
  0
TEXT
  5
10369
330
17
100
AcDbEntity
  8
SUNPOU
100
AcDbText
 10
62637.7001689626
 20
3825.683457575529
 30
0.0
 40
47.99999999999999
  1
3
 41
0.8
 72
     2
 11
62663.3001689626
 21
3849.683457575529
 31
0.0
100
AcDbText
 73
     2
  0
TEXT
  5
1036A
330
17
100
AcDbEntity
  8
SUNPOU
100
AcDbText
 10
62205.3819152053
 20
3762.521756328782
 30
0.0
 40
120.0
  1
kN/m
 41
0.8
100
AcDbText
  0
TEXT
  5
1036B
330
17
100
AcDbEntity
  8
SUNPOU
100
AcDbText
 10
61256.09340812292
 20
3762.521756328782
 30
0.0
 40
120.0
  1
γ  =
 41
0.8
100
AcDbText
  0
TEXT
  5
1036C
330
17
100
AcDbEntity
  8
SUNPOU
100
AcDbText
 10
61772.26895347566
 20
3762.521756328782
 30
0.0
 40
120.0
  1
18.0
 41
0.8
100
AcDbText
  0
TEXT
  5
1036D
330
17
100
AcDbEntity
  8
SUNPOU
100
AcDbText
 10
61736.67064614062
 20
3958.186563730735
 30
0.0
 40
120.0
  1
24.5
 41
0.8
100
AcDbText
  0
TEXT
  5
1036E
330
17
100
AcDbEntity
  8
SUNPOU
100
AcDbText
 10
62205.3819152053
 20
3958.186563730735
 30
0.0
 40
120.0
  1
kN/m
 41
0.8
100
AcDbText
  0
TEXT
  5
1036F
330
17
100
AcDbEntity
  8
SUNPOU
100
AcDbText
 10
61368.55363073791
 20
3960.480768675532
 30
0.0
 40
66.66666666666666
  1
c
 41
0.8
100
AcDbText
  0
TEXT
  5
10370
330
17
100
AcDbEntity
  8
SUNPOU
100
AcDbText
 10
62601.44365389764
 20
4618.160160689022
 30
0.0
 40
47.99999999999999
  1
2
 41
0.8
 72
     2
 11
62627.04365389764
 21
4642.160160689022
 31
0.0
100
AcDbText
 73
     2
  0
TEXT
  5
10371
330
17
100
AcDbEntity
  8
SUNPOU
100
AcDbText
 10
62157.64971031529
 20
4553.404421460853
 30
0.0
 40
120.0
  1
N/mm
 41
0.8
100
AcDbText
  0
TEXT
  5
10372
330
17
100
AcDbEntity
  8
SUNPOU
100
AcDbText
 10
61772.00124736036
 20
4553.404421460853
 30
0.0
 40
120.0
  1
160
 41
0.8
100
AcDbText
  0
TEXT
  5
10373
330
17
100
AcDbEntity
  8
SUNPOU
100
AcDbText
 10
61232.09340812292
 20
4553.404421460853
 30
0.0
 40
120.0
  1
σ   = 
 41
0.8
100
AcDbText
  0
TEXT
  5
10374
330
17
100
AcDbEntity
  8
SUNPOU
100
AcDbText
 10
61344.82142584788
 20
4553.404421460853
 30
0.0
 40
66.66666666666666
  1
sa
 41
0.8
100
AcDbText
  0
TEXT
  5
10375
330
17
100
AcDbEntity
  8
SUNPOU
100
AcDbText
 10
62157.64971031529
 20
5384.972488131029
 30
0.0
 40
120.0
  1
N/mm
 41
0.8
100
AcDbText
  0
TEXT
  5
10376
330
17
100
AcDbEntity
  8
SUNPOU
100
AcDbText
 10
61801.66650347289
 20
5384.972488131029
 30
0.0
 40
120.0
  1
40
 41
0.8
100
AcDbText
  0
TEXT
  5
10377
330
17
100
AcDbEntity
  8
SUNPOU
100
AcDbText
 10
61344.82142584788
 20
5384.972488131029
 30
0.0
 40
66.66666666666666
  1
ck
 41
0.8
100
AcDbText
  0
TEXT
  5
10378
330
17
100
AcDbEntity
  8
SUNPOU
100
AcDbText
 10
58890.0893081109
 20
3370.788384535881
 30
0.0
 40
120.0
  1
製品参考質量
100
AcDbText
  0
LINE
  5
10379
330
17
100
AcDbEntity
  8
SUNPOU
100
AcDbLine
 10
58794.13034564905
 20
3264.121717869214
 30
0.0
 11
62794.13034564905
 21
3264.121717869214
 31
0.0
  0
LINE
  5
1037B
330
17
100
AcDbEntity
  8
SUNPOU
100
AcDbLine
 10
59982.85141397262
 20
-246.7065515917493
 30
0.0
 11
60535.13897616313
 21
-246.7065515917529
 31
0.0
  0
TEXT
  5
1037C
330
17
100
AcDbEntity
  8
SUNPOU
100
AcDbText
 10
59985.83889030274
 20
-227.956551591752
 30
0.0
 40
160.0
  1
側　壁
 72
     1
 11
60252.50555696941
 21
-227.956551591752
 31
0.0
100
AcDbText
  0
TEXT
  5
1037D
330
17
100
AcDbEntity
  8
SUNPOU
100
AcDbText
 10
59846.33530931525
 20
2660.549450681317
 30
0.0
 40
160.0
  1
頂・底版
 72
     1
 11
60209.00197598191
 21
2660.549450681317
 31
0.0
100
AcDbText
  0
LINE
  5
1037E
330
17
100
AcDbEntity
  8
SUNPOU
100
AcDbLine
 10
59827.41352705655
 20
2625.556616622292
 30
0.0
 11
60588.89642953676
 21
2625.55661662229
 31
0.0
  0
LINE
  5
10383
330
17
100
AcDbEntity
  8
SUNPOU
100
AcDbLine
 10
59604.01665990921
 20
2878.615828552835
 30
0.0
 11
61660.89814504298
 21
2878.615828552835
 31
0.0
  0
TEXT
  5
10384
330
17
100
AcDbEntity
  8
SUNPOU
100
AcDbText
 10
59656.34559236318
 20
2907.68840584449
 30
0.0
 40
200.0
  1
継手詳細図
 72
     1
 11
60223.01225902985
 21
2907.68840584449
 31
0.0
100
AcDbText
  0
LINE
  5
10385
330
17
100
AcDbEntity
  8
SUNPOU
100
AcDbLine
 10
61288.0371224027
 20
2031.898245343882
 30
0.0
 11
61288.0371224027
 21
1461.898245343879
 31
0.0
  0
LINE
  5
10386
330
17
100
AcDbEntity
  8
SUNPOU
100
AcDbLine
 10
61258.0371224027
 20
1356.898245343882
 30
0.0
 11
61318.0371224027
 21
1446.898245343882
 31
0.0
  0
LINE
  5
10387
330
17
100
AcDbEntity
  8
SUNPOU
100
AcDbLine
 10
61288.72522806581
 20
1341.898245343882
 30
0.0
 11
61258.72522806581
 21
1356.898245343882
 31
0.0
  0
LINE
  5
10388
330
17
100
AcDbEntity
  8
SUNPOU
100
AcDbLine
 10
61318.0371224027
 20
1446.898245343882
 30
0.0
 11
61288.0371224027
 21
1461.898245343882
 31
0.0
  0
LINE
  5
10389
330
17
100
AcDbEntity
  8
SUNPOU
100
AcDbLine
 10
61288.72522806581
 20
1341.898245343879
 30
0.0
 11
61288.72522806581
 21
741.8982453438821
 31
0.0
  0
LINE
  5
1038A
330
17
100
AcDbEntity
  8
SUNPOU
100
AcDbLine
 10
59288.72522806581
 20
1341.898245343879
 30
0.0
 11
59288.72522806582
 21
741.8982453438821
 31
0.0
  0
LINE
  5
1038B
330
17
100
AcDbEntity
  8
SUNPOU
100
AcDbLine
 10
59258.72522806581
 20
1356.898245343882
 30
0.0
 11
59318.72522806581
 21
1446.898245343882
 31
0.0
  0
LINE
  5
1038C
330
17
100
AcDbEntity
  8
SUNPOU
100
AcDbLine
 10
59288.72522806581
 20
1341.898245343882
 30
0.0
 11
59258.72522806581
 21
1356.898245343882
 31
0.0
  0
LINE
  5
1038D
330
17
100
AcDbEntity
  8
SUNPOU
100
AcDbLine
 10
59318.72522806581
 20
1446.898245343882
 30
0.0
 11
59288.72522806581
 21
1461.898245343882
 31
0.0
  0
LINE
  5
1038E
330
17
100
AcDbEntity
  8
SUNPOU
100
AcDbLine
 10
59288.72522806581
 20
2031.898245343882
 30
0.0
 11
59288.72522806581
 21
1461.898245343879
 31
0.0
  0
LINE
  5
1038F
330
17
100
AcDbEntity
  8
SEIHIN
100
AcDbLine
 10
60555.5537241119
 20
816.8982453438821
 30
0.0
 11
61288.72522806581
 21
816.8982453438821
 31
0.0
  0
LINE
  5
10390
330
17
100
AcDbEntity
  8
SEIHIN
100
AcDbLine
 10
60561.5537241119
 20
846.8982453438821
 30
0.0
 11
60555.5537241119
 21
816.8982453438821
 31
0.0
  0
LINE
  5
10391
330
17
100
AcDbEntity
  8
SEIHIN
100
AcDbLine
 10
60525.5537241119
 20
861.8982453438821
 30
0.0
 11
60561.5537241119
 21
846.8982453438821
 31
0.0
  0
LINE
  5
10392
330
17
100
AcDbEntity
  8
SEIHIN
100
AcDbLine
 10
60525.5537241119
 20
933.8982453438821
 30
0.0
 11
60525.5537241119
 21
861.8982453438821
 31
0.0
  0
LINE
  5
10393
330
17
100
AcDbEntity
  8
SEIHIN
100
AcDbLine
 10
60534.5537241119
 20
942.8982453438821
 30
0.0
 11
60525.5537241119
 21
933.8982453438821
 31
0.0
  0
LINE
  5
10394
330
17
100
AcDbEntity
  8
SEIHIN
100
AcDbLine
 10
60534.5537241119
 20
1008.898245343882
 30
0.0
 11
60534.5537241119
 21
942.8982453438821
 31
0.0
  0
LINE
  5
10395
330
17
100
AcDbEntity
  8
SEIHIN
100
AcDbLine
 10
60525.5537241119
 20
1017.898245343882
 30
0.0
 11
60534.5537241119
 21
1008.898245343882
 31
0.0
  0
LINE
  5
10396
330
17
100
AcDbEntity
  8
SEIHIN
100
AcDbLine
 10
60525.5537241119
 20
1371.898245343882
 30
0.0
 11
60525.5537241119
 21
1017.898245343882
 31
0.0
  0
LINE
  5
10397
330
17
100
AcDbEntity
  8
SEIHIN
100
AcDbLine
 10
60285.5537241119
 20
1431.898245343882
 30
0.0
 11
60525.5537241119
 21
1371.898245343882
 31
0.0
  0
LINE
  5
10398
330
17
100
AcDbEntity
  8
SEIHIN
100
AcDbLine
 10
60285.5537241119
 20
1956.898245343882
 30
0.0
 11
60285.5537241119
 21
1431.898245343882
 31
0.0
  0
LINE
  5
10399
330
17
100
AcDbEntity
  8
SEIHIN
100
AcDbLine
 10
60285.5537241119
 20
1956.898245343882
 30
0.0
 11
61288.72522806581
 21
1956.898245343882
 31
0.0
  0
LINE
  5
1039A
330
17
100
AcDbEntity
  8
SEIHIN
100
AcDbLine
 10
60288.72522806581
 20
816.8982453438821
 30
0.0
 11
59288.72522806581
 21
816.8982453438821
 31
0.0
  0
LINE
  5
1039B
330
17
100
AcDbEntity
  8
SEIHIN
100
AcDbLine
 10
60288.72522806581
 20
1341.898245343882
 30
0.0
 11
60288.72522806581
 21
816.8982453438821
 31
0.0
  0
LINE
  5
1039C
330
17
100
AcDbEntity
  8
SEIHIN
100
AcDbLine
 10
60048.72522806581
 20
1401.898245343882
 30
0.0
 11
60288.72522806581
 21
1341.898245343882
 31
0.0
  0
LINE
  5
1039D
330
17
100
AcDbEntity
  8
SEIHIN
100
AcDbLine
 10
60048.72522806581
 20
1956.898245343882
 30
0.0
 11
60048.72522806581
 21
1401.898245343882
 31
0.0
  0
LINE
  5
1039E
330
17
100
AcDbEntity
  8
SEIHIN
100
AcDbLine
 10
59288.72522806582
 20
1956.898245343882
 30
0.0
 11
60048.72522806581
 21
1956.898245343882
 31
0.0
  0
TEXT
  5
1039F
330
17
100
AcDbEntity
  8
SUNPOU
100
AcDbText
 10
48917.26222529111
 20
-3846.743456764876
 30
0.0
 40
120.0
  1
パッキン溝及び吊り孔等の加工を行なってもよい。
100
AcDbText
  0
TEXT
  5
103A0
330
17
100
AcDbEntity
  8
SUNPOU
100
AcDbText
 10
48272.73051935028
 20
-3662.211321845885
 30
0.0
 40
120.0
  1
（備考） 寸法や強度に影響を及ぼさない範囲で、端面の面取り、
100
AcDbText
  0
LINE
  5
103A1
330
17
100
AcDbEntity
  8
SUNPOU
100
AcDbLine
 10
48244.13034564906
 20
5413.521801696199
 30
0.0
 11
49507.64017012845
 21
5413.521801696199
 31
0.0
  0
TEXT
  5
103A2
330
17
100
AcDbEntity
  8
SUNPOU
100
AcDbText
 10
48307.2096148265
 20
5443.521801696199
 30
0.0
 40
200.0
  1
平　面　図
 72
     1
 11
48873.87628149317
 21
5443.521801696199
 31
0.0
100
AcDbText
  0
TEXT
  5
103A3
330
17
100
AcDbEntity
  8
SUNPOU
100
AcDbText
 10
55576.73527115689
 20
2446.2195260268
 30
0.0
 40
200.0
  1
側　面　図
 72
     1
 11
56143.40193782355
 21
2446.2195260268
 31
0.0
100
AcDbText
  0
TEXT
  5
103A4
330
17
100
AcDbEntity
  8
SUNPOU
100
AcDbText
 10
48307.2096148265
 20
2446.2195260268
 30
0.0
 40
200.0
  1
正　面　図
 72
     1
 11
48873.87628149317
 21
2446.2195260268
 31
0.0
100
AcDbText
  0
LINE
  5
103A5
330
17
100
AcDbEntity
  8
SUNPOU
100
AcDbLine
 10
50237.66471837976
 20
2050.070562018876
 30
0.0
 11
51392.98875387671
 21
2050.070562018876
 31
0.0
  0
TEXT
  5
103A6
330
17
100
AcDbEntity
  8
SUNPOU
100
AcDbText
 10
50983.1608338685
 20
2080.070562018876
 30
0.0
 40
160.0
  1
差口
 72
     1
 11
51148.49416720183
 21
2080.070562018876
 31
0.0
100
AcDbText
  0
TEXT
  5
103A7
330
17
100
AcDbEntity
  8
SUNPOU
100
AcDbText
 10
50303.8590968831
 20
2080.070562018876
 30
0.0
 40
160.0
  1
受口
 72
     1
 11
50469.19243021644
 21
2080.070562018876
 31
0.0
100
AcDbText
  0
LINE
  5
103A8
330
17
100
AcDbEntity
  8
SEIHIN
100
AcDbLine
 10
53344.13034564906
 20
3357.574308936173
 30
0.0
 11
48339.13034564906
 21
3357.574308936177
 31
0.0
  0
LINE
  5
103A9
330
17
100
AcDbEntity
  8
HASEN
100
AcDbLine
 10
55627.71867732251
 20
790.229096359918
 30
0.0
 11
56615.71867732252
 21
790.229096359918
 31
0.0
  0
LINE
  5
103AA
330
17
100
AcDbEntity
  8
HASEN
100
AcDbLine
 10
55627.71867732251
 20
1090.229096359919
 30
0.0
 11
56615.71867732251
 21
1090.229096359918
 31
0.0
  0
LINE
  5
103AB
330
17
100
AcDbEntity
  8
SEIHIN
100
AcDbLine
 10
56707.71867732251
 20
-1789.770903640081
 30
0.0
 11
56707.71867732251
 21
1350.229096359918
 31
0.0
  0
LINE
  5
103AC
330
17
100
AcDbEntity
  8
SEIHIN
100
AcDbLine
 10
55707.71867732251
 20
-1789.770903640081
 30
0.0
 11
56707.71867732251
 21
-1789.770903640081
 31
0.0
  0
LINE
  5
103AD
330
17
100
AcDbEntity
  8
SEIHIN
100
AcDbLine
 10
55707.71867732251
 20
635.229096359918
 30
0.0
 11
55707.71867732251
 21
-1369.770903640081
 31
0.0
  0
LINE
  5
103AE
330
17
100
AcDbEntity
  8
SEIHIN
100
AcDbLine
 10
55707.71867732251
 20
1470.229096359918
 30
0.0
 11
56707.71867732251
 21
1470.229096359918
 31
0.0
  0
LINE
  5
103AF
330
17
100
AcDbEntity
  8
1HASEN
 48
0.5
100
AcDbLine
 10
50794.13034564906
 20
2050.070562018876
 30
0.0
 11
50794.13034564906
 21
-2274.748466191386
 31
0.0
  0
LINE
  5
103B0
330
17
100
AcDbEntity
  8
SEIHIN
100
AcDbLine
 10
53344.13034564906
 20
-1789.770903640081
 30
0.0
 11
48244.13034564906
 21
-1789.770903640081
 31
0.0
  0
LINE
  5
103B1
330
17
100
AcDbEntity
  8
SEIHIN
100
AcDbLine
 10
53344.13034564906
 20
1470.229096359917
 30
0.0
 11
53344.13034564906
 21
-1789.770903640081
 31
0.0
  0
LINE
  5
103B2
330
17
100
AcDbEntity
  8
SEIHIN
100
AcDbLine
 10
48244.13034564906
 20
1470.229096359917
 30
0.0
 11
53344.13034564906
 21
1470.229096359917
 31
0.0
  0
TEXT
  5
103B3
330
17
100
AcDbEntity
  8
SUNPOU
100
AcDbText
 10
62637.7001689626
 20
4021.34826497748
 30
0.0
 40
47.99999999999999
  1
3
 41
0.8
 72
     2
 11
62663.3001689626
 21
4045.34826497748
 31
0.0
100
AcDbText
 73
     2
  0
TEXT
  5
103B4
330
17
100
AcDbEntity
  8
SUNPOU
100
AcDbText
 10
62592.18370383549
 20
5448.134189377775
 30
0.0
 40
47.99999999999999
  1
2
 41
0.8
 72
     2
 11
62617.78370383549
 21
5472.134189377775
 31
0.0
100
AcDbText
 73
     2
  0
TEXT
  5
103B5
330
17
100
AcDbEntity
  8
SUNPOU
100
AcDbText
 10
61256.09340812292
 20
3958.186563730735
 30
0.0
 40
120.0
  1
γ  =
 41
0.8
100
AcDbText
  0
TEXT
  5
103B6
330
17
100
AcDbEntity
  8
SUNPOU
100
AcDbText
 10
61272.09340812292
 20
4158.186563730733
 30
0.0
 40
120.0
  1
H = 0.5～1.5  m
 41
0.8
100
AcDbText
  0
TEXT
  5
103B7
330
17
100
AcDbEntity
  8
SUNPOU
100
AcDbText
 10
61272.09340812292
 20
4358.186563730733
 30
0.0
 40
120.0
  1
T - 25
 41
0.8
100
AcDbText
  0
TEXT
  5
103B8
330
17
100
AcDbEntity
  8
SUNPOU
100
AcDbText
 10
61232.09340812292
 20
5384.972488131029
 30
0.0
 40
120.0
  1
σ   = 
 41
0.8
100
AcDbText
  0
TEXT
  5
103B9
330
17
100
AcDbEntity
  8
SUNPOU
100
AcDbText
 10
58890.0893081109
 20
3570.788384535881
 30
0.0
 40
120.0
  1
土圧係数
100
AcDbText
  0
TEXT
  5
103BA
330
17
100
AcDbEntity
  8
SUNPOU
100
AcDbText
 10
58890.0893081109
 20
3770.788384535881
 30
0.0
 40
120.0
  1
土の単位体積重量
100
AcDbText
  0
TEXT
  5
103BB
330
17
100
AcDbEntity
  8
SUNPOU
100
AcDbText
 10
58890.0893081109
 20
3970.788384535881
 30
0.0
 40
120.0
  1
鉄筋コンクリートの単位体積重量
100
AcDbText
  0
TEXT
  5
103BC
330
17
100
AcDbEntity
  8
SUNPOU
100
AcDbText
 10
58890.0893081109
 20
4170.788384535879
 30
0.0
 40
120.0
  1
土被り
100
AcDbText
  0
TEXT
  5
103BD
330
17
100
AcDbEntity
  8
SUNPOU
100
AcDbText
 10
58890.0893081109
 20
4370.788384535879
 30
0.0
 40
120.0
  1
活荷重
100
AcDbText
  0
TEXT
  5
103BE
330
17
100
AcDbEntity
  8
SUNPOU
100
AcDbText
 10
59030.75875138851
 20
4570.788384535879
 30
0.0
 40
120.0
  1
許容引張応力度
100
AcDbText
  0
TEXT
  5
103BF
330
17
100
AcDbEntity
  8
SUNPOU
100
AcDbText
 10
58890.0893081109
 20
4770.788384535879
 30
0.0
 40
120.0
  1
鉄　　筋
100
AcDbText
  0
TEXT
  5
103C0
330
17
100
AcDbEntity
  8
SUNPOU
100
AcDbText
 10
59030.75875138851
 20
5197.574308936175
 30
0.0
 40
120.0
  1
PC鋼棒(C種1号)
100
AcDbText
  0
TEXT
  5
103C1
330
17
100
AcDbEntity
  8
SUNPOU
100
AcDbText
 10
59030.75875138851
 20
5397.574308936175
 30
0.0
 40
120.0
  1
設計基準強度
100
AcDbText
  0
TEXT
  5
103C2
330
17
100
AcDbEntity
  8
SUNPOU
100
AcDbText
 10
58890.0893081109
 20
5597.574308936175
 30
0.0
 40
120.0
  1
コンクリート
100
AcDbText
  0
TEXT
  5
103C3
330
17
100
AcDbEntity
  8
SUNPOU
100
AcDbText
 10
58889.05916672929
 20
5897.373178053785
 30
0.0
 40
160.0
  1
設計条件
 11
58889.05916672929
 21
5876.039844720452
 31
0.0
100
AcDbText
 73
     1
  0
LINE
  5
103C4
330
17
100
AcDbEntity
  8
SUNPOU
100
AcDbLine
 10
61114.13034564905
 20
3264.121717869214
 30
0.0
 11
61114.13034564905
 21
5770.907642269509
 31
0.0
  0
LINE
  5
103C5
330
17
100
AcDbEntity
  8
SUNPOU
100
AcDbLine
 10
58794.13034564905
 20
3264.121717869214
 30
0.0
 11
58794.13034564905
 21
5770.907642269509
 31
0.0
  0
LINE
  5
103C6
330
17
100
AcDbEntity
  8
SUNPOU
100
AcDbLine
 10
62794.13034564905
 20
3264.121717869214
 30
0.0
 11
62794.13034564905
 21
5770.907642269509
 31
0.0
  0
LINE
  5
103C7
330
17
100
AcDbEntity
  8
SUNPOU
100
AcDbLine
 10
58794.13034564905
 20
5770.907642269509
 30
0.0
 11
62794.13034564905
 21
5770.907642269509
 31
0.0
  0
TEXT
  5
1160D
330
17
100
AcDbEntity
  8
SUNPOU
100
AcDbText
 10
60074.44944172366
 20
-3470.46339989037
 30
0.0
 40
120.0
  1
12
 41
0.8
 11
60074.44944172366
 21
-3410.46339989037
 31
0.0
100
AcDbText
 73
     2
  0
TEXT
  5
1160E
330
17
100
AcDbEntity
  8
SUNPOU
100
AcDbText
 10
60455.4437781328
 20
-3470.46339989037
 30
0.0
 40
120.0
  1
6
 41
0.8
 11
60455.4437781328
 21
-3410.46339989037
 31
0.0
100
AcDbText
 73
     2
  0
LINE
  5
11AC0
330
17
100
AcDbEntity
  8
SUNPOU
100
AcDbLine
 10
53179.13034564906
 20
1265.229096359917
 30
0.0
 11
53199.13034564906
 21
1285.229096359917
 31
0.0
  0
LINE
  5
11AC1
330
17
100
AcDbEntity
  8
SUNPOU
100
AcDbLine
 10
48399.13034564906
 20
1275.229096359916
 30
0.0
 11
48379.13034564906
 21
1295.229096359916
 31
0.0
  0
LINE
  5
11AC2
330
17
100
AcDbEntity
  8
SUNPOU
100
AcDbLine
 10
48399.13034564904
 20
-1594.770903640081
 30
0.0
 11
48379.13034564904
 21
-1614.770903640081
 31
0.0
  0
LINE
  5
11AC3
330
17
100
AcDbEntity
  8
SUNPOU
100
AcDbLine
 10
53179.13034564906
 20
-1584.770903640085
 30
0.0
 11
53199.13034564906
 21
-1604.770903640085
 31
0.0
  0
LINE
  5
11BEC
330
17
100
AcDbEntity
  8
SUNPOU
100
AcDbLine
 10
59146.2946376589
 20
-532.3429139461141
 30
0.0
 11
59496.2946376589
 21
-532.3429139461141
 31
0.0
  0
TEXT
  5
11BED
330
17
100
AcDbEntity
  8
SUNPOU
100
AcDbText
 10
59176.62797099223
 20
-497.3429139461141
 30
0.0
 40
140.0
  1
差口
 72
     1
 11
59321.2946376589
 21
-497.3429139461141
 31
0.0
100
AcDbText
  0
TEXT
  5
11BEE
330
17
100
AcDbEntity
  8
SUNPOU
100
AcDbText
 10
61168.28617807097
 20
-497.3429139461132
 30
0.0
 40
140.0
  1
受口
 72
     1
 11
61312.95284473764
 21
-497.3429139461132
 31
0.0
100
AcDbText
  0
LINE
  5
11BEF
330
17
100
AcDbEntity
  8
SUNPOU
100
AcDbLine
 10
61137.95284473764
 20
-532.3429139461132
 30
0.0
 11
61487.95284473764
 21
-532.3429139461132
 31
0.0
  0
TEXT
  5
11BF0
330
17
100
AcDbEntity
  8
SUNPOU
100
AcDbText
 10
61498.91330336812
 20
-726.1619598803109
 30
0.0
 40
140.0
  1
外側
 72
     1
 11
61648.24663670146
 21
-726.1619598803109
 31
0.0
100
AcDbText
  0
LINE
  5
11BF1
330
17
100
AcDbEntity
  8
SUNPOU
100
AcDbLine
 10
61489.5799700348
 20
-761.1619598803109
 30
0.0
 11
61816.24663670146
 21
-761.1619598803109
 31
0.0
  0
LINE
  5
11BF2
330
17
100
AcDbEntity
  8
SUNPOU
100
AcDbLine
 10
61475.5799700348
 20
-2036.335885576535
 30
0.0
 11
61802.24663670146
 21
-2036.335885576535
 31
0.0
  0
TEXT
  5
11BF3
330
17
100
AcDbEntity
  8
SUNPOU
100
AcDbText
 10
61484.91330336813
 20
-2001.335885576535
 30
0.0
 40
140.0
  1
内側
 72
     1
 11
61638.91330336813
 21
-2001.335885576535
 31
0.0
100
AcDbText
  0
LINE
  5
11C01
330
17
100
AcDbEntity
  8
SUNPOU
100
AcDbLine
 10
59146.2946376589
 20
2324.014301485805
 30
0.0
 11
59496.2946376589
 21
2324.014301485805
 31
0.0
  0
TEXT
  5
11C02
330
17
100
AcDbEntity
  8
SUNPOU
100
AcDbText
 10
59176.62797099223
 20
2359.014301485805
 30
0.0
 40
140.0
  1
差口
 72
     1
 11
59321.2946376589
 21
2359.014301485805
 31
0.0
100
AcDbText
  0
TEXT
  5
11C03
330
17
100
AcDbEntity
  8
SUNPOU
100
AcDbText
 10
61168.28617807097
 20
2359.014301485806
 30
0.0
 40
140.0
  1
受口
 72
     1
 11
61312.95284473764
 21
2359.014301485806
 31
0.0
100
AcDbText
  0
LINE
  5
11C04
330
17
100
AcDbEntity
  8
SUNPOU
100
AcDbLine
 10
61137.95284473764
 20
2324.014301485806
 30
0.0
 11
61487.95284473764
 21
2324.014301485806
 31
0.0
  0
TEXT
  5
11C05
330
17
100
AcDbEntity
  8
SUNPOU
100
AcDbText
 10
61498.91330336812
 20
2130.195255551608
 30
0.0
 40
140.0
  1
外側
 72
     1
 11
61648.24663670146
 21
2130.195255551608
 31
0.0
100
AcDbText
  0
LINE
  5
11C06
330
17
100
AcDbEntity
  8
SUNPOU
100
AcDbLine
 10
61489.5799700348
 20
2095.195255551608
 30
0.0
 11
61816.24663670146
 21
2095.195255551608
 31
0.0
  0
LINE
  5
11C07
330
17
100
AcDbEntity
  8
SUNPOU
100
AcDbLine
 10
61475.5799700348
 20
560.6523088632575
 30
0.0
 11
61802.24663670146
 21
560.6523088632575
 31
0.0
  0
TEXT
  5
11C08
330
17
100
AcDbEntity
  8
SUNPOU
100
AcDbText
 10
61484.91330336813
 20
595.6523088632575
 30
0.0
 40
140.0
  1
内側
 72
     1
 11
61638.91330336813
 21
595.6523088632575
 31
0.0
100
AcDbText
  0
ENDSEC
  0
SECTION
  2
OBJECTS
  0
DICTIONARY
  5
C
330
0
100
AcDbDictionary
281
     1
  3
ACAD_COLOR
350
C879
  3
ACAD_GROUP
350
D
  3
ACAD_LAYOUT
350
12F3
  3
ACAD_MATERIAL
350
C878
  3
ACAD_MLEADERSTYLE
350
11C2A
  3
ACAD_MLINESTYLE
350
1A
  3
ACAD_PLOTSETTINGS
350
12F4
  3
ACAD_PLOTSTYLENAME
350
12F1
  3
ACAD_TABLESTYLE
350
11C1E
  3
ACDBHEADERROUNDTRIPXREC
350
11C2B
  3
AcDbVariableDictionary
350
182D
  0
DICTIONARY
  5
A2D8
330
2
100
AcDbDictionary
280
     1
281
     1
  3
ACAD_LAYERFILTERS
360
A2D9
  0
DICTIONARY
  5
C879
102
{ACAD_REACTORS
330
C
102
}
330
C
100
AcDbDictionary
281
     1
  0
DICTIONARY
  5
D
102
{ACAD_REACTORS
330
C
102
}
330
C
100
AcDbDictionary
281
     1
  0
DICTIONARY
  5
12F3
102
{ACAD_REACTORS
330
C
102
}
330
C
100
AcDbDictionary
281
     1
  3
Model
350
12F5
  3
ﾚｲｱｳﾄ1
350
12F6
  0
DICTIONARY
  5
C878
102
{ACAD_REACTORS
330
C
102
}
330
C
100
AcDbDictionary
281
     1
  0
DICTIONARY
  5
11C2A
102
{ACAD_REACTORS
330
C
102
}
330
C
100
AcDbDictionary
281
     1
  0
DICTIONARY
  5
1A
102
{ACAD_REACTORS
330
C
102
}
330
C
100
AcDbDictionary
281
     1
  3
STANDARD
350
1B
  0
DICTIONARY
  5
12F4
102
{ACAD_REACTORS
330
C
102
}
330
C
100
AcDbDictionary
281
     1
  0
ACDBDICTIONARYWDFLT
  5
12F1
102
{ACAD_REACTORS
330
C
102
}
330
C
100
AcDbDictionary
281
     1
  3
Normal
350
12F2
100
AcDbDictionaryWithDefault
340
12F2
  0
DICTIONARY
  5
11C1E
102
{ACAD_REACTORS
330
C
102
}
330
C
100
AcDbDictionary
281
     1
  0
DICTIONARY
  5
11C2B
102
{ACAD_REACTORS
330
C
102
}
330
C
100
AcDbDictionary
281
     1
  3
COLORDICT
350
11C2C
  3
MATERIALDICT
350
11C2D
  0
DICTIONARY
  5
182D
102
{ACAD_REACTORS
330
C
102
}
330
C
100
AcDbDictionary
281
     1
  3
CTABLESTYLE
350
11C29
  3
DIMASSOC
350
182E
  3
PROJECTNAME
350
EA3A
  0
DICTIONARY
  5
A2D9
102
{ACAD_REACTORS
330
A2D8
102
}
330
A2D8
100
AcDbDictionary
280
     1
281
     1
  0
LAYOUT
  5
12F5
102
{ACAD_REACTORS
330
12F3
102
}
330
12F3
100
AcDbPlotSettings
  1

  2
\\Print\EPSON EPL-1220 Advanced
  4
A4
  6

 40
5.873749732971191
 41
5.873747825622559
 42
5.873748779296875
 43
5.873748779296875
 44
209.9733276367188
 45
297.0106506347656
 46
0.0
 47
2.07
 48
47594.13034564906
 49
-4602.425691063823
140
63194.13034564905
141
6397.574308936175
142
1.0
143
55.49226379118308
 70
 11956
 72
     1
 73
     1
 74
     4
  7
acad.ctb
 75
     0
147
0.0180205299204046
148
-47594.13034564906
149
4602.425691063823
100
AcDbLayout
  1
Model
 70
     1
 71
     0
 10
0.0
 20
0.0
 11
12.0
 21
9.0
 12
0.0
 22
0.0
 32
0.0
 14
0.0
 24
0.0
 34
0.0
 15
0.0
 25
0.0
 35
0.0
146
0.0
 13
0.0
 23
0.0
 33
0.0
 16
1.0
 26
0.0
 36
0.0
 17
0.0
 27
1.0
 37
0.0
 76
     0
330
17
331
11C23
  0
LAYOUT
  5
12F6
102
{ACAD_REACTORS
330
12F3
102
}
330
12F3
100
AcDbPlotSettings
  1

  2
C:\PROGRAM FILES\MDT6\plotters\RICOH SP9II RPDL.pc3
  4

  6

 40
0.0
 41
0.0
 42
0.0
 43
0.0
 44
0.0
 45
0.0
 46
0.0
 47
0.0
 48
0.0
 49
0.0
140
0.0
141
0.0
142
1.0
143
1.0
 70
   688
 72
     0
 73
     0
 74
     5
  7
acad.ctb
 75
    16
147
1.0
148
0.0
149
0.0
100
AcDbLayout
  1
ﾚｲｱｳﾄ1
 70
     0
 71
     1
 10
0.0
 20
0.0
 11
12.0
 21
9.0
 12
0.0
 22
0.0
 32
0.0
 14
1.000000000000000E+20
 24
1.000000000000000E+20
 34
1.000000000000000E+20
 15
-1.000000000000000E+20
 25
-1.000000000000000E+20
 35
-1.000000000000000E+20
146
0.0
 13
0.0
 23
0.0
 33
0.0
 16
1.0
 26
0.0
 36
0.0
 17
0.0
 27
1.0
 37
0.0
 76
     0
330
14
  0
MLINESTYLE
  5
1B
102
{ACAD_REACTORS
330
1A
102
}
330
1A
100
AcDbMlineStyle
  2
STANDARD
 70
     0
  3

 62
   256
 51
90.0
 52
90.0
 71
     2
 49
0.5
 62
   256
  6
BYLAYER
 49
-0.5
 62
   256
  6
BYLAYER
  0
ACDBPLACEHOLDER
  5
12F2
102
{ACAD_REACTORS
330
12F1
102
}
330
12F1
  0
XRECORD
  5
11C2C
102
{ACAD_REACTORS
330
11C2B
102
}
330
11C2B
100
AcDbXrecord
280
     1
340
C879
  0
XRECORD
  5
11C2D
102
{ACAD_REACTORS
330
11C2B
102
}
330
11C2B
100
AcDbXrecord
280
     1
340
C878
  0
DICTIONARYVAR
  5
11C29
102
{ACAD_REACTORS
330
182D
102
}
330
182D
100
DictionaryVariables
280
     0
  1
Standard
  0
DICTIONARYVAR
  5
182E
102
{ACAD_REACTORS
330
182D
102
}
330
182D
100
DictionaryVariables
280
     0
  1
1
  0
DICTIONARYVAR
  5
EA3A
102
{ACAD_REACTORS
330
182D
102
}
330
182D
100
DictionaryVariables
280
     0
  1

  0
ENDSEC
  0
EOF
