  0
SECTION
  2
HEADER
  9
$ACADVER
  1
AC1015
  9
$ACADMAINTVER
 70
     6
  9
$DWGCODEPAGE
  3
ANSI_932
  9
$INSBASE
 10
0.0
 20
0.0
 30
0.0
  9
$EXTMIN
 10
20869.70454075908
 20
-3323.836203075067
 30
0.0
  9
$EXTMAX
 10
36469.70454075908
 20
7676.163796924931
 30
0.0
  9
$LIMMIN
 10
350.0
 20
150.0
  9
$LIMMAX
 10
12600.0
 20
8910.0
  9
$ORTHOMODE
 70
     1
  9
$REGENMODE
 70
     1
  9
$FILLMODE
 70
     1
  9
$QTEXTMODE
 70
     0
  9
$MIRRTEXT
 70
     1
  9
$LTSCALE
 40
300.0
  9
$ATTMODE
 70
     1
  9
$TEXTSIZE
 40
75.0
  9
$TRACEWID
 40
0.05
  9
$TEXTSTYLE
  7
STANDARD
  9
$CLAYER
  8
0
  9
$CELTYPE
  6
BYLAYER
  9
$CECOLOR
 62
   256
  9
$CELTSCALE
 40
1.0
  9
$DISPSILH
 70
     0
  9
$DIMSCALE
 40
40.0
  9
$DIMASZ
 40
2.0
  9
$DIMEXO
 40
1.5
  9
$DIMDLI
 40
7.0
  9
$DIMRND
 40
0.0
  9
$DIMDLE
 40
0.0
  9
$DIMEXE
 40
0.6
  9
$DIMTP
 40
0.0
  9
$DIMTM
 40
0.0
  9
$DIMTXT
 40
3.0
  9
$DIMCEN
 40
0.0
  9
$DIMTSZ
 40
0.0
  9
$DIMTOL
 70
     0
  9
$DIMLIM
 70
     0
  9
$DIMTIH
 70
     0
  9
$DIMTOH
 70
     0
  9
$DIMSE1
 70
     0
  9
$DIMSE2
 70
     0
  9
$DIMTAD
 70
     1
  9
$DIMZIN
 70
     0
  9
$DIMBLK
  1

  9
$DIMASO
 70
     1
  9
$DIMSHO
 70
     1
  9
$DIMPOST
  1

  9
$DIMAPOST
  1

  9
$DIMALT
 70
     0
  9
$DIMALTD
 70
     2
  9
$DIMALTF
 40
0.03937
  9
$DIMLFAC
 40
1.0
  9
$DIMTOFL
 70
     1
  9
$DIMTVP
 40
0.0
  9
$DIMTIX
 70
     1
  9
$DIMSOXD
 70
     0
  9
$DIMSAH
 70
     0
  9
$DIMBLK1
  1

  9
$DIMBLK2
  1

  9
$DIMSTYLE
  2
1-40
  9
$DIMCLRD
 70
   256
  9
$DIMCLRE
 70
   256
  9
$DIMCLRT
 70
   256
  9
$DIMTFAC
 40
1.0
  9
$DIMGAP
 40
0.8
  9
$DIMJUST
 70
     0
  9
$DIMSD1
 70
     0
  9
$DIMSD2
 70
     0
  9
$DIMTOLJ
 70
     1
  9
$DIMTZIN
 70
     0
  9
$DIMALTZ
 70
     0
  9
$DIMALTTZ
 70
     0
  9
$DIMUPT
 70
     0
  9
$DIMDEC
 70
     0
  9
$DIMTDEC
 70
     0
  9
$DIMALTU
 70
     2
  9
$DIMALTTD
 70
     2
  9
$DIMTXSTY
  7
STANDARD
  9
$DIMAUNIT
 70
     1
  9
$DIMADEC
 70
     0
  9
$DIMALTRND
 40
0.0
  9
$DIMAZIN
 70
     0
  9
$DIMDSEP
 70
    44
  9
$DIMATFIT
 70
     3
  9
$DIMFRAC
 70
     0
  9
$DIMLDRBLK
  1

  9
$DIMLUNIT
 70
     2
  9
$DIMLWD
 70
    -2
  9
$DIMLWE
 70
    -2
  9
$DIMTMOVE
 70
     0
  9
$LUNITS
 70
     2
  9
$LUPREC
 70
     4
  9
$SKETCHINC
 40
0.1
  9
$FILLETRAD
 40
0.0
  9
$AUNITS
 70
     1
  9
$AUPREC
 70
     4
  9
$MENU
  1
acad
  9
$ELEVATION
 40
0.0
  9
$PELEVATION
 40
0.0
  9
$THICKNESS
 40
0.0
  9
$LIMCHECK
 70
     0
  9
$CHAMFERA
 40
0.0
  9
$CHAMFERB
 40
0.0
  9
$CHAMFERC
 40
0.0
  9
$CHAMFERD
 40
0.0
  9
$SKPOLY
 70
     0
  9
$TDCREATE
 40
2450014.659421296
  9
$TDUCREATE
 40
2450014.284421296
  9
$TDUPDATE
 40
2455019.645215382
  9
$TDUUPDATE
 40
2455019.270215382
  9
$TDINDWG
 40
1.2182173611
  9
$TDUSRTIMER
 40
1.2182173611
  9
$USRTIMER
 70
     1
  9
$ANGBASE
 50
0.0
  9
$ANGDIR
 70
     0
  9
$PDMODE
 70
     0
  9
$PDSIZE
 40
0.0
  9
$PLINEWID
 40
0.0
  9
$SPLFRAME
 70
     0
  9
$SPLINETYPE
 70
     6
  9
$SPLINESEGS
 70
     8
  9
$HANDSEED
  5
103FC
  9
$SURFTAB1
 70
     6
  9
$SURFTAB2
 70
     6
  9
$SURFTYPE
 70
     6
  9
$SURFU
 70
     6
  9
$SURFV
 70
     6
  9
$UCSBASE
  2

  9
$UCSNAME
  2

  9
$UCSORG
 10
0.0
 20
0.0
 30
0.0
  9
$UCSXDIR
 10
1.0
 20
0.0
 30
0.0
  9
$UCSYDIR
 10
0.0
 20
1.0
 30
0.0
  9
$UCSORTHOREF
  2

  9
$UCSORTHOVIEW
 70
     0
  9
$UCSORGTOP
 10
0.0
 20
0.0
 30
0.0
  9
$UCSORGBOTTOM
 10
0.0
 20
0.0
 30
0.0
  9
$UCSORGLEFT
 10
0.0
 20
0.0
 30
0.0
  9
$UCSORGRIGHT
 10
0.0
 20
0.0
 30
0.0
  9
$UCSORGFRONT
 10
0.0
 20
0.0
 30
0.0
  9
$UCSORGBACK
 10
0.0
 20
0.0
 30
0.0
  9
$PUCSBASE
  2

  9
$PUCSNAME
  2

  9
$PUCSORG
 10
0.0
 20
0.0
 30
0.0
  9
$PUCSXDIR
 10
1.0
 20
0.0
 30
0.0
  9
$PUCSYDIR
 10
0.0
 20
1.0
 30
0.0
  9
$PUCSORTHOREF
  2

  9
$PUCSORTHOVIEW
 70
     0
  9
$PUCSORGTOP
 10
0.0
 20
0.0
 30
0.0
  9
$PUCSORGBOTTOM
 10
0.0
 20
0.0
 30
0.0
  9
$PUCSORGLEFT
 10
0.0
 20
0.0
 30
0.0
  9
$PUCSORGRIGHT
 10
0.0
 20
0.0
 30
0.0
  9
$PUCSORGFRONT
 10
0.0
 20
0.0
 30
0.0
  9
$PUCSORGBACK
 10
0.0
 20
0.0
 30
0.0
  9
$USERI1
 70
     0
  9
$USERI2
 70
     0
  9
$USERI3
 70
     0
  9
$USERI4
 70
     0
  9
$USERI5
 70
     0
  9
$USERR1
 40
0.0
  9
$USERR2
 40
0.0
  9
$USERR3
 40
0.0
  9
$USERR4
 40
0.0
  9
$USERR5
 40
0.0
  9
$WORLDVIEW
 70
     1
  9
$SHADEDGE
 70
     3
  9
$SHADEDIF
 70
    70
  9
$TILEMODE
 70
     1
  9
$MAXACTVP
 70
    48
  9
$PINSBASE
 10
0.0
 20
0.0
 30
0.0
  9
$PLIMCHECK
 70
     0
  9
$PEXTMIN
 10
1.000000000000000E+20
 20
1.000000000000000E+20
 30
1.000000000000000E+20
  9
$PEXTMAX
 10
-1.000000000000000E+20
 20
-1.000000000000000E+20
 30
-1.000000000000000E+20
  9
$PLIMMIN
 10
0.0
 20
0.0
  9
$PLIMMAX
 10
12.0
 20
9.0
  9
$UNITMODE
 70
     0
  9
$VISRETAIN
 70
     0
  9
$PLINEGEN
 70
     0
  9
$PSLTSCALE
 70
     0
  9
$TREEDEPTH
 70
  3020
  9
$CMLSTYLE
  2
STANDARD
  9
$CMLJUST
 70
     0
  9
$CMLSCALE
 40
1.0
  9
$PROXYGRAPHICS
 70
     1
  9
$MEASUREMENT
 70
     0
  9
$CELWEIGHT
370
    -1
  9
$ENDCAPS
280
     0
  9
$JOINSTYLE
280
     0
  9
$LWDISPLAY
290
     0
  9
$INSUNITS
 70
     0
  9
$HYPERLINKBASE
  1

  9
$STYLESHEET
  1
acad.ctb
  9
$XEDIT
290
     1
  9
$CEPSNTYPE
380
     0
  9
$PSTYLEMODE
290
     1
  9
$FINGERPRINTGUID
  2
{13D4EEAC-250E-11D6-9351-0080AD72C8A3}
  9
$VERSIONGUID
  2
{CC31AB2E-71E4-4BB2-9077-56CA1B50B773}
  9
$EXTNAMES
290
     1
  9
$PSVPSCALE
 40
0.0
  9
$OLESTARTUP
290
     0
  0
ENDSEC
  0
SECTION
  2
CLASSES
  0
CLASS
  1
LWPOLYLINE
  2
AcDbPolyline
  3
AutoCAD 2000
 90
        0
280
     0
281
     1
  0
CLASS
  1
ACDBDICTIONARYWDFLT
  2
AcDbDictionaryWithDefault
  3
ObjectDBX Classes
 90
        0
280
     0
281
     0
  0
CLASS
  1
ACDBPLACEHOLDER
  2
AcDbPlaceHolder
  3
ObjectDBX Classes
 90
        0
280
     0
281
     0
  0
CLASS
  1
LAYOUT
  2
AcDbLayout
  3
ObjectDBX Classes
 90
        0
280
     0
281
     0
  0
CLASS
  1
DICTIONARYVAR
  2
AcDbDictionaryVar
  3
ObjectDBX Classes
 90
        0
280
     0
281
     0
  0
CLASS
  1
DUMMY
  2
AcDbLongTransaction
  3
DUMMY
 90
        0
280
     0
281
     0
  0
CLASS
  1
LWPOLYLINE
  2
AcDbPolyline
  3
AutoCAD 2000
 90
        0
280
     0
281
     1
  0
CLASS
  1
HATCH
  2
AcDbHatch
  3
AutoCAD 2000
 90
        0
280
     0
281
     1
  0
CLASS
  1
XRECORD
  2
AcDbXrecord
  3
AutoCAD 2000
 90
        0
280
     0
281
     0
  0
CLASS
  1
DUMMY
  2
AcDbLongTransaction
  3
DUMMY
 90
        0
280
     0
281
     0
  0
CLASS
  1
LWPOLYLINE
  2
AcDbPolyline
  3
AutoCAD 2000
 90
        0
280
     0
281
     1
  0
CLASS
  1
HATCH
  2
AcDbHatch
  3
AutoCAD 2000
 90
        0
280
     0
281
     1
  0
CLASS
  1
XRECORD
  2
AcDbXrecord
  3
AutoCAD 2000
 90
        0
280
     0
281
     0
  0
CLASS
  1
DUMMY
  2
AcDbLongTransaction
  3
DUMMY
 90
        0
280
     0
281
     0
  0
CLASS
  1
LWPOLYLINE
  2
AcDbPolyline
  3
AutoCAD 2000
 90
        0
280
     0
281
     1
  0
CLASS
  1
HATCH
  2
AcDbHatch
  3
AutoCAD 2000
 90
        0
280
     0
281
     1
  0
CLASS
  1
XRECORD
  2
AcDbXrecord
  3
AutoCAD 2000
 90
        0
280
     0
281
     0
  0
CLASS
  1
DUMMY
  2
AcDbLongTransaction
  3
DUMMY
 90
        0
280
     0
281
     0
  0
CLASS
  1
LWPOLYLINE
  2
AcDbPolyline
  3
AutoCAD 2000
 90
        0
280
     0
281
     1
  0
CLASS
  1
HATCH
  2
AcDbHatch
  3
AutoCAD 2000
 90
        0
280
     0
281
     1
  0
CLASS
  1
XRECORD
  2
AcDbXrecord
  3
AutoCAD 2000
 90
        0
280
     0
281
     0
  0
CLASS
  1
DUMMY
  2
AcDbLongTransaction
  3
DUMMY
 90
        0
280
     0
281
     0
  0
CLASS
  1
LWPOLYLINE
  2
AcDbPolyline
  3
AutoCAD 2000
 90
        0
280
     0
281
     1
  0
CLASS
  1
HATCH
  2
AcDbHatch
  3
AutoCAD 2000
 90
        0
280
     0
281
     1
  0
CLASS
  1
XRECORD
  2
AcDbXrecord
  3
AutoCAD 2000
 90
        0
280
     0
281
     0
  0
CLASS
  1
DUMMY
  2
AcDbLongTransaction
  3
DUMMY
 90
        0
280
     0
281
     0
  0
CLASS
  1
LWPOLYLINE
  2
AcDbPolyline
  3
AutoCAD 2000
 90
        0
280
     0
281
     1
  0
CLASS
  1
HATCH
  2
AcDbHatch
  3
AutoCAD 2000
 90
        0
280
     0
281
     1
  0
CLASS
  1
XRECORD
  2
AcDbXrecord
  3
AutoCAD 2000
 90
        0
280
     0
281
     0
  0
CLASS
  1
DUMMY
  2
AcDbLongTransaction
  3
DUMMY
 90
        0
280
     0
281
     0
  0
CLASS
  1
LWPOLYLINE
  2
AcDbPolyline
  3
AutoCAD 2000
 90
        0
280
     0
281
     1
  0
CLASS
  1
HATCH
  2
AcDbHatch
  3
AutoCAD 2000
 90
        0
280
     0
281
     1
  0
CLASS
  1
XRECORD
  2
AcDbXrecord
  3
AutoCAD 2000
 90
        0
280
     0
281
     0
  0
CLASS
  1
DUMMY
  2
AcDbLongTransaction
  3
DUMMY
 90
        0
280
     0
281
     0
  0
CLASS
  1
LWPOLYLINE
  2
AcDbPolyline
  3
AutoCAD 2000
 90
        0
280
     0
281
     1
  0
CLASS
  1
HATCH
  2
AcDbHatch
  3
AutoCAD 2000
 90
        0
280
     0
281
     1
  0
CLASS
  1
XRECORD
  2
AcDbXrecord
  3
AutoCAD 2000
 90
        0
280
     0
281
     0
  0
CLASS
  1
DUMMY
  2
AcDbLongTransaction
  3
DUMMY
 90
        0
280
     0
281
     0
  0
CLASS
  1
LWPOLYLINE
  2
AcDbPolyline
  3
AutoCAD 2000
 90
        0
280
     0
281
     1
  0
CLASS
  1
HATCH
  2
AcDbHatch
  3
AutoCAD 2000
 90
        0
280
     0
281
     1
  0
CLASS
  1
XRECORD
  2
AcDbXrecord
  3
AutoCAD 2000
 90
        0
280
     0
281
     0
  0
CLASS
  1
DUMMY
  2
AcDbLongTransaction
  3
DUMMY
 90
        0
280
     0
281
     0
  0
CLASS
  1
LWPOLYLINE
  2
AcDbPolyline
  3
AutoCAD 2000
 90
        0
280
     0
281
     1
  0
CLASS
  1
HATCH
  2
AcDbHatch
  3
AutoCAD 2000
 90
        0
280
     0
281
     1
  0
CLASS
  1
XRECORD
  2
AcDbXrecord
  3
AutoCAD 2000
 90
        0
280
     0
281
     0
  0
CLASS
  1
DUMMY
  2
AcDbLongTransaction
  3
DUMMY
 90
        0
280
     0
281
     0
  0
CLASS
  1
LWPOLYLINE
  2
AcDbPolyline
  3
AutoCAD 2000
 90
        0
280
     0
281
     1
  0
CLASS
  1
HATCH
  2
AcDbHatch
  3
AutoCAD 2000
 90
        0
280
     0
281
     1
  0
CLASS
  1
XRECORD
  2
AcDbXrecord
  3
AutoCAD 2000
 90
        0
280
     0
281
     0
  0
CLASS
  1
TABLESTYLE
  2
AcDbTableStyle
  3
ObjectDBX Classes
 90
     4095
280
     0
281
     0
  0
ENDSEC
  0
SECTION
  2
TABLES
  0
TABLE
  2
VPORT
  5
8
330
0
100
AcDbSymbolTable
 70
     2
  0
VPORT
  5
103F1
330
8
100
AcDbSymbolTableRecord
100
AcDbViewportTableRecord
  2
*Active
 70
     0
 10
0.0
 20
0.0
 11
1.0
 21
1.0
 12
28553.19074708994
 22
2236.020612802618
 13
0.0
 23
0.0
 14
30.0
 24
30.0
 15
300.0
 25
300.0
 16
0.0
 26
0.0
 36
1.0
 17
0.0
 27
0.0
 37
0.0
 40
11701.79879679747
 41
1.507024265644955
 42
50.0
 43
0.0
 44
0.0
 50
0.0
 51
0.0
 71
     0
 72
   100
 73
     1
 74
     0
 75
     0
 76
     1
 77
     0
 78
     0
281
     0
 65
     1
110
0.0
120
0.0
130
0.0
111
1.0
121
0.0
131
0.0
112
0.0
122
1.0
132
0.0
 79
     0
146
0.0
  0
ENDTAB
  0
TABLE
  2
LTYPE
  5
5
330
0
100
AcDbSymbolTable
 70
     3
  0
LTYPE
  5
11
330
5
100
AcDbSymbolTableRecord
100
AcDbLinetypeTableRecord
  2
BYBLOCK
 70
     0
  3

 72
    65
 73
     0
 40
0.0
  0
LTYPE
  5
12
330
5
100
AcDbSymbolTableRecord
100
AcDbLinetypeTableRecord
  2
BYLAYER
 70
     0
  3

 72
    65
 73
     0
 40
0.0
  0
LTYPE
  5
13
330
5
100
AcDbSymbolTableRecord
100
AcDbLinetypeTableRecord
  2
CONTINUOUS
 70
     0
  3
Solid line
 72
    65
 73
     0
 40
0.0
  0
LTYPE
  5
1E
330
5
100
AcDbSymbolTableRecord
100
AcDbLinetypeTableRecord
  2
HIDDEN
 70
     0
  3
_ _ _ _ _ _ _ _ _ _ _ _ _ _ _ _ _ _ _ _ _ _ _
 72
    65
 73
     2
 40
0.375
 49
0.25
 74
     0
 49
-0.125
 74
     0
  0
LTYPE
  5
1F
330
5
100
AcDbSymbolTableRecord
100
AcDbLinetypeTableRecord
  2
CENTER
 70
     0
  3
____ _ ____ _ ____ _ ____ _ ____ _ ____ _ ____
 72
    65
 73
     4
 40
2.0
 49
1.25
 74
     0
 49
-0.25
 74
     0
 49
0.25
 74
     0
 49
-0.25
 74
     0
  0
ENDTAB
  0
TABLE
  2
LAYER
  5
2
102
{ACAD_XDICTIONARY
360
A2D8
102
}
330
0
100
AcDbSymbolTable
 70
     8
  0
LAYER
  5
E
330
2
100
AcDbSymbolTableRecord
100
AcDbLayerTableRecord
  2
0
 70
     0
 62
     7
  6
CONTINUOUS
370
    -3
390
12F2
  0
LAYER
  5
23
330
2
100
AcDbSymbolTableRecord
100
AcDbLayerTableRecord
  2
SUNPOU
 70
     0
 62
     1
  6
CONTINUOUS
370
    -3
390
12F2
  0
LAYER
  5
24
330
2
100
AcDbSymbolTableRecord
100
AcDbLayerTableRecord
  2
HAIKIN
 70
     0
 62
     2
  6
CONTINUOUS
370
    -3
390
12F2
  0
LAYER
  5
25
330
2
100
AcDbSymbolTableRecord
100
AcDbLayerTableRecord
  2
SEIHIN
 70
     0
 62
     3
  6
CONTINUOUS
370
    -3
390
12F2
  0
LAYER
  5
26
330
2
100
AcDbSymbolTableRecord
100
AcDbLayerTableRecord
  2
HASEN
 70
     0
 62
     4
  6
HIDDEN
370
    -3
390
12F2
  0
LAYER
  5
27
330
2
100
AcDbSymbolTableRecord
100
AcDbLayerTableRecord
  2
1HASEN
 70
     0
 62
     5
  6
CENTER
370
    -3
390
12F2
  0
LAYER
  5
11F
330
2
100
AcDbSymbolTableRecord
100
AcDbLayerTableRecord
  2
DEFPOINTS
 70
     0
 62
     7
  6
CONTINUOUS
290
     0
370
    -3
390
12F2
  0
LAYER
  5
6D27
330
2
100
AcDbSymbolTableRecord
100
AcDbLayerTableRecord
  2
PC
 70
     0
 62
     3
  6
CONTINUOUS
370
    -3
390
12F2
  0
ENDTAB
  0
TABLE
  2
STYLE
  5
3
330
0
100
AcDbSymbolTable
 70
     1
  0
STYLE
  5
F
330
3
100
AcDbSymbolTableRecord
100
AcDbTextStyleTableRecord
  2
STANDARD
 70
     0
 40
0.0
 41
0.8
 50
0.0
 71
     0
 42
75.0
  3
TXT.shx
  4
BIGFONT.shx
  0
ENDTAB
  0
TABLE
  2
VIEW
  5
6
330
0
100
AcDbSymbolTable
 70
     0
  0
ENDTAB
  0
TABLE
  2
UCS
  5
7
330
0
100
AcDbSymbolTable
 70
     0
  0
ENDTAB
  0
TABLE
  2
APPID
  5
9
330
0
100
AcDbSymbolTable
 70
     1
  0
APPID
  5
10
330
9
100
AcDbSymbolTableRecord
100
AcDbRegAppTableRecord
  2
ACAD
 70
     0
  0
ENDTAB
  0
TABLE
  2
DIMSTYLE
  5
A
330
0
100
AcDbSymbolTable
 70
     2
100
AcDbDimStyleTable
  0
DIMSTYLE
105
61
102
{ACAD_REACTORS
330
D9A8
330
D9A9
102
}
330
A
100
AcDbSymbolTableRecord
100
AcDbDimStyleTableRecord
  2
STANDARD
 70
     0
172
     1
174
     1
279
     2
340
F
  0
DIMSTYLE
105
B8BB
102
{ACAD_REACTORS
330
D914
330
D913
330
D915
330
D912
330
D910
330
D90F
330
D8D3
330
D8D2
330
D8D1
330
D919
330
D911
330
D8CD
330
D8D0
330
D918
330
D8ED
330
D8DF
330
D8EA
330
D8F9
330
D8FA
330
D8E8
330
D8FF
330
D901
330
D900
330
D8CE
330
D8F8
330
D8EE
330
D902
330
D93A
330
D939
330
D941
330
D942
330
D943
330
D940
330
D93E
330
D93F
330
D93D
330
D93C
330
D8A1
330
D8A2
330
D92E
330
D92D
330
D92C
330
D938
330
D946
330
D945
330
D944
330
D91C
330
D91B
330
D883
330
D93B
330
D8E9
330
D8A4
330
D8A3
330
D8A8
330
EA67
330
D8A9
330
D8A7
102
}
330
A
100
AcDbSymbolTableRecord
100
AcDbDimStyleTableRecord
  2
1-40
 70
     0
 40
40.0
 41
2.0
 42
1.5
 43
7.0
 44
0.6
 73
     0
 74
     0
 77
     1
140
3.0
141
0.0
143
0.03937
147
0.8
172
     1
174
     1
176
   256
177
   256
178
   256
271
     0
272
     0
275
     1
278
    44
340
F
  0
ENDTAB
  0
TABLE
  2
BLOCK_RECORD
  5
1
330
0
100
AcDbSymbolTable
 70
    60
  0
BLOCK_RECORD
  5
17
330
1
100
AcDbSymbolTableRecord
100
AcDbBlockTableRecord
  2
*MODEL_SPACE
340
12F5
  0
BLOCK_RECORD
  5
14
330
1
100
AcDbSymbolTableRecord
100
AcDbBlockTableRecord
  2
*PAPER_SPACE
340
12F6
  0
BLOCK_RECORD
  5
D4A3
330
1
100
AcDbSymbolTableRecord
100
AcDbBlockTableRecord
  2
_DotSmall
340
0
102
{BLKREFS
331
100C5
331
100D8
331
10107
331
10111
331
1014C
331
10157
331
10161
331
1016C
331
10375
331
10376
331
10380
331
10381
331
1038A
331
1038B
331
10393
331
10394
331
1039D
331
1039E
331
103A8
331
103A9
102
}
  0
BLOCK_RECORD
  5
D9CE
330
1
100
AcDbSymbolTableRecord
100
AcDbBlockTableRecord
  2
*D1
340
0
  0
BLOCK_RECORD
  5
D9DC
330
1
100
AcDbSymbolTableRecord
100
AcDbBlockTableRecord
  2
*D2
340
0
  0
BLOCK_RECORD
  5
D9EA
330
1
100
AcDbSymbolTableRecord
100
AcDbBlockTableRecord
  2
*D3
340
0
  0
BLOCK_RECORD
  5
D9F8
330
1
100
AcDbSymbolTableRecord
100
AcDbBlockTableRecord
  2
*D4
340
0
  0
BLOCK_RECORD
  5
DA06
330
1
100
AcDbSymbolTableRecord
100
AcDbBlockTableRecord
  2
*D5
340
0
  0
BLOCK_RECORD
  5
DA14
330
1
100
AcDbSymbolTableRecord
100
AcDbBlockTableRecord
  2
*D6
340
0
  0
BLOCK_RECORD
  5
DA22
330
1
100
AcDbSymbolTableRecord
100
AcDbBlockTableRecord
  2
*D7
340
0
  0
BLOCK_RECORD
  5
DA30
330
1
100
AcDbSymbolTableRecord
100
AcDbBlockTableRecord
  2
*D8
340
0
  0
BLOCK_RECORD
  5
DA3E
330
1
100
AcDbSymbolTableRecord
100
AcDbBlockTableRecord
  2
*D9
340
0
  0
BLOCK_RECORD
  5
DA4C
330
1
100
AcDbSymbolTableRecord
100
AcDbBlockTableRecord
  2
*D10
340
0
  0
BLOCK_RECORD
  5
DA5A
330
1
100
AcDbSymbolTableRecord
100
AcDbBlockTableRecord
  2
*D11
340
0
  0
BLOCK_RECORD
  5
DA68
330
1
100
AcDbSymbolTableRecord
100
AcDbBlockTableRecord
  2
*D12
340
0
  0
BLOCK_RECORD
  5
DA76
330
1
100
AcDbSymbolTableRecord
100
AcDbBlockTableRecord
  2
*D13
340
0
  0
BLOCK_RECORD
  5
DA82
330
1
100
AcDbSymbolTableRecord
100
AcDbBlockTableRecord
  2
*D14
340
0
  0
BLOCK_RECORD
  5
DA90
330
1
100
AcDbSymbolTableRecord
100
AcDbBlockTableRecord
  2
*D15
340
0
  0
BLOCK_RECORD
  5
DA9E
330
1
100
AcDbSymbolTableRecord
100
AcDbBlockTableRecord
  2
*D16
340
0
  0
BLOCK_RECORD
  5
DAAA
330
1
100
AcDbSymbolTableRecord
100
AcDbBlockTableRecord
  2
*D17
340
0
  0
BLOCK_RECORD
  5
DAB8
330
1
100
AcDbSymbolTableRecord
100
AcDbBlockTableRecord
  2
*D18
340
0
  0
BLOCK_RECORD
  5
DAC6
330
1
100
AcDbSymbolTableRecord
100
AcDbBlockTableRecord
  2
*D19
340
0
  0
BLOCK_RECORD
  5
DAD2
330
1
100
AcDbSymbolTableRecord
100
AcDbBlockTableRecord
  2
*D20
340
0
  0
BLOCK_RECORD
  5
DADE
330
1
100
AcDbSymbolTableRecord
100
AcDbBlockTableRecord
  2
*D21
340
0
  0
BLOCK_RECORD
  5
DAEA
330
1
100
AcDbSymbolTableRecord
100
AcDbBlockTableRecord
  2
*D22
340
0
  0
BLOCK_RECORD
  5
DAF6
330
1
100
AcDbSymbolTableRecord
100
AcDbBlockTableRecord
  2
*D23
340
0
  0
BLOCK_RECORD
  5
DB02
330
1
100
AcDbSymbolTableRecord
100
AcDbBlockTableRecord
  2
*D24
340
0
  0
BLOCK_RECORD
  5
DB10
330
1
100
AcDbSymbolTableRecord
100
AcDbBlockTableRecord
  2
*D25
340
0
  0
BLOCK_RECORD
  5
DB1E
330
1
100
AcDbSymbolTableRecord
100
AcDbBlockTableRecord
  2
*D26
340
0
  0
BLOCK_RECORD
  5
DB2C
330
1
100
AcDbSymbolTableRecord
100
AcDbBlockTableRecord
  2
*D27
340
0
  0
BLOCK_RECORD
  5
DB38
330
1
100
AcDbSymbolTableRecord
100
AcDbBlockTableRecord
  2
*D28
340
0
  0
BLOCK_RECORD
  5
DB44
330
1
100
AcDbSymbolTableRecord
100
AcDbBlockTableRecord
  2
*D29
340
0
  0
BLOCK_RECORD
  5
DB50
330
1
100
AcDbSymbolTableRecord
100
AcDbBlockTableRecord
  2
*D30
340
0
  0
BLOCK_RECORD
  5
DB5C
330
1
100
AcDbSymbolTableRecord
100
AcDbBlockTableRecord
  2
*D31
340
0
  0
BLOCK_RECORD
  5
DB6A
330
1
100
AcDbSymbolTableRecord
100
AcDbBlockTableRecord
  2
*D32
340
0
  0
BLOCK_RECORD
  5
DB76
330
1
100
AcDbSymbolTableRecord
100
AcDbBlockTableRecord
  2
*D33
340
0
  0
BLOCK_RECORD
  5
DB82
330
1
100
AcDbSymbolTableRecord
100
AcDbBlockTableRecord
  2
*D34
340
0
  0
BLOCK_RECORD
  5
DB8E
330
1
100
AcDbSymbolTableRecord
100
AcDbBlockTableRecord
  2
*D35
340
0
  0
BLOCK_RECORD
  5
DB9C
330
1
100
AcDbSymbolTableRecord
100
AcDbBlockTableRecord
  2
*D36
340
0
  0
BLOCK_RECORD
  5
DBA8
330
1
100
AcDbSymbolTableRecord
100
AcDbBlockTableRecord
  2
*D37
340
0
  0
BLOCK_RECORD
  5
DBB6
330
1
100
AcDbSymbolTableRecord
100
AcDbBlockTableRecord
  2
*D38
340
0
  0
BLOCK_RECORD
  5
DBC4
330
1
100
AcDbSymbolTableRecord
100
AcDbBlockTableRecord
  2
*D39
340
0
  0
BLOCK_RECORD
  5
DBD2
330
1
100
AcDbSymbolTableRecord
100
AcDbBlockTableRecord
  2
*D40
340
0
  0
BLOCK_RECORD
  5
DBE0
330
1
100
AcDbSymbolTableRecord
100
AcDbBlockTableRecord
  2
*D41
340
0
  0
BLOCK_RECORD
  5
DBFC
330
1
100
AcDbSymbolTableRecord
100
AcDbBlockTableRecord
  2
*D42
340
0
  0
BLOCK_RECORD
  5
DC08
330
1
100
AcDbSymbolTableRecord
100
AcDbBlockTableRecord
  2
*D43
340
0
  0
BLOCK_RECORD
  5
DC14
330
1
100
AcDbSymbolTableRecord
100
AcDbBlockTableRecord
  2
*D44
340
0
  0
BLOCK_RECORD
  5
DC22
330
1
100
AcDbSymbolTableRecord
100
AcDbBlockTableRecord
  2
*D45
340
0
  0
BLOCK_RECORD
  5
DC30
330
1
100
AcDbSymbolTableRecord
100
AcDbBlockTableRecord
  2
*D46
340
0
  0
BLOCK_RECORD
  5
DC3C
330
1
100
AcDbSymbolTableRecord
100
AcDbBlockTableRecord
  2
*D47
340
0
  0
BLOCK_RECORD
  5
DC48
330
1
100
AcDbSymbolTableRecord
100
AcDbBlockTableRecord
  2
*D48
340
0
  0
BLOCK_RECORD
  5
DC54
330
1
100
AcDbSymbolTableRecord
100
AcDbBlockTableRecord
  2
*D49
340
0
  0
BLOCK_RECORD
  5
DC60
330
1
100
AcDbSymbolTableRecord
100
AcDbBlockTableRecord
  2
*D50
340
0
  0
BLOCK_RECORD
  5
DC6C
330
1
100
AcDbSymbolTableRecord
100
AcDbBlockTableRecord
  2
*D51
340
0
  0
BLOCK_RECORD
  5
DC78
330
1
100
AcDbSymbolTableRecord
100
AcDbBlockTableRecord
  2
*D52
340
0
  0
BLOCK_RECORD
  5
DC84
330
1
100
AcDbSymbolTableRecord
100
AcDbBlockTableRecord
  2
*D53
340
0
  0
BLOCK_RECORD
  5
DC90
330
1
100
AcDbSymbolTableRecord
100
AcDbBlockTableRecord
  2
*D54
340
0
  0
BLOCK_RECORD
  5
DC9E
330
1
100
AcDbSymbolTableRecord
100
AcDbBlockTableRecord
  2
*D55
340
0
  0
BLOCK_RECORD
  5
DCAA
330
1
100
AcDbSymbolTableRecord
100
AcDbBlockTableRecord
  2
*D56
340
0
  0
BLOCK_RECORD
  5
DCB8
330
1
100
AcDbSymbolTableRecord
100
AcDbBlockTableRecord
  2
*D57
340
0
  0
BLOCK_RECORD
  5
DCC4
330
1
100
AcDbSymbolTableRecord
100
AcDbBlockTableRecord
  2
*D58
340
0
  0
BLOCK_RECORD
  5
EA68
330
1
100
AcDbSymbolTableRecord
100
AcDbBlockTableRecord
  2
*D59
340
0
  0
ENDTAB
  0
ENDSEC
  0
SECTION
  2
BLOCKS
  0
BLOCK
  5
2D
330
17
100
AcDbEntity
  8
0
100
AcDbBlockBegin
  2
*MODEL_SPACE
 70
     0
 10
0.0
 20
0.0
 30
0.0
  3
*MODEL_SPACE
  1

  0
ENDBLK
  5
2E
330
17
100
AcDbEntity
  8
0
100
AcDbBlockEnd
  0
BLOCK
  5
2B
330
14
100
AcDbEntity
 67
     1
  8
0
100
AcDbBlockBegin
  2
*PAPER_SPACE
 70
     0
 10
0.0
 20
0.0
 30
0.0
  3
*PAPER_SPACE
  1

  0
ENDBLK
  5
2C
330
14
100
AcDbEntity
 67
     1
  8
0
100
AcDbBlockEnd
  0
BLOCK
  5
D4A4
330
D4A3
100
AcDbEntity
  8
0
100
AcDbBlockBegin
  2
_DotSmall
 70
     0
 10
0.0
 20
0.0
 30
0.0
  3
_DotSmall
  1

  0
LWPOLYLINE
  5
D4A5
330
D4A3
100
AcDbEntity
  8
SUNPOU
 62
     0
100
AcDbPolyline
 90
        2
 70
     1
 43
0.5
 10
-0.0625
 20
0.0
 42
1.0
 10
0.0625
 20
0.0
 42
1.0
  0
ENDBLK
  5
D4A6
330
D4A3
100
AcDbEntity
  8
0
100
AcDbBlockEnd
  0
BLOCK
  5
D9DA
330
D9CE
100
AcDbEntity
  8
0
100
AcDbBlockBegin
  2
*D1
 70
     1
 10
0.0
 20
0.0
 30
0.0
  3
*D1
  1

  0
LINE
  5
FD5F
330
D9CE
100
AcDbEntity
  8
SUNPOU
370
    -2
100
AcDbLine
 10
26959.70454075908
 20
5406.16379692493
 30
0.0
 11
27283.70454075908
 21
5406.16379692493
 31
0.0
  0
LINE
  5
FD60
330
D9CE
100
AcDbEntity
  8
SUNPOU
370
    -2
100
AcDbLine
 10
26959.70454075908
 20
5636.16379692493
 30
0.0
 11
27283.70454075908
 21
5636.16379692493
 31
0.0
  0
LINE
  5
FD61
330
D9CE
100
AcDbEntity
  8
SUNPOU
370
    -2
100
AcDbLine
 10
27259.70454075908
 20
5486.16379692493
 30
0.0
 11
27259.70454075908
 21
5556.16379692493
 31
0.0
  0
LINE
  5
FD62
330
D9CE
100
AcDbEntity
  8
SUNPOU
370
    -2
100
AcDbLine
 10
27259.70454075908
 20
5636.16379692493
 30
0.0
 11
27259.70454075908
 21
6020.16379692493
 31
0.0
  0
SOLID
  5
FD63
330
D9CE
100
AcDbEntity
  8
SUNPOU
100
AcDbTrace
 10
27246.37120742575
 20
5486.16379692493
 30
0.0
 11
27273.03787409241
 21
5486.16379692493
 31
0.0
 12
27259.70454075908
 22
5406.16379692493
 32
0.0
 13
27259.70454075908
 23
5406.16379692493
 33
0.0
  0
SOLID
  5
FD64
330
D9CE
100
AcDbEntity
  8
SUNPOU
100
AcDbTrace
 10
27246.37120742575
 20
5556.16379692493
 30
0.0
 11
27273.03787409241
 21
5556.16379692493
 31
0.0
 12
27259.70454075908
 22
5636.16379692493
 32
0.0
 13
27259.70454075908
 23
5636.16379692493
 33
0.0
  0
MTEXT
  5
FD65
330
D9CE
100
AcDbEntity
  8
SUNPOU
100
AcDbMText
 10
27167.70454075908
 20
5868.163796924934
 30
0.0
 40
120.0
 41
0.0
 71
     5
 72
     1
  1
\A1;230
 11
6.123031769111886E-17
 21
1.0
 31
0.0
 73
     1
 44
1.0
  0
POINT
  5
FD66
330
D9CE
100
AcDbEntity
  8
DEFPOINTS
 62
     0
100
AcDbPoint
 10
26899.70454075908
 20
5406.16379692493
 30
0.0
  0
POINT
  5
FD67
330
D9CE
100
AcDbEntity
  8
DEFPOINTS
 62
     0
100
AcDbPoint
 10
26899.70454075908
 20
5636.16379692493
 30
0.0
  0
POINT
  5
FD68
330
D9CE
100
AcDbEntity
  8
DEFPOINTS
 62
     0
100
AcDbPoint
 10
27259.70454075908
 20
5636.16379692493
 30
0.0
  0
ENDBLK
  5
D9DB
330
D9CE
100
AcDbEntity
  8
0
100
AcDbBlockEnd
  0
BLOCK
  5
D9E8
330
D9DC
100
AcDbEntity
  8
0
100
AcDbBlockBegin
  2
*D2
 70
     1
 10
0.0
 20
0.0
 30
0.0
  3
*D2
  1

  0
LINE
  5
10167
330
D9DC
100
AcDbEntity
  8
SUNPOU
370
    -2
100
AcDbLine
 10
28923.29287243254
 20
2502.550907110833
 30
0.0
 11
28487.00752042768
 21
2502.550907110833
 31
0.0
  0
LINE
  5
10168
330
D9DC
100
AcDbEntity
  8
SUNPOU
370
    -2
100
AcDbLine
 10
28923.29287243254
 20
2642.550907110831
 30
0.0
 11
28487.00752042768
 21
2642.550907110831
 31
0.0
  0
LINE
  5
10169
330
D9DC
100
AcDbEntity
  8
SUNPOU
370
    -2
100
AcDbLine
 10
28511.00752042768
 20
2502.550907110833
 30
0.0
 11
28511.00752042768
 21
2422.550907110833
 31
0.0
  0
LINE
  5
1016A
330
D9DC
100
AcDbEntity
  8
SUNPOU
370
    -2
100
AcDbLine
 10
28511.00752042768
 20
2722.550907110831
 30
0.0
 11
28511.00752042768
 21
3074.550907110831
 31
0.0
  0
LINE
  5
1016B
330
D9DC
100
AcDbEntity
  8
SUNPOU
370
    -2
100
AcDbLine
 10
28511.00752042768
 20
2502.550907110833
 30
0.0
 11
28511.00752042768
 21
2642.550907110831
 31
0.0
  0
INSERT
  5
1016C
330
D9DC
100
AcDbEntity
  8
SUNPOU
370
    -2
100
AcDbBlockReference
  2
_DotSmall
 10
28511.00752042768
 20
2502.550907110833
 30
0.0
 41
80.0
 42
80.0
 43
80.0
 50
90.0
  0
SOLID
  5
1016D
330
D9DC
100
AcDbEntity
  8
SUNPOU
100
AcDbTrace
 10
28497.67418709435
 20
2722.550907110831
 30
0.0
 11
28524.34085376102
 21
2722.550907110831
 31
0.0
 12
28511.00752042768
 22
2642.550907110831
 32
0.0
 13
28511.00752042768
 23
2642.550907110831
 33
0.0
  0
MTEXT
  5
1016E
330
D9DC
100
AcDbEntity
  8
SUNPOU
100
AcDbMText
 10
28419.00752042768
 20
2938.550907110835
 30
0.0
 40
120.0
 41
0.0
 71
     5
 72
     1
  1
\A1;140
 11
6.123031769111886E-17
 21
1.0
 31
0.0
 73
     1
 44
1.0
  0
POINT
  5
1016F
330
D9DC
100
AcDbEntity
  8
DEFPOINTS
 62
     0
100
AcDbPoint
 10
28983.29287243254
 20
2502.550907110833
 30
0.0
  0
POINT
  5
10170
330
D9DC
100
AcDbEntity
  8
DEFPOINTS
 62
     0
100
AcDbPoint
 10
28983.29287243254
 20
2642.550907110831
 30
0.0
  0
POINT
  5
10171
330
D9DC
100
AcDbEntity
  8
DEFPOINTS
 62
     0
100
AcDbPoint
 10
28511.00752042768
 20
2642.550907110831
 30
0.0
  0
ENDBLK
  5
D9E9
330
D9DC
100
AcDbEntity
  8
0
100
AcDbBlockEnd
  0
BLOCK
  5
D9F6
330
D9EA
100
AcDbEntity
  8
0
100
AcDbBlockBegin
  2
*D3
 70
     1
 10
0.0
 20
0.0
 30
0.0
  3
*D3
  1

  0
LINE
  5
1015D
330
D9EA
100
AcDbEntity
  8
SUNPOU
370
    -2
100
AcDbLine
 10
28843.29287243254
 20
2422.550907110827
 30
0.0
 11
28207.00752112768
 21
2422.550907110827
 31
0.0
  0
LINE
  5
1015E
330
D9EA
100
AcDbEntity
  8
SUNPOU
370
    -2
100
AcDbLine
 10
28923.29287243254
 20
2642.55090711083
 30
0.0
 11
28207.00752112768
 21
2642.55090711083
 31
0.0
  0
LINE
  5
1015F
330
D9EA
100
AcDbEntity
  8
SUNPOU
370
    -2
100
AcDbLine
 10
28231.00752112768
 20
2422.550907110827
 30
0.0
 11
28231.00752112768
 21
2562.55090711083
 31
0.0
  0
LINE
  5
10160
330
D9EA
100
AcDbEntity
  8
SUNPOU
370
    -2
100
AcDbLine
 10
28231.00752112768
 20
2642.55090711083
 30
0.0
 11
28231.00752112768
 21
3106.55090711083
 31
0.0
  0
INSERT
  5
10161
330
D9EA
100
AcDbEntity
  8
SUNPOU
370
    -2
100
AcDbBlockReference
  2
_DotSmall
 10
28231.00752112768
 20
2422.550907110827
 30
0.0
 41
80.0
 42
80.0
 43
80.0
 50
270.0
  0
SOLID
  5
10162
330
D9EA
100
AcDbEntity
  8
SUNPOU
100
AcDbTrace
 10
28217.67418779435
 20
2562.55090711083
 30
0.0
 11
28244.34085446101
 21
2562.55090711083
 31
0.0
 12
28231.00752112768
 22
2642.55090711083
 32
0.0
 13
28231.00752112768
 23
2642.55090711083
 33
0.0
  0
MTEXT
  5
10163
330
D9EA
100
AcDbEntity
  8
SUNPOU
100
AcDbMText
 10
28139.00752112768
 20
2954.550907110834
 30
0.0
 40
120.0
 41
0.0
 71
     5
 72
     1
  1
\A1;220
 11
6.123031769111886E-17
 21
1.0
 31
0.0
 73
     1
 44
1.0
  0
POINT
  5
10164
330
D9EA
100
AcDbEntity
  8
DEFPOINTS
 62
     0
100
AcDbPoint
 10
28903.29287243254
 20
2422.550907110827
 30
0.0
  0
POINT
  5
10165
330
D9EA
100
AcDbEntity
  8
DEFPOINTS
 62
     0
100
AcDbPoint
 10
28983.29287243254
 20
2642.55090711083
 30
0.0
  0
POINT
  5
10166
330
D9EA
100
AcDbEntity
  8
DEFPOINTS
 62
     0
100
AcDbPoint
 10
28231.00752112768
 20
2642.55090711083
 30
0.0
  0
ENDBLK
  5
D9F7
330
D9EA
100
AcDbEntity
  8
0
100
AcDbBlockEnd
  0
BLOCK
  5
DA04
330
D9F8
100
AcDbEntity
  8
0
100
AcDbBlockBegin
  2
*D4
 70
     1
 10
0.0
 20
0.0
 30
0.0
  3
*D4
  1

  0
LINE
  5
10152
330
D9F8
100
AcDbEntity
  8
SUNPOU
370
    -2
100
AcDbLine
 10
28843.29287243254
 20
2342.550907110833
 30
0.0
 11
28487.00752042768
 21
2342.550907110833
 31
0.0
  0
LINE
  5
10153
330
D9F8
100
AcDbEntity
  8
SUNPOU
370
    -2
100
AcDbLine
 10
28843.29287243254
 20
2262.550907110832
 30
0.0
 11
28487.00752042768
 21
2262.550907110832
 31
0.0
  0
LINE
  5
10154
330
D9F8
100
AcDbEntity
  8
SUNPOU
370
    -2
100
AcDbLine
 10
28511.00752042768
 20
2342.550907110833
 30
0.0
 11
28511.00752042768
 21
2422.550907110833
 31
0.0
  0
LINE
  5
10155
330
D9F8
100
AcDbEntity
  8
SUNPOU
370
    -2
100
AcDbLine
 10
28511.00752042768
 20
2182.550907110832
 30
0.0
 11
28511.00752042768
 21
1894.550907110832
 31
0.0
  0
LINE
  5
10156
330
D9F8
100
AcDbEntity
  8
SUNPOU
370
    -2
100
AcDbLine
 10
28511.00752042768
 20
2342.550907110833
 30
0.0
 11
28511.00752042768
 21
2262.550907110832
 31
0.0
  0
INSERT
  5
10157
330
D9F8
100
AcDbEntity
  8
SUNPOU
370
    -2
100
AcDbBlockReference
  2
_DotSmall
 10
28511.00752042768
 20
2342.550907110833
 30
0.0
 41
80.0
 42
80.0
 43
80.0
 50
270.0
  0
SOLID
  5
10158
330
D9F8
100
AcDbEntity
  8
SUNPOU
100
AcDbTrace
 10
28497.67418709435
 20
2182.550907110832
 30
0.0
 11
28524.34085376102
 21
2182.550907110832
 31
0.0
 12
28511.00752042768
 22
2262.550907110832
 32
0.0
 13
28511.00752042768
 23
2262.550907110832
 33
0.0
  0
MTEXT
  5
10159
330
D9F8
100
AcDbEntity
  8
SUNPOU
100
AcDbMText
 10
28419.00752042768
 20
1998.550907110836
 30
0.0
 40
120.0
 41
0.0
 71
     5
 72
     1
  1
\A1;80
 11
6.123031769111886E-17
 21
1.0
 31
0.0
 73
     1
 44
1.0
  0
POINT
  5
1015A
330
D9F8
100
AcDbEntity
  8
DEFPOINTS
 62
     0
100
AcDbPoint
 10
28903.29287243254
 20
2342.550907110833
 30
0.0
  0
POINT
  5
1015B
330
D9F8
100
AcDbEntity
  8
DEFPOINTS
 62
     0
100
AcDbPoint
 10
28903.29287243254
 20
2262.550907110832
 30
0.0
  0
POINT
  5
1015C
330
D9F8
100
AcDbEntity
  8
DEFPOINTS
 62
     0
100
AcDbPoint
 10
28511.00752042768
 20
2262.550907110832
 30
0.0
  0
ENDBLK
  5
DA05
330
D9F8
100
AcDbEntity
  8
0
100
AcDbBlockEnd
  0
BLOCK
  5
DA12
330
DA06
100
AcDbEntity
  8
0
100
AcDbBlockBegin
  2
*D5
 70
     1
 10
0.0
 20
0.0
 30
0.0
  3
*D5
  1

  0
LINE
  5
10148
330
DA06
100
AcDbEntity
  8
SUNPOU
370
    -2
100
AcDbLine
 10
28843.29287243254
 20
2422.550907110827
 30
0.0
 11
28207.00752112768
 21
2422.550907110827
 31
0.0
  0
LINE
  5
10149
330
DA06
100
AcDbEntity
  8
SUNPOU
370
    -2
100
AcDbLine
 10
28843.29287243254
 20
2262.550907110832
 30
0.0
 11
28207.00752112768
 21
2262.550907110832
 31
0.0
  0
LINE
  5
1014A
330
DA06
100
AcDbEntity
  8
SUNPOU
370
    -2
100
AcDbLine
 10
28231.00752112768
 20
2422.550907110827
 30
0.0
 11
28231.00752112768
 21
2342.550907110832
 31
0.0
  0
LINE
  5
1014B
330
DA06
100
AcDbEntity
  8
SUNPOU
370
    -2
100
AcDbLine
 10
28231.00752112768
 20
2262.550907110832
 30
0.0
 11
28231.00752112768
 21
1830.550907110832
 31
0.0
  0
INSERT
  5
1014C
330
DA06
100
AcDbEntity
  8
SUNPOU
370
    -2
100
AcDbBlockReference
  2
_DotSmall
 10
28231.00752112768
 20
2422.550907110827
 30
0.0
 41
80.0
 42
80.0
 43
80.0
 50
90.0
  0
SOLID
  5
1014D
330
DA06
100
AcDbEntity
  8
SUNPOU
100
AcDbTrace
 10
28217.67418779435
 20
2342.550907110832
 30
0.0
 11
28244.34085446101
 21
2342.550907110832
 31
0.0
 12
28231.00752112768
 22
2262.550907110832
 32
0.0
 13
28231.00752112768
 23
2262.550907110832
 33
0.0
  0
MTEXT
  5
1014E
330
DA06
100
AcDbEntity
  8
SUNPOU
100
AcDbMText
 10
28139.00752112768
 20
1966.550907110836
 30
0.0
 40
120.0
 41
0.0
 71
     5
 72
     1
  1
\A1;160
 11
6.123031769111886E-17
 21
1.0
 31
0.0
 73
     1
 44
1.0
  0
POINT
  5
1014F
330
DA06
100
AcDbEntity
  8
DEFPOINTS
 62
     0
100
AcDbPoint
 10
28903.29287243254
 20
2422.550907110827
 30
0.0
  0
POINT
  5
10150
330
DA06
100
AcDbEntity
  8
DEFPOINTS
 62
     0
100
AcDbPoint
 10
28903.29287243254
 20
2262.550907110832
 30
0.0
  0
POINT
  5
10151
330
DA06
100
AcDbEntity
  8
DEFPOINTS
 62
     0
100
AcDbPoint
 10
28231.00752112768
 20
2262.550907110832
 30
0.0
  0
ENDBLK
  5
DA13
330
DA06
100
AcDbEntity
  8
0
100
AcDbBlockEnd
  0
BLOCK
  5
DA20
330
DA14
100
AcDbEntity
  8
0
100
AcDbBlockBegin
  2
*D6
 70
     1
 10
0.0
 20
0.0
 30
0.0
  3
*D6
  1

  0
LINE
  5
1010D
330
DA14
100
AcDbEntity
  8
SUNPOU
370
    -2
100
AcDbLine
 10
28843.29287243254
 20
102.5509071108318
 30
0.0
 11
28207.00752112768
 21
102.550907110832
 31
0.0
  0
LINE
  5
1010E
330
DA14
100
AcDbEntity
  8
SUNPOU
370
    -2
100
AcDbLine
 10
28843.29287243254
 20
262.5509071108318
 30
0.0
 11
28207.00752112768
 21
262.550907110832
 31
0.0
  0
LINE
  5
1010F
330
DA14
100
AcDbEntity
  8
SUNPOU
370
    -2
100
AcDbLine
 10
28231.00752112768
 20
102.550907110832
 30
0.0
 11
28231.00752112768
 21
182.550907110832
 31
0.0
  0
LINE
  5
10110
330
DA14
100
AcDbEntity
  8
SUNPOU
370
    -2
100
AcDbLine
 10
28231.00752112768
 20
262.550907110832
 30
0.0
 11
28231.00752112768
 21
694.550907110832
 31
0.0
  0
INSERT
  5
10111
330
DA14
100
AcDbEntity
  8
SUNPOU
370
    -2
100
AcDbBlockReference
  2
_DotSmall
 10
28231.00752112768
 20
102.550907110832
 30
0.0
 41
80.0
 42
80.0
 43
80.0
 50
270.0
  0
SOLID
  5
10112
330
DA14
100
AcDbEntity
  8
SUNPOU
100
AcDbTrace
 10
28217.67418779435
 20
182.550907110832
 30
0.0
 11
28244.34085446101
 21
182.550907110832
 31
0.0
 12
28231.00752112768
 22
262.550907110832
 32
0.0
 13
28231.00752112768
 23
262.550907110832
 33
0.0
  0
MTEXT
  5
10113
330
DA14
100
AcDbEntity
  8
SUNPOU
100
AcDbMText
 10
28139.00752112768
 20
558.5509071108365
 30
0.0
 40
120.0
 41
0.0
 71
     5
 72
     1
  1
\A1;160
 11
6.123031769111886E-17
 21
1.0
 31
0.0
 73
     1
 44
1.0
  0
POINT
  5
10114
330
DA14
100
AcDbEntity
  8
DEFPOINTS
 62
     0
100
AcDbPoint
 10
28903.29287243254
 20
102.5509071108318
 30
0.0
  0
POINT
  5
10115
330
DA14
100
AcDbEntity
  8
DEFPOINTS
 62
     0
100
AcDbPoint
 10
28903.29287243254
 20
262.5509071108318
 30
0.0
  0
POINT
  5
10116
330
DA14
100
AcDbEntity
  8
DEFPOINTS
 62
     0
100
AcDbPoint
 10
28231.00752112768
 20
262.550907110832
 30
0.0
  0
ENDBLK
  5
DA21
330
DA14
100
AcDbEntity
  8
0
100
AcDbBlockEnd
  0
BLOCK
  5
DA2E
330
DA22
100
AcDbEntity
  8
0
100
AcDbBlockBegin
  2
*D7
 70
     1
 10
0.0
 20
0.0
 30
0.0
  3
*D7
  1

  0
LINE
  5
10102
330
DA22
100
AcDbEntity
  8
SUNPOU
370
    -2
100
AcDbLine
 10
28843.29287243254
 20
182.5509071108318
 30
0.0
 11
28487.00752042768
 21
182.5509071108319
 31
0.0
  0
LINE
  5
10103
330
DA22
100
AcDbEntity
  8
SUNPOU
370
    -2
100
AcDbLine
 10
28843.29287243254
 20
262.5509071108318
 30
0.0
 11
28487.00752042768
 21
262.5509071108319
 31
0.0
  0
LINE
  5
10104
330
DA22
100
AcDbEntity
  8
SUNPOU
370
    -2
100
AcDbLine
 10
28511.00752042768
 20
182.5509071108319
 30
0.0
 11
28511.00752042768
 21
102.5509071108319
 31
0.0
  0
LINE
  5
10105
330
DA22
100
AcDbEntity
  8
SUNPOU
370
    -2
100
AcDbLine
 10
28511.00752042768
 20
342.5509071108319
 30
0.0
 11
28511.00752042768
 21
630.5509071108318
 31
0.0
  0
LINE
  5
10106
330
DA22
100
AcDbEntity
  8
SUNPOU
370
    -2
100
AcDbLine
 10
28511.00752042768
 20
182.5509071108319
 30
0.0
 11
28511.00752042768
 21
262.5509071108319
 31
0.0
  0
INSERT
  5
10107
330
DA22
100
AcDbEntity
  8
SUNPOU
370
    -2
100
AcDbBlockReference
  2
_DotSmall
 10
28511.00752042768
 20
182.5509071108319
 30
0.0
 41
80.0
 42
80.0
 43
80.0
 50
90.0
  0
SOLID
  5
10108
330
DA22
100
AcDbEntity
  8
SUNPOU
100
AcDbTrace
 10
28497.67418709435
 20
342.5509071108319
 30
0.0
 11
28524.34085376102
 21
342.5509071108319
 31
0.0
 12
28511.00752042768
 22
262.5509071108319
 32
0.0
 13
28511.00752042768
 23
262.5509071108319
 33
0.0
  0
MTEXT
  5
10109
330
DA22
100
AcDbEntity
  8
SUNPOU
100
AcDbMText
 10
28419.00752042768
 20
526.5509071108364
 30
0.0
 40
120.0
 41
0.0
 71
     5
 72
     1
  1
\A1;80
 11
6.123031769111886E-17
 21
1.0
 31
0.0
 73
     1
 44
1.0
  0
POINT
  5
1010A
330
DA22
100
AcDbEntity
  8
DEFPOINTS
 62
     0
100
AcDbPoint
 10
28903.29287243254
 20
182.5509071108318
 30
0.0
  0
POINT
  5
1010B
330
DA22
100
AcDbEntity
  8
DEFPOINTS
 62
     0
100
AcDbPoint
 10
28903.29287243254
 20
262.5509071108318
 30
0.0
  0
POINT
  5
1010C
330
DA22
100
AcDbEntity
  8
DEFPOINTS
 62
     0
100
AcDbPoint
 10
28511.00752042768
 20
262.5509071108319
 30
0.0
  0
ENDBLK
  5
DA2F
330
DA22
100
AcDbEntity
  8
0
100
AcDbBlockEnd
  0
BLOCK
  5
DA3C
330
DA30
100
AcDbEntity
  8
0
100
AcDbBlockBegin
  2
*D8
 70
     1
 10
0.0
 20
0.0
 30
0.0
  3
*D8
  1

  0
LINE
  5
100D4
330
DA30
100
AcDbEntity
  8
SUNPOU
370
    -2
100
AcDbLine
 10
28843.29287243254
 20
102.5509071108318
 30
0.0
 11
28207.00752112768
 21
102.550907110832
 31
0.0
  0
LINE
  5
100D5
330
DA30
100
AcDbEntity
  8
SUNPOU
370
    -2
100
AcDbLine
 10
28923.29287243254
 20
-117.4490928891682
 30
0.0
 11
28207.00752112768
 21
-117.449092889168
 31
0.0
  0
LINE
  5
100D6
330
DA30
100
AcDbEntity
  8
SUNPOU
370
    -2
100
AcDbLine
 10
28231.00752112768
 20
102.550907110832
 30
0.0
 11
28231.00752112768
 21
-37.44909288916803
 31
0.0
  0
LINE
  5
100D7
330
DA30
100
AcDbEntity
  8
SUNPOU
370
    -2
100
AcDbLine
 10
28231.00752112768
 20
-117.449092889168
 30
0.0
 11
28231.00752112768
 21
-581.4490928891682
 31
0.0
  0
INSERT
  5
100D8
330
DA30
100
AcDbEntity
  8
SUNPOU
370
    -2
100
AcDbBlockReference
  2
_DotSmall
 10
28231.00752112768
 20
102.550907110832
 30
0.0
 41
80.0
 42
80.0
 43
80.0
 50
90.0
  0
SOLID
  5
100D9
330
DA30
100
AcDbEntity
  8
SUNPOU
100
AcDbTrace
 10
28217.67418779435
 20
-37.44909288916803
 30
0.0
 11
28244.34085446101
 21
-37.44909288916804
 31
0.0
 12
28231.00752112768
 22
-117.449092889168
 32
0.0
 13
28231.00752112768
 23
-117.449092889168
 33
0.0
  0
MTEXT
  5
100DA
330
DA30
100
AcDbEntity
  8
SUNPOU
100
AcDbMText
 10
28139.00752112768
 20
-429.4490928891637
 30
0.0
 40
120.0
 41
0.0
 71
     5
 72
     1
  1
\A1;220
 11
6.123031769111886E-17
 21
1.0
 31
0.0
 73
     1
 44
1.0
  0
POINT
  5
100DB
330
DA30
100
AcDbEntity
  8
DEFPOINTS
 62
     0
100
AcDbPoint
 10
28903.29287243254
 20
102.5509071108318
 30
0.0
  0
POINT
  5
100DC
330
DA30
100
AcDbEntity
  8
DEFPOINTS
 62
     0
100
AcDbPoint
 10
28983.29287243254
 20
-117.4490928891682
 30
0.0
  0
POINT
  5
100DD
330
DA30
100
AcDbEntity
  8
DEFPOINTS
 62
     0
100
AcDbPoint
 10
28231.00752112768
 20
-117.449092889168
 30
0.0
  0
ENDBLK
  5
DA3D
330
DA30
100
AcDbEntity
  8
0
100
AcDbBlockEnd
  0
BLOCK
  5
DA4A
330
DA3E
100
AcDbEntity
  8
0
100
AcDbBlockBegin
  2
*D9
 70
     1
 10
0.0
 20
0.0
 30
0.0
  3
*D9
  1

  0
LINE
  5
FBDA
330
DA3E
100
AcDbEntity
  8
SUNPOU
370
    -2
100
AcDbLine
 10
33938.48373395314
 20
2662.688219002996
 30
0.0
 11
33938.48373395314
 21
3491.543538066259
 31
0.0
  0
LINE
  5
FBDB
330
DA3E
100
AcDbEntity
  8
SUNPOU
370
    -2
100
AcDbLine
 10
33947.48373395314
 20
2299.688219002996
 30
0.0
 11
33947.48373395314
 21
3491.543538066259
 31
0.0
  0
LINE
  5
FBDC
330
DA3E
100
AcDbEntity
  8
SUNPOU
370
    -2
100
AcDbLine
 10
33858.48373395314
 20
3467.543538066259
 30
0.0
 11
33778.48373395314
 21
3467.543538066259
 31
0.0
  0
LINE
  5
FBDD
330
DA3E
100
AcDbEntity
  8
SUNPOU
370
    -2
100
AcDbLine
 10
34027.48373395314
 20
3467.543538066259
 30
0.0
 11
34235.48373395314
 21
3467.543538066259
 31
0.0
  0
LINE
  5
FBDE
330
DA3E
100
AcDbEntity
  8
SUNPOU
370
    -2
100
AcDbLine
 10
33938.48373395314
 20
3467.543538066259
 30
0.0
 11
33947.48373395314
 21
3467.543538066259
 31
0.0
  0
SOLID
  5
FBDF
330
DA3E
100
AcDbEntity
  8
SUNPOU
100
AcDbTrace
 10
33858.48373395314
 20
3480.876871399593
 30
0.0
 11
33858.48373395314
 21
3454.210204732926
 31
0.0
 12
33938.48373395314
 22
3467.543538066259
 32
0.0
 13
33938.48373395314
 23
3467.543538066259
 33
0.0
  0
SOLID
  5
FBE0
330
DA3E
100
AcDbEntity
  8
SUNPOU
100
AcDbTrace
 10
34027.48373395314
 20
3480.876871399593
 30
0.0
 11
34027.48373395314
 21
3454.210204732926
 31
0.0
 12
33947.48373395314
 22
3467.543538066259
 32
0.0
 13
33947.48373395314
 23
3467.543538066259
 33
0.0
  0
MTEXT
  5
FBE1
330
DA3E
100
AcDbEntity
  8
SUNPOU
100
AcDbMText
 10
34171.48373395314
 20
3559.543538066259
 30
0.0
 40
120.0
 41
0.0
 71
     5
 72
     1
  1
\A1;3
 73
     1
 44
1.0
  0
POINT
  5
FBE2
330
DA3E
100
AcDbEntity
  8
DEFPOINTS
 62
     0
100
AcDbPoint
 10
33938.48373395314
 20
2602.688219002996
 30
0.0
  0
POINT
  5
FBE3
330
DA3E
100
AcDbEntity
  8
DEFPOINTS
 62
     0
100
AcDbPoint
 10
33947.48373395314
 20
2239.688219002996
 30
0.0
  0
POINT
  5
FBE4
330
DA3E
100
AcDbEntity
  8
DEFPOINTS
 62
     0
100
AcDbPoint
 10
33947.48373395314
 20
3467.543538066259
 30
0.0
  0
ENDBLK
  5
DA4B
330
DA3E
100
AcDbEntity
  8
0
100
AcDbBlockEnd
  0
BLOCK
  5
DA58
330
DA4C
100
AcDbEntity
  8
0
100
AcDbBlockBegin
  2
*D10
 70
     1
 10
0.0
 20
0.0
 30
0.0
  3
*D10
  1

  0
LINE
  5
FC55
330
DA4C
100
AcDbEntity
  8
SUNPOU
370
    -2
100
AcDbLine
 10
33938.48373395314
 20
-666.0648447039584
 30
0.0
 11
33938.48373395314
 21
-1251.938363510937
 31
0.0
  0
LINE
  5
FC56
330
DA4C
100
AcDbEntity
  8
SUNPOU
370
    -2
100
AcDbLine
 10
33974.48373395314
 20
-681.0648447039584
 30
0.0
 11
33974.48373395314
 21
-1251.938363510937
 31
0.0
  0
LINE
  5
FC57
330
DA4C
100
AcDbEntity
  8
SUNPOU
370
    -2
100
AcDbLine
 10
33858.48373395314
 20
-1227.938363510937
 30
0.0
 11
33778.48373395314
 21
-1227.938363510937
 31
0.0
  0
LINE
  5
FC58
330
DA4C
100
AcDbEntity
  8
SUNPOU
370
    -2
100
AcDbLine
 10
34054.48373395314
 20
-1227.938363510937
 30
0.0
 11
34326.48373395314
 21
-1227.938363510937
 31
0.0
  0
LINE
  5
FC59
330
DA4C
100
AcDbEntity
  8
SUNPOU
370
    -2
100
AcDbLine
 10
33938.48373395314
 20
-1227.938363510937
 30
0.0
 11
33974.48373395314
 21
-1227.938363510937
 31
0.0
  0
SOLID
  5
FC5A
330
DA4C
100
AcDbEntity
  8
SUNPOU
100
AcDbTrace
 10
33858.48373395314
 20
-1214.605030177604
 30
0.0
 11
33858.48373395314
 21
-1241.27169684427
 31
0.0
 12
33938.48373395314
 22
-1227.938363510937
 32
0.0
 13
33938.48373395314
 23
-1227.938363510937
 33
0.0
  0
SOLID
  5
FC5B
330
DA4C
100
AcDbEntity
  8
SUNPOU
100
AcDbTrace
 10
34054.48373395314
 20
-1214.605030177604
 30
0.0
 11
34054.48373395314
 21
-1241.27169684427
 31
0.0
 12
33974.48373395314
 22
-1227.938363510937
 32
0.0
 13
33974.48373395314
 23
-1227.938363510937
 33
0.0
  0
MTEXT
  5
FC5C
330
DA4C
100
AcDbEntity
  8
SUNPOU
100
AcDbMText
 10
34230.48373395314
 20
-1135.938363510937
 30
0.0
 40
120.0
 41
0.0
 71
     5
 72
     1
  1
\A1;12
 73
     1
 44
1.0
  0
POINT
  5
FC5D
330
DA4C
100
AcDbEntity
  8
DEFPOINTS
 62
     0
100
AcDbPoint
 10
33938.48373395314
 20
-606.0648447039584
 30
0.0
  0
POINT
  5
FC5E
330
DA4C
100
AcDbEntity
  8
DEFPOINTS
 62
     0
100
AcDbPoint
 10
33974.48373395314
 20
-621.0648447039584
 30
0.0
  0
POINT
  5
FC5F
330
DA4C
100
AcDbEntity
  8
DEFPOINTS
 62
     0
100
AcDbPoint
 10
33974.48373395314
 20
-1227.938363510937
 30
0.0
  0
ENDBLK
  5
DA59
330
DA4C
100
AcDbEntity
  8
0
100
AcDbBlockEnd
  0
BLOCK
  5
DA66
330
DA5A
100
AcDbEntity
  8
0
100
AcDbBlockBegin
  2
*D11
 70
     1
 10
0.0
 20
0.0
 30
0.0
  3
*D11
  1

  0
LINE
  5
103A3
330
DA5A
100
AcDbEntity
  8
SUNPOU
370
    -2
100
AcDbLine
 10
33998.48373395314
 20
2092.688219002996
 30
0.0
 11
34371.48373395314
 21
2092.688219002996
 31
0.0
  0
LINE
  5
103A4
330
DA5A
100
AcDbEntity
  8
SUNPOU
370
    -2
100
AcDbLine
 10
34028.48373395314
 20
2047.688219002996
 30
0.0
 11
34371.48373395314
 21
2047.688219002995
 31
0.0
  0
LINE
  5
103A5
330
DA5A
100
AcDbEntity
  8
SUNPOU
370
    -2
100
AcDbLine
 10
34347.48373395314
 20
2092.688219002996
 30
0.0
 11
34347.48373395314
 21
2172.688219002996
 31
0.0
  0
LINE
  5
103A6
330
DA5A
100
AcDbEntity
  8
SUNPOU
370
    -2
100
AcDbLine
 10
34347.48373395314
 20
2047.688219002995
 30
0.0
 11
34347.48373395314
 21
1695.688219002995
 31
0.0
  0
LINE
  5
103A7
330
DA5A
100
AcDbEntity
  8
SUNPOU
370
    -2
100
AcDbLine
 10
34347.48373395314
 20
2092.688219002996
 30
0.0
 11
34347.48373395314
 21
2047.688219002995
 31
0.0
  0
INSERT
  5
103A8
330
DA5A
100
AcDbEntity
  8
SUNPOU
370
    -2
100
AcDbBlockReference
  2
_DotSmall
 10
34347.48373395314
 20
2092.688219002996
 30
0.0
 41
80.0
 42
80.0
 43
80.0
 50
270.0
  0
INSERT
  5
103A9
330
DA5A
100
AcDbEntity
  8
SUNPOU
370
    -2
100
AcDbBlockReference
  2
_DotSmall
 10
34347.48373395314
 20
2047.688219002995
 30
0.0
 41
80.0
 42
80.0
 43
80.0
 50
90.0
  0
MTEXT
  5
103AA
330
DA5A
100
AcDbEntity
  8
SUNPOU
100
AcDbMText
 10
34255.48373395314
 20
1791.688219003001
 30
0.0
 40
120.0
 41
0.0
 71
     5
 72
     1
  1
\A1;15
 11
6.123031769111886E-17
 21
1.0
 31
0.0
 73
     1
 44
1.0
  0
POINT
  5
103AB
330
DA5A
100
AcDbEntity
  8
DEFPOINTS
 62
     0
100
AcDbPoint
 10
33938.48373395314
 20
2092.688219002996
 30
0.0
  0
POINT
  5
103AC
330
DA5A
100
AcDbEntity
  8
DEFPOINTS
 62
     0
100
AcDbPoint
 10
33968.48373395314
 20
2047.688219002996
 30
0.0
  0
POINT
  5
103AD
330
DA5A
100
AcDbEntity
  8
DEFPOINTS
 62
     0
100
AcDbPoint
 10
34347.48373395314
 20
2047.688219002995
 30
0.0
  0
ENDBLK
  5
DA67
330
DA5A
100
AcDbEntity
  8
0
100
AcDbBlockEnd
  0
BLOCK
  5
DA74
330
DA68
100
AcDbEntity
  8
0
100
AcDbBlockBegin
  2
*D12
 70
     1
 10
0.0
 20
0.0
 30
0.0
  3
*D12
  1

  0
LINE
  5
10399
330
DA68
100
AcDbEntity
  8
SUNPOU
370
    -2
100
AcDbLine
 10
34007.48373395314
 20
2173.688219002996
 30
0.0
 11
34371.48373395314
 21
2173.688219002996
 31
0.0
  0
LINE
  5
1039A
330
DA68
100
AcDbEntity
  8
SUNPOU
370
    -2
100
AcDbLine
 10
34007.48373395314
 20
2239.688219002996
 30
0.0
 11
34371.48373395314
 21
2239.688219002996
 31
0.0
  0
LINE
  5
1039B
330
DA68
100
AcDbEntity
  8
SUNPOU
370
    -2
100
AcDbLine
 10
34347.48373395314
 20
2173.688219002996
 30
0.0
 11
34347.48373395314
 21
2239.688219002996
 31
0.0
  0
LINE
  5
1039C
330
DA68
100
AcDbEntity
  8
SUNPOU
370
    -2
100
AcDbLine
 10
34347.48373395314
 20
2239.688219002996
 30
0.0
 11
34347.48373395314
 21
2543.688219002998
 31
0.0
  0
INSERT
  5
1039D
330
DA68
100
AcDbEntity
  8
SUNPOU
370
    -2
100
AcDbBlockReference
  2
_DotSmall
 10
34347.48373395314
 20
2173.688219002996
 30
0.0
 41
80.0
 42
80.0
 43
80.0
 50
270.0
  0
INSERT
  5
1039E
330
DA68
100
AcDbEntity
  8
SUNPOU
370
    -2
100
AcDbBlockReference
  2
_DotSmall
 10
34347.48373395314
 20
2239.688219002996
 30
0.0
 41
80.0
 42
80.0
 43
80.0
 50
90.0
  0
MTEXT
  5
1039F
330
DA68
100
AcDbEntity
  8
SUNPOU
100
AcDbMText
 10
34255.48373395314
 20
2431.688219003003
 30
0.0
 40
120.0
 41
0.0
 71
     5
 72
     1
  1
\A1;22
 11
6.123031769111886E-17
 21
1.0
 31
0.0
 73
     1
 44
1.0
  0
POINT
  5
103A0
330
DA68
100
AcDbEntity
  8
DEFPOINTS
 62
     0
100
AcDbPoint
 10
33947.48373395314
 20
2173.688219002996
 30
0.0
  0
POINT
  5
103A1
330
DA68
100
AcDbEntity
  8
DEFPOINTS
 62
     0
100
AcDbPoint
 10
33947.48373395314
 20
2239.688219002996
 30
0.0
  0
POINT
  5
103A2
330
DA68
100
AcDbEntity
  8
DEFPOINTS
 62
     0
100
AcDbPoint
 10
34347.48373395314
 20
2239.688219002996
 30
0.0
  0
ENDBLK
  5
DA75
330
DA68
100
AcDbEntity
  8
0
100
AcDbBlockEnd
  0
BLOCK
  5
DA80
330
DA76
100
AcDbEntity
  8
0
100
AcDbBlockBegin
  2
*D13
 70
     1
 10
0.0
 20
0.0
 30
0.0
  3
*D13
  1

  0
LINE
  5
10390
330
DA76
100
AcDbEntity
  8
SUNPOU
370
    -2
100
AcDbLine
 10
33998.48373395314
 20
2092.688219002996
 30
0.0
 11
34371.48373395314
 21
2092.688219002996
 31
0.0
  0
LINE
  5
10391
330
DA76
100
AcDbEntity
  8
SUNPOU
370
    -2
100
AcDbLine
 10
34007.48373395314
 20
2173.688219002996
 30
0.0
 11
34371.48373395314
 21
2173.688219002996
 31
0.0
  0
LINE
  5
10392
330
DA76
100
AcDbEntity
  8
SUNPOU
370
    -2
100
AcDbLine
 10
34347.48373395314
 20
2092.688219002996
 30
0.0
 11
34347.48373395314
 21
2173.688219002996
 31
0.0
  0
INSERT
  5
10393
330
DA76
100
AcDbEntity
  8
SUNPOU
370
    -2
100
AcDbBlockReference
  2
_DotSmall
 10
34347.48373395314
 20
2092.688219002996
 30
0.0
 41
80.0
 42
80.0
 43
80.0
 50
270.0
  0
INSERT
  5
10394
330
DA76
100
AcDbEntity
  8
SUNPOU
370
    -2
100
AcDbBlockReference
  2
_DotSmall
 10
34347.48373395314
 20
2173.688219002996
 30
0.0
 41
80.0
 42
80.0
 43
80.0
 50
90.0
  0
MTEXT
  5
10395
330
DA76
100
AcDbEntity
  8
SUNPOU
100
AcDbMText
 10
34255.48373395314
 20
2133.188219003001
 30
0.0
 40
120.0
 41
0.0
 71
     5
 72
     1
  1
\A1;27
 11
6.123031769111886E-17
 21
1.0
 31
0.0
 73
     1
 44
1.0
  0
POINT
  5
10396
330
DA76
100
AcDbEntity
  8
DEFPOINTS
 62
     0
100
AcDbPoint
 10
33938.48373395314
 20
2092.688219002996
 30
0.0
  0
POINT
  5
10397
330
DA76
100
AcDbEntity
  8
DEFPOINTS
 62
     0
100
AcDbPoint
 10
33947.48373395314
 20
2173.688219002996
 30
0.0
  0
POINT
  5
10398
330
DA76
100
AcDbEntity
  8
DEFPOINTS
 62
     0
100
AcDbPoint
 10
34347.48373395314
 20
2173.688219002996
 30
0.0
  0
ENDBLK
  5
DA81
330
DA76
100
AcDbEntity
  8
0
100
AcDbBlockEnd
  0
BLOCK
  5
DA8E
330
DA82
100
AcDbEntity
  8
0
100
AcDbBlockBegin
  2
*D14
 70
     1
 10
0.0
 20
0.0
 30
0.0
  3
*D14
  1

  0
LINE
  5
1031E
330
DA82
100
AcDbEntity
  8
SUNPOU
370
    -2
100
AcDbLine
 10
33998.48373395314
 20
2602.688219002996
 30
0.0
 11
35004.82245130723
 21
2602.688219002996
 31
0.0
  0
LINE
  5
1031F
330
DA82
100
AcDbEntity
  8
SUNPOU
370
    -2
100
AcDbLine
 10
33758.48373395314
 20
2662.688219002996
 30
0.0
 11
35004.82245130723
 21
2662.688219002995
 31
0.0
  0
LINE
  5
10320
330
DA82
100
AcDbEntity
  8
SUNPOU
370
    -2
100
AcDbLine
 10
34980.82245130723
 20
2522.688219002996
 30
0.0
 11
34980.82245130723
 21
2442.688219002996
 31
0.0
  0
LINE
  5
10321
330
DA82
100
AcDbEntity
  8
SUNPOU
370
    -2
100
AcDbLine
 10
34980.82245130723
 20
2742.688219002995
 30
0.0
 11
34980.82245130723
 21
2822.688219002995
 31
0.0
  0
LINE
  5
10322
330
DA82
100
AcDbEntity
  8
SUNPOU
370
    -2
100
AcDbLine
 10
34980.82245130723
 20
2602.688219002996
 30
0.0
 11
34980.82245130723
 21
2662.688219002995
 31
0.0
  0
SOLID
  5
10323
330
DA82
100
AcDbEntity
  8
SUNPOU
100
AcDbTrace
 10
34967.48911797389
 20
2522.688219002996
 30
0.0
 11
34994.15578464056
 21
2522.688219002996
 31
0.0
 12
34980.82245130723
 22
2602.688219002996
 32
0.0
 13
34980.82245130723
 23
2602.688219002996
 33
0.0
  0
SOLID
  5
10324
330
DA82
100
AcDbEntity
  8
SUNPOU
100
AcDbTrace
 10
34967.48911797389
 20
2742.688219002995
 30
0.0
 11
34994.15578464056
 21
2742.688219002995
 31
0.0
 12
34980.82245130723
 22
2662.688219002995
 32
0.0
 13
34980.82245130723
 23
2662.688219002995
 33
0.0
  0
MTEXT
  5
10325
330
DA82
100
AcDbEntity
  8
SUNPOU
100
AcDbMText
 10
34888.82245130723
 20
2632.688219003001
 30
0.0
 40
120.0
 41
0.0
 71
     5
 72
     1
  1
\A1;20
 11
6.123031769111886E-17
 21
1.0
 31
0.0
 73
     1
 44
1.0
  0
POINT
  5
10326
330
DA82
100
AcDbEntity
  8
DEFPOINTS
 62
     0
100
AcDbPoint
 10
33938.48373395314
 20
2602.688219002996
 30
0.0
  0
POINT
  5
10327
330
DA82
100
AcDbEntity
  8
DEFPOINTS
 62
     0
100
AcDbPoint
 10
33698.48373395314
 20
2662.688219002996
 30
0.0
  0
POINT
  5
10328
330
DA82
100
AcDbEntity
  8
DEFPOINTS
 62
     0
100
AcDbPoint
 10
34980.82245130723
 20
2662.688219002995
 30
0.0
  0
ENDBLK
  5
DA8F
330
DA82
100
AcDbEntity
  8
0
100
AcDbBlockEnd
  0
BLOCK
  5
DA9C
330
DA90
100
AcDbEntity
  8
0
100
AcDbBlockBegin
  2
*D15
 70
     1
 10
0.0
 20
0.0
 30
0.0
  3
*D15
  1

  0
LINE
  5
FC04
330
DA90
100
AcDbEntity
  8
SUNPOU
370
    -2
100
AcDbLine
 10
33938.48373395314
 20
-111.0648447039584
 30
0.0
 11
33938.48373395314
 21
642.7904743593053
 31
0.0
  0
LINE
  5
FC05
330
DA90
100
AcDbEntity
  8
SUNPOU
370
    -2
100
AcDbLine
 10
33947.48373395314
 20
-399.0648447039584
 30
0.0
 11
33947.48373395314
 21
642.7904743593053
 31
0.0
  0
LINE
  5
FC06
330
DA90
100
AcDbEntity
  8
SUNPOU
370
    -2
100
AcDbLine
 10
33858.48373395314
 20
618.7904743593053
 30
0.0
 11
33778.48373395314
 21
618.7904743593053
 31
0.0
  0
LINE
  5
FC07
330
DA90
100
AcDbEntity
  8
SUNPOU
370
    -2
100
AcDbLine
 10
34027.48373395314
 20
618.7904743593053
 30
0.0
 11
34235.48373395314
 21
618.7904743593053
 31
0.0
  0
LINE
  5
FC08
330
DA90
100
AcDbEntity
  8
SUNPOU
370
    -2
100
AcDbLine
 10
33938.48373395314
 20
618.7904743593053
 30
0.0
 11
33947.48373395314
 21
618.7904743593053
 31
0.0
  0
SOLID
  5
FC09
330
DA90
100
AcDbEntity
  8
SUNPOU
100
AcDbTrace
 10
33858.48373395314
 20
632.1238076926387
 30
0.0
 11
33858.48373395314
 21
605.457141025972
 31
0.0
 12
33938.48373395314
 22
618.7904743593053
 32
0.0
 13
33938.48373395314
 23
618.7904743593053
 33
0.0
  0
SOLID
  5
FC0A
330
DA90
100
AcDbEntity
  8
SUNPOU
100
AcDbTrace
 10
34027.48373395314
 20
632.1238076926387
 30
0.0
 11
34027.48373395314
 21
605.457141025972
 31
0.0
 12
33947.48373395314
 22
618.7904743593053
 32
0.0
 13
33947.48373395314
 23
618.7904743593053
 33
0.0
  0
MTEXT
  5
FC0B
330
DA90
100
AcDbEntity
  8
SUNPOU
100
AcDbMText
 10
34171.48373395314
 20
710.7904743593053
 30
0.0
 40
120.0
 41
0.0
 71
     5
 72
     1
  1
\A1;3
 73
     1
 44
1.0
  0
POINT
  5
FC0C
330
DA90
100
AcDbEntity
  8
DEFPOINTS
 62
     0
100
AcDbPoint
 10
33938.48373395314
 20
-171.0648447039584
 30
0.0
  0
POINT
  5
FC0D
330
DA90
100
AcDbEntity
  8
DEFPOINTS
 62
     0
100
AcDbPoint
 10
33947.48373395314
 20
-459.0648447039584
 30
0.0
  0
POINT
  5
FC0E
330
DA90
100
AcDbEntity
  8
DEFPOINTS
 62
     0
100
AcDbPoint
 10
33947.48373395314
 20
618.7904743593053
 30
0.0
  0
ENDBLK
  5
DA9D
330
DA90
100
AcDbEntity
  8
0
100
AcDbBlockEnd
  0
BLOCK
  5
DAA8
330
DA9E
100
AcDbEntity
  8
0
100
AcDbBlockBegin
  2
*D16
 70
     1
 10
0.0
 20
0.0
 30
0.0
  3
*D16
  1

  0
LINE
  5
10347
330
DA9E
100
AcDbEntity
  8
SUNPOU
370
    -2
100
AcDbLine
 10
32641.65523790706
 20
338.9351552960425
 30
0.0
 11
32397.76694245159
 21
338.9351552960425
 31
0.0
  0
LINE
  5
10348
330
DA9E
100
AcDbEntity
  8
SUNPOU
370
    -2
100
AcDbLine
 10
33401.65523790707
 20
-141.0648447039584
 30
0.0
 11
32397.76694245159
 21
-141.0648447039582
 31
0.0
  0
LINE
  5
10349
330
DA9E
100
AcDbEntity
  8
SUNPOU
370
    -2
100
AcDbLine
 10
32421.76694245159
 20
258.9351552960425
 30
0.0
 11
32421.76694245159
 21
-61.06484470395817
 31
0.0
  0
SOLID
  5
1034A
330
DA9E
100
AcDbEntity
  8
SUNPOU
100
AcDbTrace
 10
32408.43360911826
 20
258.9351552960425
 30
0.0
 11
32435.10027578492
 21
258.9351552960425
 31
0.0
 12
32421.76694245159
 22
338.9351552960425
 32
0.0
 13
32421.76694245159
 23
338.9351552960425
 33
0.0
  0
SOLID
  5
1034B
330
DA9E
100
AcDbEntity
  8
SUNPOU
100
AcDbTrace
 10
32408.43360911826
 20
-61.06484470395817
 30
0.0
 11
32435.10027578492
 21
-61.06484470395817
 31
0.0
 12
32421.76694245159
 22
-141.0648447039582
 32
0.0
 13
32421.76694245159
 23
-141.0648447039582
 33
0.0
  0
MTEXT
  5
1034C
330
DA9E
100
AcDbEntity
  8
SUNPOU
100
AcDbMText
 10
32329.76694245159
 20
98.93515529604741
 30
0.0
 40
120.0
 41
0.0
 71
     5
 72
     1
  1
\A1;160
 11
6.123031769111886E-17
 21
1.0
 31
0.0
 73
     1
 44
1.0
  0
POINT
  5
1034D
330
DA9E
100
AcDbEntity
  8
DEFPOINTS
 62
     0
100
AcDbPoint
 10
32701.65523790706
 20
338.9351552960425
 30
0.0
  0
POINT
  5
1034E
330
DA9E
100
AcDbEntity
  8
DEFPOINTS
 62
     0
100
AcDbPoint
 10
33461.65523790707
 20
-141.0648447039584
 30
0.0
  0
POINT
  5
1034F
330
DA9E
100
AcDbEntity
  8
DEFPOINTS
 62
     0
100
AcDbPoint
 10
32421.76694245159
 20
-141.0648447039582
 30
0.0
  0
ENDBLK
  5
DAA9
330
DA9E
100
AcDbEntity
  8
0
100
AcDbBlockEnd
  0
BLOCK
  5
DAB6
330
DAAA
100
AcDbEntity
  8
0
100
AcDbBlockBegin
  2
*D17
 70
     1
 10
0.0
 20
0.0
 30
0.0
  3
*D17
  1

  0
LINE
  5
1033C
330
DAAA
100
AcDbEntity
  8
SUNPOU
370
    -2
100
AcDbLine
 10
33401.65523790707
 20
-141.0648447039584
 30
0.0
 11
32397.76694245159
 21
-141.0648447039582
 31
0.0
  0
LINE
  5
1033D
330
DAAA
100
AcDbEntity
  8
SUNPOU
370
    -2
100
AcDbLine
 10
33641.65523790707
 20
-201.0648447039584
 30
0.0
 11
32397.76694245159
 21
-201.0648447039581
 31
0.0
  0
LINE
  5
1033E
330
DAAA
100
AcDbEntity
  8
SUNPOU
370
    -2
100
AcDbLine
 10
32421.76694245159
 20
-61.06484470395817
 30
0.0
 11
32421.76694245159
 21
18.93515529604183
 31
0.0
  0
LINE
  5
1033F
330
DAAA
100
AcDbEntity
  8
SUNPOU
370
    -2
100
AcDbLine
 10
32421.76694245159
 20
-281.0648447039581
 30
0.0
 11
32421.76694245159
 21
-361.0648447039581
 31
0.0
  0
LINE
  5
10340
330
DAAA
100
AcDbEntity
  8
SUNPOU
370
    -2
100
AcDbLine
 10
32421.76694245159
 20
-141.0648447039582
 30
0.0
 11
32421.76694245159
 21
-201.0648447039581
 31
0.0
  0
SOLID
  5
10341
330
DAAA
100
AcDbEntity
  8
SUNPOU
100
AcDbTrace
 10
32408.43360911826
 20
-61.06484470395817
 30
0.0
 11
32435.10027578492
 21
-61.06484470395817
 31
0.0
 12
32421.76694245159
 22
-141.0648447039582
 32
0.0
 13
32421.76694245159
 23
-141.0648447039582
 33
0.0
  0
SOLID
  5
10342
330
DAAA
100
AcDbEntity
  8
SUNPOU
100
AcDbTrace
 10
32408.43360911826
 20
-281.0648447039581
 30
0.0
 11
32435.10027578492
 21
-281.0648447039581
 31
0.0
 12
32421.76694245159
 22
-201.0648447039581
 32
0.0
 13
32421.76694245159
 23
-201.0648447039581
 33
0.0
  0
MTEXT
  5
10343
330
DAAA
100
AcDbEntity
  8
SUNPOU
100
AcDbMText
 10
32329.76694245159
 20
-171.0648447039529
 30
0.0
 40
120.0
 41
0.0
 71
     5
 72
     1
  1
\A1;20
 11
6.123031769111886E-17
 21
1.0
 31
0.0
 73
     1
 44
1.0
  0
POINT
  5
10344
330
DAAA
100
AcDbEntity
  8
DEFPOINTS
 62
     0
100
AcDbPoint
 10
33461.65523790707
 20
-141.0648447039584
 30
0.0
  0
POINT
  5
10345
330
DAAA
100
AcDbEntity
  8
DEFPOINTS
 62
     0
100
AcDbPoint
 10
33701.65523790707
 20
-201.0648447039584
 30
0.0
  0
POINT
  5
10346
330
DAAA
100
AcDbEntity
  8
DEFPOINTS
 62
     0
100
AcDbPoint
 10
32421.76694245159
 20
-201.0648447039581
 30
0.0
  0
ENDBLK
  5
DAB7
330
DAAA
100
AcDbEntity
  8
0
100
AcDbBlockEnd
  0
BLOCK
  5
DAC4
330
DAB8
100
AcDbEntity
  8
0
100
AcDbBlockBegin
  2
*D18
 70
     1
 10
0.0
 20
0.0
 30
0.0
  3
*D18
  1

  0
LINE
  5
10363
330
DAB8
100
AcDbEntity
  8
SUNPOU
370
    -2
100
AcDbLine
 10
33998.48373395314
 20
-171.0648447039585
 30
0.0
 11
35005.65523790707
 21
-171.0648447039587
 31
0.0
  0
LINE
  5
10364
330
DAB8
100
AcDbEntity
  8
SUNPOU
370
    -2
100
AcDbLine
 10
33758.48373395314
 20
-111.0648447039584
 30
0.0
 11
35005.65523790707
 21
-111.0648447039588
 31
0.0
  0
LINE
  5
10365
330
DAB8
100
AcDbEntity
  8
SUNPOU
370
    -2
100
AcDbLine
 10
34981.65523790707
 20
-251.0648447039587
 30
0.0
 11
34981.65523790707
 21
-331.0648447039587
 31
0.0
  0
LINE
  5
10366
330
DAB8
100
AcDbEntity
  8
SUNPOU
370
    -2
100
AcDbLine
 10
34981.65523790707
 20
-31.0648447039588
 30
0.0
 11
34981.65523790707
 21
48.9351552960412
 31
0.0
  0
LINE
  5
10367
330
DAB8
100
AcDbEntity
  8
SUNPOU
370
    -2
100
AcDbLine
 10
34981.65523790707
 20
-171.0648447039587
 30
0.0
 11
34981.65523790707
 21
-111.0648447039588
 31
0.0
  0
SOLID
  5
10368
330
DAB8
100
AcDbEntity
  8
SUNPOU
100
AcDbTrace
 10
34968.32190457374
 20
-251.0648447039587
 30
0.0
 11
34994.98857124041
 21
-251.0648447039587
 31
0.0
 12
34981.65523790707
 22
-171.0648447039587
 32
0.0
 13
34981.65523790707
 23
-171.0648447039587
 33
0.0
  0
SOLID
  5
10369
330
DAB8
100
AcDbEntity
  8
SUNPOU
100
AcDbTrace
 10
34968.32190457374
 20
-31.0648447039588
 30
0.0
 11
34994.98857124041
 21
-31.06484470395881
 31
0.0
 12
34981.65523790707
 22
-111.0648447039588
 32
0.0
 13
34981.65523790707
 23
-111.0648447039588
 33
0.0
  0
MTEXT
  5
1036A
330
DAB8
100
AcDbEntity
  8
SUNPOU
100
AcDbMText
 10
34889.65523790707
 20
-141.0648447039531
 30
0.0
 40
120.0
 41
0.0
 71
     5
 72
     1
  1
\A1;20
 11
6.123031769111886E-17
 21
1.0
 31
0.0
 73
     1
 44
1.0
  0
POINT
  5
1036B
330
DAB8
100
AcDbEntity
  8
DEFPOINTS
 62
     0
100
AcDbPoint
 10
33938.48373395314
 20
-171.0648447039584
 30
0.0
  0
POINT
  5
1036C
330
DAB8
100
AcDbEntity
  8
DEFPOINTS
 62
     0
100
AcDbPoint
 10
33698.48373395314
 20
-111.0648447039584
 30
0.0
  0
POINT
  5
1036D
330
DAB8
100
AcDbEntity
  8
DEFPOINTS
 62
     0
100
AcDbPoint
 10
34981.65523790707
 20
-111.0648447039588
 30
0.0
  0
ENDBLK
  5
DAC5
330
DAB8
100
AcDbEntity
  8
0
100
AcDbBlockEnd
  0
BLOCK
  5
DAD0
330
DAC6
100
AcDbEntity
  8
0
100
AcDbBlockBegin
  2
*D19
 70
     1
 10
0.0
 20
0.0
 30
0.0
  3
*D19
  1

  0
LINE
  5
FBFB
330
DAC6
100
AcDbEntity
  8
SUNPOU
370
    -2
100
AcDbLine
 10
33938.48373395314
 20
-111.0648447039584
 30
0.0
 11
33938.48373395314
 21
922.6457934225691
 31
0.0
  0
LINE
  5
FBFC
330
DAC6
100
AcDbEntity
  8
SUNPOU
370
    -2
100
AcDbLine
 10
33698.48373395314
 20
398.9351552960425
 30
0.0
 11
33698.48373395314
 21
922.6457934225691
 31
0.0
  0
LINE
  5
FBFD
330
DAC6
100
AcDbEntity
  8
SUNPOU
370
    -2
100
AcDbLine
 10
33858.48373395314
 20
898.6457934225691
 30
0.0
 11
33778.48373395314
 21
898.6457934225691
 31
0.0
  0
SOLID
  5
FBFE
330
DAC6
100
AcDbEntity
  8
SUNPOU
100
AcDbTrace
 10
33858.48373395314
 20
911.9791267559025
 30
0.0
 11
33858.48373395314
 21
885.3124600892357
 31
0.0
 12
33938.48373395314
 22
898.6457934225691
 32
0.0
 13
33938.48373395314
 23
898.6457934225691
 33
0.0
  0
SOLID
  5
FBFF
330
DAC6
100
AcDbEntity
  8
SUNPOU
100
AcDbTrace
 10
33778.48373395314
 20
911.9791267559025
 30
0.0
 11
33778.48373395314
 21
885.3124600892357
 31
0.0
 12
33698.48373395314
 22
898.6457934225691
 32
0.0
 13
33698.48373395314
 23
898.6457934225691
 33
0.0
  0
MTEXT
  5
FC00
330
DAC6
100
AcDbEntity
  8
SUNPOU
100
AcDbMText
 10
33818.48373395314
 20
990.6457934225691
 30
0.0
 40
120.0
 41
0.0
 71
     5
 72
     1
  1
\A1;80
 73
     1
 44
1.0
  0
POINT
  5
FC01
330
DAC6
100
AcDbEntity
  8
DEFPOINTS
 62
     0
100
AcDbPoint
 10
33938.48373395314
 20
-171.0648447039584
 30
0.0
  0
POINT
  5
FC02
330
DAC6
100
AcDbEntity
  8
DEFPOINTS
 62
     0
100
AcDbPoint
 10
33698.48373395314
 20
338.9351552960425
 30
0.0
  0
POINT
  5
FC03
330
DAC6
100
AcDbEntity
  8
DEFPOINTS
 62
     0
100
AcDbPoint
 10
33698.48373395314
 20
898.6457934225691
 30
0.0
  0
ENDBLK
  5
DAD1
330
DAC6
100
AcDbEntity
  8
0
100
AcDbBlockEnd
  0
BLOCK
  5
DADC
330
DAD2
100
AcDbEntity
  8
0
100
AcDbBlockBegin
  2
*D20
 70
     1
 10
0.0
 20
0.0
 30
0.0
  3
*D20
  1

  0
LINE
  5
1035A
330
DAD2
100
AcDbEntity
  8
SUNPOU
370
    -2
100
AcDbLine
 10
33758.48373395314
 20
-111.0648447039584
 30
0.0
 11
35005.65523790707
 21
-111.0648447039588
 31
0.0
  0
LINE
  5
1035B
330
DAD2
100
AcDbEntity
  8
SUNPOU
370
    -2
100
AcDbLine
 10
34761.65523790707
 20
338.9351552960416
 30
0.0
 11
35005.65523790707
 21
338.9351552960415
 31
0.0
  0
LINE
  5
1035C
330
DAD2
100
AcDbEntity
  8
SUNPOU
370
    -2
100
AcDbLine
 10
34981.65523790707
 20
-31.0648447039588
 30
0.0
 11
34981.65523790707
 21
258.9351552960415
 31
0.0
  0
SOLID
  5
1035D
330
DAD2
100
AcDbEntity
  8
SUNPOU
100
AcDbTrace
 10
34968.32190457374
 20
-31.0648447039588
 30
0.0
 11
34994.98857124041
 21
-31.06484470395881
 31
0.0
 12
34981.65523790707
 22
-111.0648447039588
 32
0.0
 13
34981.65523790707
 23
-111.0648447039588
 33
0.0
  0
SOLID
  5
1035E
330
DAD2
100
AcDbEntity
  8
SUNPOU
100
AcDbTrace
 10
34968.32190457374
 20
258.9351552960415
 30
0.0
 11
34994.98857124041
 21
258.9351552960415
 31
0.0
 12
34981.65523790707
 22
338.9351552960415
 32
0.0
 13
34981.65523790707
 23
338.9351552960415
 33
0.0
  0
MTEXT
  5
1035F
330
DAD2
100
AcDbEntity
  8
SUNPOU
100
AcDbMText
 10
34889.65523790707
 20
113.935155296047
 30
0.0
 40
120.0
 41
0.0
 71
     5
 72
     1
  1
\A1;150
 11
6.123031769111886E-17
 21
1.0
 31
0.0
 73
     1
 44
1.0
  0
POINT
  5
10360
330
DAD2
100
AcDbEntity
  8
DEFPOINTS
 62
     0
100
AcDbPoint
 10
33698.48373395314
 20
-111.0648447039584
 30
0.0
  0
POINT
  5
10361
330
DAD2
100
AcDbEntity
  8
DEFPOINTS
 62
     0
100
AcDbPoint
 10
34701.65523790707
 20
338.9351552960416
 30
0.0
  0
POINT
  5
10362
330
DAD2
100
AcDbEntity
  8
DEFPOINTS
 62
     0
100
AcDbPoint
 10
34981.65523790707
 20
338.9351552960415
 30
0.0
  0
ENDBLK
  5
DADD
330
DAD2
100
AcDbEntity
  8
0
100
AcDbBlockEnd
  0
BLOCK
  5
DAE8
330
DADE
100
AcDbEntity
  8
0
100
AcDbBlockBegin
  2
*D21
 70
     1
 10
0.0
 20
0.0
 30
0.0
  3
*D21
  1

  0
LINE
  5
FC60
330
DADE
100
AcDbEntity
  8
SUNPOU
370
    -2
100
AcDbLine
 10
33461.65523790707
 20
-201.0648447039584
 30
0.0
 11
33461.65523790707
 21
-955.0648447039584
 31
0.0
  0
LINE
  5
FC61
330
DADE
100
AcDbEntity
  8
SUNPOU
370
    -2
100
AcDbLine
 10
33701.65523790707
 20
-711.0648447039584
 30
0.0
 11
33701.65523790707
 21
-955.0648447039584
 31
0.0
  0
LINE
  5
FC62
330
DADE
100
AcDbEntity
  8
SUNPOU
370
    -2
100
AcDbLine
 10
33541.65523790707
 20
-931.0648447039584
 30
0.0
 11
33621.65523790707
 21
-931.0648447039584
 31
0.0
  0
SOLID
  5
FC63
330
DADE
100
AcDbEntity
  8
SUNPOU
100
AcDbTrace
 10
33541.65523790707
 20
-917.7315113706251
 30
0.0
 11
33541.65523790707
 21
-944.3981780372918
 31
0.0
 12
33461.65523790707
 22
-931.0648447039584
 32
0.0
 13
33461.65523790707
 23
-931.0648447039584
 33
0.0
  0
SOLID
  5
FC64
330
DADE
100
AcDbEntity
  8
SUNPOU
100
AcDbTrace
 10
33621.65523790707
 20
-917.7315113706251
 30
0.0
 11
33621.65523790707
 21
-944.3981780372918
 31
0.0
 12
33701.65523790707
 22
-931.0648447039584
 32
0.0
 13
33701.65523790707
 23
-931.0648447039584
 33
0.0
  0
MTEXT
  5
FC65
330
DADE
100
AcDbEntity
  8
SUNPOU
100
AcDbMText
 10
33581.65523790707
 20
-839.0648447039584
 30
0.0
 40
120.0
 41
0.0
 71
     5
 72
     1
  1
\A1;80
 73
     1
 44
1.0
  0
POINT
  5
FC66
330
DADE
100
AcDbEntity
  8
DEFPOINTS
 62
     0
100
AcDbPoint
 10
33461.65523790707
 20
-141.0648447039584
 30
0.0
  0
POINT
  5
FC67
330
DADE
100
AcDbEntity
  8
DEFPOINTS
 62
     0
100
AcDbPoint
 10
33701.65523790707
 20
-651.0648447039584
 30
0.0
  0
POINT
  5
FC68
330
DADE
100
AcDbEntity
  8
DEFPOINTS
 62
     0
100
AcDbPoint
 10
33701.65523790707
 20
-931.0648447039584
 30
0.0
  0
ENDBLK
  5
DAE9
330
DADE
100
AcDbEntity
  8
0
100
AcDbBlockEnd
  0
BLOCK
  5
DAF4
330
DAEA
100
AcDbEntity
  8
0
100
AcDbBlockBegin
  2
*D22
 70
     1
 10
0.0
 20
0.0
 30
0.0
  3
*D22
  1

  0
LINE
  5
10333
330
DAEA
100
AcDbEntity
  8
SUNPOU
370
    -2
100
AcDbLine
 10
32641.65523790706
 20
338.9351552960425
 30
0.0
 11
32117.79991884381
 21
338.9351552960427
 31
0.0
  0
LINE
  5
10334
330
DAEA
100
AcDbEntity
  8
SUNPOU
370
    -2
100
AcDbLine
 10
32641.65523790706
 20
-651.0648447039584
 30
0.0
 11
32117.79991884381
 21
-651.0648447039583
 31
0.0
  0
LINE
  5
10335
330
DAEA
100
AcDbEntity
  8
SUNPOU
370
    -2
100
AcDbLine
 10
32141.79991884381
 20
258.9351552960426
 30
0.0
 11
32141.79991884381
 21
-571.0648447039583
 31
0.0
  0
SOLID
  5
10336
330
DAEA
100
AcDbEntity
  8
SUNPOU
100
AcDbTrace
 10
32128.46658551048
 20
258.9351552960426
 30
0.0
 11
32155.13325217714
 21
258.9351552960426
 31
0.0
 12
32141.79991884381
 22
338.9351552960426
 32
0.0
 13
32141.79991884381
 23
338.9351552960426
 33
0.0
  0
SOLID
  5
10337
330
DAEA
100
AcDbEntity
  8
SUNPOU
100
AcDbTrace
 10
32128.46658551048
 20
-571.0648447039583
 30
0.0
 11
32155.13325217714
 21
-571.0648447039583
 31
0.0
 12
32141.79991884381
 22
-651.0648447039583
 32
0.0
 13
32141.79991884381
 23
-651.0648447039583
 33
0.0
  0
MTEXT
  5
10338
330
DAEA
100
AcDbEntity
  8
SUNPOU
100
AcDbMText
 10
32049.79991884381
 20
-156.0648447039526
 30
0.0
 40
120.0
 41
0.0
 71
     5
 72
     1
  1
\A1;330
 11
6.123031769111886E-17
 21
1.0
 31
0.0
 73
     1
 44
1.0
  0
POINT
  5
10339
330
DAEA
100
AcDbEntity
  8
DEFPOINTS
 62
     0
100
AcDbPoint
 10
32701.65523790706
 20
338.9351552960425
 30
0.0
  0
POINT
  5
1033A
330
DAEA
100
AcDbEntity
  8
DEFPOINTS
 62
     0
100
AcDbPoint
 10
32701.65523790706
 20
-651.0648447039584
 30
0.0
  0
POINT
  5
1033B
330
DAEA
100
AcDbEntity
  8
DEFPOINTS
 62
     0
100
AcDbPoint
 10
32141.79991884381
 20
-651.0648447039583
 30
0.0
  0
ENDBLK
  5
DAF5
330
DAEA
100
AcDbEntity
  8
0
100
AcDbBlockEnd
  0
BLOCK
  5
DB00
330
DAF6
100
AcDbEntity
  8
0
100
AcDbBlockBegin
  2
*D23
 70
     1
 10
0.0
 20
0.0
 30
0.0
  3
*D23
  1

  0
LINE
  5
1032A
330
DAF6
100
AcDbEntity
  8
SUNPOU
370
    -2
100
AcDbLine
 10
33641.65523790707
 20
-201.0648447039584
 30
0.0
 11
32397.76694245159
 21
-201.0648447039581
 31
0.0
  0
LINE
  5
1032B
330
DAF6
100
AcDbEntity
  8
SUNPOU
370
    -2
100
AcDbLine
 10
32641.65523790707
 20
-651.0648447039584
 30
0.0
 11
32397.76694245159
 21
-651.0648447039583
 31
0.0
  0
LINE
  5
1032C
330
DAF6
100
AcDbEntity
  8
SUNPOU
370
    -2
100
AcDbLine
 10
32421.76694245159
 20
-281.0648447039581
 30
0.0
 11
32421.76694245159
 21
-571.0648447039583
 31
0.0
  0
SOLID
  5
1032D
330
DAF6
100
AcDbEntity
  8
SUNPOU
100
AcDbTrace
 10
32408.43360911826
 20
-281.0648447039581
 30
0.0
 11
32435.10027578492
 21
-281.0648447039581
 31
0.0
 12
32421.76694245159
 22
-201.0648447039581
 32
0.0
 13
32421.76694245159
 23
-201.0648447039581
 33
0.0
  0
SOLID
  5
1032E
330
DAF6
100
AcDbEntity
  8
SUNPOU
100
AcDbTrace
 10
32408.43360911826
 20
-571.0648447039583
 30
0.0
 11
32435.10027578492
 21
-571.0648447039583
 31
0.0
 12
32421.76694245159
 22
-651.0648447039583
 32
0.0
 13
32421.76694245159
 23
-651.0648447039583
 33
0.0
  0
MTEXT
  5
1032F
330
DAF6
100
AcDbEntity
  8
SUNPOU
100
AcDbMText
 10
32329.76694245159
 20
-426.064844703953
 30
0.0
 40
120.0
 41
0.0
 71
     5
 72
     1
  1
\A1;150
 11
6.123031769111886E-17
 21
1.0
 31
0.0
 73
     1
 44
1.0
  0
POINT
  5
10330
330
DAF6
100
AcDbEntity
  8
DEFPOINTS
 62
     0
100
AcDbPoint
 10
33701.65523790707
 20
-201.0648447039584
 30
0.0
  0
POINT
  5
10331
330
DAF6
100
AcDbEntity
  8
DEFPOINTS
 62
     0
100
AcDbPoint
 10
32701.65523790707
 20
-651.0648447039584
 30
0.0
  0
POINT
  5
10332
330
DAF6
100
AcDbEntity
  8
DEFPOINTS
 62
     0
100
AcDbPoint
 10
32421.76694245159
 20
-651.0648447039583
 30
0.0
  0
ENDBLK
  5
DB01
330
DAF6
100
AcDbEntity
  8
0
100
AcDbBlockEnd
  0
BLOCK
  5
DB0E
330
DB02
100
AcDbEntity
  8
0
100
AcDbBlockBegin
  2
*D24
 70
     1
 10
0.0
 20
0.0
 30
0.0
  3
*D24
  1

  0
LINE
  5
10386
330
DB02
100
AcDbEntity
  8
SUNPOU
370
    -2
100
AcDbLine
 10
34007.48373395314
 20
-525.0648447039584
 30
0.0
 11
34371.48373395314
 21
-525.0648447039586
 31
0.0
  0
LINE
  5
10387
330
DB02
100
AcDbEntity
  8
SUNPOU
370
    -2
100
AcDbLine
 10
34007.48373395314
 20
-459.0648447039584
 30
0.0
 11
34371.48373395314
 21
-459.0648447039585
 31
0.0
  0
LINE
  5
10388
330
DB02
100
AcDbEntity
  8
SUNPOU
370
    -2
100
AcDbLine
 10
34347.48373395314
 20
-525.0648447039586
 30
0.0
 11
34347.48373395314
 21
-459.0648447039585
 31
0.0
  0
LINE
  5
10389
330
DB02
100
AcDbEntity
  8
SUNPOU
370
    -2
100
AcDbLine
 10
34347.48373395314
 20
-459.0648447039585
 30
0.0
 11
34347.48373395314
 21
-155.0648447039585
 31
0.0
  0
INSERT
  5
1038A
330
DB02
100
AcDbEntity
  8
SUNPOU
370
    -2
100
AcDbBlockReference
  2
_DotSmall
 10
34347.48373395314
 20
-525.0648447039586
 30
0.0
 41
80.0
 42
80.0
 43
80.0
 50
270.0
  0
INSERT
  5
1038B
330
DB02
100
AcDbEntity
  8
SUNPOU
370
    -2
100
AcDbBlockReference
  2
_DotSmall
 10
34347.48373395314
 20
-459.0648447039585
 30
0.0
 41
80.0
 42
80.0
 43
80.0
 50
90.0
  0
MTEXT
  5
1038C
330
DB02
100
AcDbEntity
  8
SUNPOU
100
AcDbMText
 10
34255.48373395314
 20
-267.064844703953
 30
0.0
 40
120.0
 41
0.0
 71
     5
 72
     1
  1
\A1;22
 11
6.123031769111886E-17
 21
1.0
 31
0.0
 73
     1
 44
1.0
  0
POINT
  5
1038D
330
DB02
100
AcDbEntity
  8
DEFPOINTS
 62
     0
100
AcDbPoint
 10
33947.48373395314
 20
-525.0648447039584
 30
0.0
  0
POINT
  5
1038E
330
DB02
100
AcDbEntity
  8
DEFPOINTS
 62
     0
100
AcDbPoint
 10
33947.48373395314
 20
-459.0648447039584
 30
0.0
  0
POINT
  5
1038F
330
DB02
100
AcDbEntity
  8
DEFPOINTS
 62
     0
100
AcDbPoint
 10
34347.48373395314
 20
-459.0648447039585
 30
0.0
  0
ENDBLK
  5
DB0F
330
DB02
100
AcDbEntity
  8
0
100
AcDbBlockEnd
  0
BLOCK
  5
DB1C
330
DB10
100
AcDbEntity
  8
0
100
AcDbBlockBegin
  2
*D25
 70
     1
 10
0.0
 20
0.0
 30
0.0
  3
*D25
  1

  0
LINE
  5
1037B
330
DB10
100
AcDbEntity
  8
SUNPOU
370
    -2
100
AcDbLine
 10
33998.48373395314
 20
-606.0648447039584
 30
0.0
 11
34371.48373395314
 21
-606.0648447039586
 31
0.0
  0
LINE
  5
1037C
330
DB10
100
AcDbEntity
  8
SUNPOU
370
    -2
100
AcDbLine
 10
34007.48373395314
 20
-525.0648447039584
 30
0.0
 11
34371.48373395314
 21
-525.0648447039586
 31
0.0
  0
LINE
  5
1037D
330
DB10
100
AcDbEntity
  8
SUNPOU
370
    -2
100
AcDbLine
 10
34347.48373395314
 20
-606.0648447039586
 30
0.0
 11
34347.48373395314
 21
-686.0648447039586
 31
0.0
  0
LINE
  5
1037E
330
DB10
100
AcDbEntity
  8
SUNPOU
370
    -2
100
AcDbLine
 10
34347.48373395314
 20
-525.0648447039586
 30
0.0
 11
34347.48373395314
 21
-445.0648447039586
 31
0.0
  0
LINE
  5
1037F
330
DB10
100
AcDbEntity
  8
SUNPOU
370
    -2
100
AcDbLine
 10
34347.48373395314
 20
-606.0648447039586
 30
0.0
 11
34347.48373395314
 21
-525.0648447039586
 31
0.0
  0
INSERT
  5
10380
330
DB10
100
AcDbEntity
  8
SUNPOU
370
    -2
100
AcDbBlockReference
  2
_DotSmall
 10
34347.48373395314
 20
-606.0648447039586
 30
0.0
 41
80.0
 42
80.0
 43
80.0
 50
90.0
  0
INSERT
  5
10381
330
DB10
100
AcDbEntity
  8
SUNPOU
370
    -2
100
AcDbBlockReference
  2
_DotSmall
 10
34347.48373395314
 20
-525.0648447039586
 30
0.0
 41
80.0
 42
80.0
 43
80.0
 50
270.0
  0
MTEXT
  5
10382
330
DB10
100
AcDbEntity
  8
SUNPOU
100
AcDbMText
 10
34255.48373395314
 20
-565.564844703953
 30
0.0
 40
120.0
 41
0.0
 71
     5
 72
     1
  1
\A1;27
 11
6.123031769111886E-17
 21
1.0
 31
0.0
 73
     1
 44
1.0
  0
POINT
  5
10383
330
DB10
100
AcDbEntity
  8
DEFPOINTS
 62
     0
100
AcDbPoint
 10
33938.48373395314
 20
-606.0648447039584
 30
0.0
  0
POINT
  5
10384
330
DB10
100
AcDbEntity
  8
DEFPOINTS
 62
     0
100
AcDbPoint
 10
33947.48373395314
 20
-525.0648447039584
 30
0.0
  0
POINT
  5
10385
330
DB10
100
AcDbEntity
  8
DEFPOINTS
 62
     0
100
AcDbPoint
 10
34347.48373395314
 20
-525.0648447039586
 30
0.0
  0
ENDBLK
  5
DB1D
330
DB10
100
AcDbEntity
  8
0
100
AcDbBlockEnd
  0
BLOCK
  5
DB2A
330
DB1E
100
AcDbEntity
  8
0
100
AcDbBlockBegin
  2
*D26
 70
     1
 10
0.0
 20
0.0
 30
0.0
  3
*D26
  1

  0
LINE
  5
10370
330
DB1E
100
AcDbEntity
  8
SUNPOU
370
    -2
100
AcDbLine
 10
33998.48373395314
 20
-606.0648447039584
 30
0.0
 11
34371.48373395314
 21
-606.0648447039586
 31
0.0
  0
LINE
  5
10371
330
DB1E
100
AcDbEntity
  8
SUNPOU
370
    -2
100
AcDbLine
 10
34028.48373395314
 20
-651.0648447039584
 30
0.0
 11
34371.48373395314
 21
-651.0648447039586
 31
0.0
  0
LINE
  5
10372
330
DB1E
100
AcDbEntity
  8
SUNPOU
370
    -2
100
AcDbLine
 10
34347.48373395314
 20
-606.0648447039586
 30
0.0
 11
34347.48373395314
 21
-526.0648447039586
 31
0.0
  0
LINE
  5
10373
330
DB1E
100
AcDbEntity
  8
SUNPOU
370
    -2
100
AcDbLine
 10
34347.48373395314
 20
-651.0648447039586
 30
0.0
 11
34347.48373395314
 21
-1003.064844703959
 31
0.0
  0
LINE
  5
10374
330
DB1E
100
AcDbEntity
  8
SUNPOU
370
    -2
100
AcDbLine
 10
34347.48373395314
 20
-606.0648447039586
 30
0.0
 11
34347.48373395314
 21
-651.0648447039586
 31
0.0
  0
INSERT
  5
10375
330
DB1E
100
AcDbEntity
  8
SUNPOU
370
    -2
100
AcDbBlockReference
  2
_DotSmall
 10
34347.48373395314
 20
-606.0648447039586
 30
0.0
 41
80.0
 42
80.0
 43
80.0
 50
270.0
  0
INSERT
  5
10376
330
DB1E
100
AcDbEntity
  8
SUNPOU
370
    -2
100
AcDbBlockReference
  2
_DotSmall
 10
34347.48373395314
 20
-651.0648447039586
 30
0.0
 41
80.0
 42
80.0
 43
80.0
 50
90.0
  0
MTEXT
  5
10377
330
DB1E
100
AcDbEntity
  8
SUNPOU
100
AcDbMText
 10
34255.48373395314
 20
-907.064844703953
 30
0.0
 40
120.0
 41
0.0
 71
     5
 72
     1
  1
\A1;15
 11
6.123031769111886E-17
 21
1.0
 31
0.0
 73
     1
 44
1.0
  0
POINT
  5
10378
330
DB1E
100
AcDbEntity
  8
DEFPOINTS
 62
     0
100
AcDbPoint
 10
33938.48373395314
 20
-606.0648447039584
 30
0.0
  0
POINT
  5
10379
330
DB1E
100
AcDbEntity
  8
DEFPOINTS
 62
     0
100
AcDbPoint
 10
33968.48373395314
 20
-651.0648447039584
 30
0.0
  0
POINT
  5
1037A
330
DB1E
100
AcDbEntity
  8
DEFPOINTS
 62
     0
100
AcDbPoint
 10
34347.48373395314
 20
-651.0648447039586
 30
0.0
  0
ENDBLK
  5
DB2B
330
DB1E
100
AcDbEntity
  8
0
100
AcDbBlockEnd
  0
BLOCK
  5
DB36
330
DB2C
100
AcDbEntity
  8
0
100
AcDbBlockBegin
  2
*D27
 70
     1
 10
0.0
 20
0.0
 30
0.0
  3
*D27
  1

  0
LINE
  5
10351
330
DB2C
100
AcDbEntity
  8
SUNPOU
370
    -2
100
AcDbLine
 10
33998.48373395314
 20
-171.0648447039585
 30
0.0
 11
35005.65523790707
 21
-171.0648447039587
 31
0.0
  0
LINE
  5
10352
330
DB2C
100
AcDbEntity
  8
SUNPOU
370
    -2
100
AcDbLine
 10
34761.65523790707
 20
-651.0648447039584
 30
0.0
 11
35005.65523790707
 21
-651.0648447039584
 31
0.0
  0
LINE
  5
10353
330
DB2C
100
AcDbEntity
  8
SUNPOU
370
    -2
100
AcDbLine
 10
34981.65523790707
 20
-251.0648447039587
 30
0.0
 11
34981.65523790707
 21
-571.0648447039584
 31
0.0
  0
SOLID
  5
10354
330
DB2C
100
AcDbEntity
  8
SUNPOU
100
AcDbTrace
 10
34968.32190457374
 20
-251.0648447039587
 30
0.0
 11
34994.98857124041
 21
-251.0648447039587
 31
0.0
 12
34981.65523790707
 22
-171.0648447039587
 32
0.0
 13
34981.65523790707
 23
-171.0648447039587
 33
0.0
  0
SOLID
  5
10355
330
DB2C
100
AcDbEntity
  8
SUNPOU
100
AcDbTrace
 10
34968.32190457374
 20
-571.0648447039584
 30
0.0
 11
34994.98857124041
 21
-571.0648447039584
 31
0.0
 12
34981.65523790707
 22
-651.0648447039584
 32
0.0
 13
34981.65523790707
 23
-651.0648447039584
 33
0.0
  0
MTEXT
  5
10356
330
DB2C
100
AcDbEntity
  8
SUNPOU
100
AcDbMText
 10
34889.65523790707
 20
-411.064844703953
 30
0.0
 40
120.0
 41
0.0
 71
     5
 72
     1
  1
\A1;160
 11
6.123031769111886E-17
 21
1.0
 31
0.0
 73
     1
 44
1.0
  0
POINT
  5
10357
330
DB2C
100
AcDbEntity
  8
DEFPOINTS
 62
     0
100
AcDbPoint
 10
33938.48373395314
 20
-171.0648447039584
 30
0.0
  0
POINT
  5
10358
330
DB2C
100
AcDbEntity
  8
DEFPOINTS
 62
     0
100
AcDbPoint
 10
34701.65523790707
 20
-651.0648447039584
 30
0.0
  0
POINT
  5
10359
330
DB2C
100
AcDbEntity
  8
DEFPOINTS
 62
     0
100
AcDbPoint
 10
34981.65523790707
 20
-651.0648447039584
 30
0.0
  0
ENDBLK
  5
DB37
330
DB2C
100
AcDbEntity
  8
0
100
AcDbBlockEnd
  0
BLOCK
  5
DB42
330
DB38
100
AcDbEntity
  8
0
100
AcDbBlockBegin
  2
*D28
 70
     1
 10
0.0
 20
0.0
 30
0.0
  3
*D28
  1

  0
LINE
  5
10315
330
DB38
100
AcDbEntity
  8
SUNPOU
370
    -2
100
AcDbLine
 10
33758.48373395314
 20
2662.688219002996
 30
0.0
 11
35004.82245130723
 21
2662.688219002995
 31
0.0
  0
LINE
  5
10316
330
DB38
100
AcDbEntity
  8
SUNPOU
370
    -2
100
AcDbLine
 10
34761.65523790707
 20
3187.688219002996
 30
0.0
 11
35004.82245130723
 21
3187.688219002996
 31
0.0
  0
LINE
  5
10317
330
DB38
100
AcDbEntity
  8
SUNPOU
370
    -2
100
AcDbLine
 10
34980.82245130723
 20
2742.688219002995
 30
0.0
 11
34980.82245130723
 21
3107.688219002996
 31
0.0
  0
SOLID
  5
10318
330
DB38
100
AcDbEntity
  8
SUNPOU
100
AcDbTrace
 10
34967.48911797389
 20
2742.688219002995
 30
0.0
 11
34994.15578464056
 21
2742.688219002995
 31
0.0
 12
34980.82245130723
 22
2662.688219002995
 32
0.0
 13
34980.82245130723
 23
2662.688219002995
 33
0.0
  0
SOLID
  5
10319
330
DB38
100
AcDbEntity
  8
SUNPOU
100
AcDbTrace
 10
34967.48911797389
 20
3107.688219002996
 30
0.0
 11
34994.15578464056
 21
3107.688219002996
 31
0.0
 12
34980.82245130723
 22
3187.688219002996
 32
0.0
 13
34980.82245130723
 23
3187.688219002996
 33
0.0
  0
MTEXT
  5
1031A
330
DB38
100
AcDbEntity
  8
SUNPOU
100
AcDbMText
 10
34888.82245130723
 20
2925.188219003001
 30
0.0
 40
120.0
 41
0.0
 71
     5
 72
     1
  1
\A1;175
 11
6.123031769111886E-17
 21
1.0
 31
0.0
 73
     1
 44
1.0
  0
POINT
  5
1031B
330
DB38
100
AcDbEntity
  8
DEFPOINTS
 62
     0
100
AcDbPoint
 10
33698.48373395314
 20
2662.688219002996
 30
0.0
  0
POINT
  5
1031C
330
DB38
100
AcDbEntity
  8
DEFPOINTS
 62
     0
100
AcDbPoint
 10
34701.65523790707
 20
3187.688219002996
 30
0.0
  0
POINT
  5
1031D
330
DB38
100
AcDbEntity
  8
DEFPOINTS
 62
     0
100
AcDbPoint
 10
34980.82245130723
 20
3187.688219002996
 30
0.0
  0
ENDBLK
  5
DB43
330
DB38
100
AcDbEntity
  8
0
100
AcDbBlockEnd
  0
BLOCK
  5
DB4E
330
DB44
100
AcDbEntity
  8
0
100
AcDbBlockBegin
  2
*D29
 70
     1
 10
0.0
 20
0.0
 30
0.0
  3
*D29
  1

  0
LINE
  5
1030C
330
DB44
100
AcDbEntity
  8
SUNPOU
370
    -2
100
AcDbLine
 10
33998.48373395314
 20
2602.688219002996
 30
0.0
 11
35004.82245130723
 21
2602.688219002996
 31
0.0
  0
LINE
  5
1030D
330
DB44
100
AcDbEntity
  8
SUNPOU
370
    -2
100
AcDbLine
 10
34761.65523790707
 20
2047.688219002996
 30
0.0
 11
35004.82245130723
 21
2047.688219002996
 31
0.0
  0
LINE
  5
1030E
330
DB44
100
AcDbEntity
  8
SUNPOU
370
    -2
100
AcDbLine
 10
34980.82245130723
 20
2522.688219002996
 30
0.0
 11
34980.82245130723
 21
2127.688219002996
 31
0.0
  0
SOLID
  5
1030F
330
DB44
100
AcDbEntity
  8
SUNPOU
100
AcDbTrace
 10
34967.48911797389
 20
2522.688219002996
 30
0.0
 11
34994.15578464056
 21
2522.688219002996
 31
0.0
 12
34980.82245130723
 22
2602.688219002996
 32
0.0
 13
34980.82245130723
 23
2602.688219002996
 33
0.0
  0
SOLID
  5
10310
330
DB44
100
AcDbEntity
  8
SUNPOU
100
AcDbTrace
 10
34967.48911797389
 20
2127.688219002996
 30
0.0
 11
34994.15578464056
 21
2127.688219002996
 31
0.0
 12
34980.82245130723
 22
2047.688219002996
 32
0.0
 13
34980.82245130723
 23
2047.688219002996
 33
0.0
  0
MTEXT
  5
10311
330
DB44
100
AcDbEntity
  8
SUNPOU
100
AcDbMText
 10
34888.82245130723
 20
2325.188219003001
 30
0.0
 40
120.0
 41
0.0
 71
     5
 72
     1
  1
\A1;185
 11
6.123031769111886E-17
 21
1.0
 31
0.0
 73
     1
 44
1.0
  0
POINT
  5
10312
330
DB44
100
AcDbEntity
  8
DEFPOINTS
 62
     0
100
AcDbPoint
 10
33938.48373395314
 20
2602.688219002996
 30
0.0
  0
POINT
  5
10313
330
DB44
100
AcDbEntity
  8
DEFPOINTS
 62
     0
100
AcDbPoint
 10
34701.65523790707
 20
2047.688219002996
 30
0.0
  0
POINT
  5
10314
330
DB44
100
AcDbEntity
  8
DEFPOINTS
 62
     0
100
AcDbPoint
 10
34980.82245130723
 20
2047.688219002996
 30
0.0
  0
ENDBLK
  5
DB4F
330
DB44
100
AcDbEntity
  8
0
100
AcDbBlockEnd
  0
BLOCK
  5
DB5A
330
DB50
100
AcDbEntity
  8
0
100
AcDbBlockBegin
  2
*D30
 70
     1
 10
0.0
 20
0.0
 30
0.0
  3
*D30
  1

  0
LINE
  5
FBD1
330
DB50
100
AcDbEntity
  8
SUNPOU
370
    -2
100
AcDbLine
 10
33938.48373395314
 20
2662.688219002996
 30
0.0
 11
33938.48373395314
 21
3771.346060214398
 31
0.0
  0
LINE
  5
FBD2
330
DB50
100
AcDbEntity
  8
SUNPOU
370
    -2
100
AcDbLine
 10
33698.48373395314
 20
3247.688219002996
 30
0.0
 11
33698.48373395314
 21
3771.346060214398
 31
0.0
  0
LINE
  5
FBD3
330
DB50
100
AcDbEntity
  8
SUNPOU
370
    -2
100
AcDbLine
 10
33858.48373395314
 20
3747.346060214398
 30
0.0
 11
33778.48373395314
 21
3747.346060214398
 31
0.0
  0
SOLID
  5
FBD4
330
DB50
100
AcDbEntity
  8
SUNPOU
100
AcDbTrace
 10
33858.48373395314
 20
3760.679393547731
 30
0.0
 11
33858.48373395314
 21
3734.012726881064
 31
0.0
 12
33938.48373395314
 22
3747.346060214398
 32
0.0
 13
33938.48373395314
 23
3747.346060214398
 33
0.0
  0
SOLID
  5
FBD5
330
DB50
100
AcDbEntity
  8
SUNPOU
100
AcDbTrace
 10
33778.48373395314
 20
3760.679393547731
 30
0.0
 11
33778.48373395314
 21
3734.012726881064
 31
0.0
 12
33698.48373395314
 22
3747.346060214398
 32
0.0
 13
33698.48373395314
 23
3747.346060214398
 33
0.0
  0
MTEXT
  5
FBD6
330
DB50
100
AcDbEntity
  8
SUNPOU
100
AcDbMText
 10
33818.48373395314
 20
3839.346060214398
 30
0.0
 40
120.0
 41
0.0
 71
     5
 72
     1
  1
\A1;80
 73
     1
 44
1.0
  0
POINT
  5
FBD7
330
DB50
100
AcDbEntity
  8
DEFPOINTS
 62
     0
100
AcDbPoint
 10
33938.48373395314
 20
2602.688219002996
 30
0.0
  0
POINT
  5
FBD8
330
DB50
100
AcDbEntity
  8
DEFPOINTS
 62
     0
100
AcDbPoint
 10
33698.48373395314
 20
3187.688219002996
 30
0.0
  0
POINT
  5
FBD9
330
DB50
100
AcDbEntity
  8
DEFPOINTS
 62
     0
100
AcDbPoint
 10
33698.48373395314
 20
3747.346060214398
 30
0.0
  0
ENDBLK
  5
DB5B
330
DB50
100
AcDbEntity
  8
0
100
AcDbBlockEnd
  0
BLOCK
  5
DB68
330
DB5C
100
AcDbEntity
  8
0
100
AcDbBlockBegin
  2
*D31
 70
     1
 10
0.0
 20
0.0
 30
0.0
  3
*D31
  1

  0
LINE
  5
10300
330
DB5C
100
AcDbEntity
  8
SUNPOU
370
    -2
100
AcDbLine
 10
33401.65523790707
 20
2632.688219002996
 30
0.0
 11
32397.79991884381
 21
2632.688219002996
 31
0.0
  0
LINE
  5
10301
330
DB5C
100
AcDbEntity
  8
SUNPOU
370
    -2
100
AcDbLine
 10
33641.65523790707
 20
2572.688219002996
 30
0.0
 11
32397.79991884381
 21
2572.688219002996
 31
0.0
  0
LINE
  5
10302
330
DB5C
100
AcDbEntity
  8
SUNPOU
370
    -2
100
AcDbLine
 10
32421.79991884381
 20
2712.688219002996
 30
0.0
 11
32421.79991884381
 21
2792.688219002996
 31
0.0
  0
LINE
  5
10303
330
DB5C
100
AcDbEntity
  8
SUNPOU
370
    -2
100
AcDbLine
 10
32421.79991884381
 20
2492.688219002996
 30
0.0
 11
32421.79991884381
 21
2412.688219002996
 31
0.0
  0
LINE
  5
10304
330
DB5C
100
AcDbEntity
  8
SUNPOU
370
    -2
100
AcDbLine
 10
32421.79991884381
 20
2632.688219002996
 30
0.0
 11
32421.79991884381
 21
2572.688219002996
 31
0.0
  0
SOLID
  5
10305
330
DB5C
100
AcDbEntity
  8
SUNPOU
100
AcDbTrace
 10
32408.46658551048
 20
2712.688219002996
 30
0.0
 11
32435.13325217714
 21
2712.688219002996
 31
0.0
 12
32421.79991884381
 22
2632.688219002996
 32
0.0
 13
32421.79991884381
 23
2632.688219002996
 33
0.0
  0
SOLID
  5
10306
330
DB5C
100
AcDbEntity
  8
SUNPOU
100
AcDbTrace
 10
32408.46658551048
 20
2492.688219002996
 30
0.0
 11
32435.13325217714
 21
2492.688219002996
 31
0.0
 12
32421.79991884381
 22
2572.688219002996
 32
0.0
 13
32421.79991884381
 23
2572.688219002996
 33
0.0
  0
MTEXT
  5
10307
330
DB5C
100
AcDbEntity
  8
SUNPOU
100
AcDbMText
 10
32329.79991884381
 20
2602.688219003001
 30
0.0
 40
120.0
 41
0.0
 71
     5
 72
     1
  1
\A1;20
 11
6.123031769111886E-17
 21
1.0
 31
0.0
 73
     1
 44
1.0
  0
POINT
  5
10308
330
DB5C
100
AcDbEntity
  8
DEFPOINTS
 62
     0
100
AcDbPoint
 10
33461.65523790707
 20
2632.688219002996
 30
0.0
  0
POINT
  5
10309
330
DB5C
100
AcDbEntity
  8
DEFPOINTS
 62
     0
100
AcDbPoint
 10
33701.65523790707
 20
2572.688219002996
 30
0.0
  0
POINT
  5
1030A
330
DB5C
100
AcDbEntity
  8
DEFPOINTS
 62
     0
100
AcDbPoint
 10
32421.79991884381
 20
2572.688219002996
 30
0.0
  0
ENDBLK
  5
DB69
330
DB5C
100
AcDbEntity
  8
0
100
AcDbBlockEnd
  0
BLOCK
  5
DB74
330
DB6A
100
AcDbEntity
  8
0
100
AcDbBlockBegin
  2
*D32
 70
     1
 10
0.0
 20
0.0
 30
0.0
  3
*D32
  1

  0
LINE
  5
102F7
330
DB6A
100
AcDbEntity
  8
SUNPOU
370
    -2
100
AcDbLine
 10
32641.65523790706
 20
3187.688219002996
 30
0.0
 11
32397.79991884381
 21
3187.688219002996
 31
0.0
  0
LINE
  5
102F8
330
DB6A
100
AcDbEntity
  8
SUNPOU
370
    -2
100
AcDbLine
 10
33401.65523790707
 20
2632.688219002996
 30
0.0
 11
32397.79991884381
 21
2632.688219002996
 31
0.0
  0
LINE
  5
102F9
330
DB6A
100
AcDbEntity
  8
SUNPOU
370
    -2
100
AcDbLine
 10
32421.79991884381
 20
3107.688219002996
 30
0.0
 11
32421.79991884381
 21
2712.688219002996
 31
0.0
  0
SOLID
  5
102FA
330
DB6A
100
AcDbEntity
  8
SUNPOU
100
AcDbTrace
 10
32408.46658551048
 20
3107.688219002996
 30
0.0
 11
32435.13325217714
 21
3107.688219002996
 31
0.0
 12
32421.79991884381
 22
3187.688219002996
 32
0.0
 13
32421.79991884381
 23
3187.688219002996
 33
0.0
  0
SOLID
  5
102FB
330
DB6A
100
AcDbEntity
  8
SUNPOU
100
AcDbTrace
 10
32408.46658551048
 20
2712.688219002996
 30
0.0
 11
32435.13325217714
 21
2712.688219002996
 31
0.0
 12
32421.79991884381
 22
2632.688219002996
 32
0.0
 13
32421.79991884381
 23
2632.688219002996
 33
0.0
  0
MTEXT
  5
102FC
330
DB6A
100
AcDbEntity
  8
SUNPOU
100
AcDbMText
 10
32329.79991884381
 20
2910.188219003001
 30
0.0
 40
120.0
 41
0.0
 71
     5
 72
     1
  1
\A1;185
 11
6.123031769111886E-17
 21
1.0
 31
0.0
 73
     1
 44
1.0
  0
POINT
  5
102FD
330
DB6A
100
AcDbEntity
  8
DEFPOINTS
 62
     0
100
AcDbPoint
 10
32701.65523790706
 20
3187.688219002996
 30
0.0
  0
POINT
  5
102FE
330
DB6A
100
AcDbEntity
  8
DEFPOINTS
 62
     0
100
AcDbPoint
 10
33461.65523790707
 20
2632.688219002996
 30
0.0
  0
POINT
  5
102FF
330
DB6A
100
AcDbEntity
  8
DEFPOINTS
 62
     0
100
AcDbPoint
 10
32421.79991884381
 20
2632.688219002996
 30
0.0
  0
ENDBLK
  5
DB75
330
DB6A
100
AcDbEntity
  8
0
100
AcDbBlockEnd
  0
BLOCK
  5
DB80
330
DB76
100
AcDbEntity
  8
0
100
AcDbBlockBegin
  2
*D33
 70
     1
 10
0.0
 20
0.0
 30
0.0
  3
*D33
  1

  0
LINE
  5
102EE
330
DB76
100
AcDbEntity
  8
SUNPOU
370
    -2
100
AcDbLine
 10
32641.65523790706
 20
3187.688219002996
 30
0.0
 11
32117.94459978055
 21
3187.688219002996
 31
0.0
  0
LINE
  5
102EF
330
DB76
100
AcDbEntity
  8
SUNPOU
370
    -2
100
AcDbLine
 10
32641.65523790706
 20
2047.688219002996
 30
0.0
 11
32117.94459978055
 21
2047.688219002996
 31
0.0
  0
LINE
  5
102F0
330
DB76
100
AcDbEntity
  8
SUNPOU
370
    -2
100
AcDbLine
 10
32141.94459978055
 20
3107.688219002996
 30
0.0
 11
32141.94459978055
 21
2127.688219002996
 31
0.0
  0
SOLID
  5
102F1
330
DB76
100
AcDbEntity
  8
SUNPOU
100
AcDbTrace
 10
32128.61126644721
 20
3107.688219002996
 30
0.0
 11
32155.27793311388
 21
3107.688219002996
 31
0.0
 12
32141.94459978055
 22
3187.688219002996
 32
0.0
 13
32141.94459978055
 23
3187.688219002996
 33
0.0
  0
SOLID
  5
102F2
330
DB76
100
AcDbEntity
  8
SUNPOU
100
AcDbTrace
 10
32128.61126644721
 20
2127.688219002996
 30
0.0
 11
32155.27793311388
 21
2127.688219002996
 31
0.0
 12
32141.94459978055
 22
2047.688219002996
 32
0.0
 13
32141.94459978055
 23
2047.688219002996
 33
0.0
  0
MTEXT
  5
102F3
330
DB76
100
AcDbEntity
  8
SUNPOU
100
AcDbMText
 10
32049.94459978055
 20
2617.688219003001
 30
0.0
 40
120.0
 41
0.0
 71
     5
 72
     1
  1
\A1;380
 11
6.123031769111886E-17
 21
1.0
 31
0.0
 73
     1
 44
1.0
  0
POINT
  5
102F4
330
DB76
100
AcDbEntity
  8
DEFPOINTS
 62
     0
100
AcDbPoint
 10
32701.65523790706
 20
3187.688219002996
 30
0.0
  0
POINT
  5
102F5
330
DB76
100
AcDbEntity
  8
DEFPOINTS
 62
     0
100
AcDbPoint
 10
32701.65523790706
 20
2047.688219002996
 30
0.0
  0
POINT
  5
102F6
330
DB76
100
AcDbEntity
  8
DEFPOINTS
 62
     0
100
AcDbPoint
 10
32141.94459978055
 20
2047.688219002996
 30
0.0
  0
ENDBLK
  5
DB81
330
DB76
100
AcDbEntity
  8
0
100
AcDbBlockEnd
  0
BLOCK
  5
DB8C
330
DB82
100
AcDbEntity
  8
0
100
AcDbBlockBegin
  2
*D34
 70
     1
 10
0.0
 20
0.0
 30
0.0
  3
*D34
  1

  0
LINE
  5
102E5
330
DB82
100
AcDbEntity
  8
SUNPOU
370
    -2
100
AcDbLine
 10
33641.65523790707
 20
2572.688219002996
 30
0.0
 11
32397.79991884381
 21
2572.688219002996
 31
0.0
  0
LINE
  5
102E6
330
DB82
100
AcDbEntity
  8
SUNPOU
370
    -2
100
AcDbLine
 10
32641.65523790707
 20
2047.688219002996
 30
0.0
 11
32397.79991884381
 21
2047.688219002996
 31
0.0
  0
LINE
  5
102E7
330
DB82
100
AcDbEntity
  8
SUNPOU
370
    -2
100
AcDbLine
 10
32421.79991884381
 20
2492.688219002996
 30
0.0
 11
32421.79991884381
 21
2127.688219002996
 31
0.0
  0
SOLID
  5
102E8
330
DB82
100
AcDbEntity
  8
SUNPOU
100
AcDbTrace
 10
32408.46658551048
 20
2492.688219002996
 30
0.0
 11
32435.13325217714
 21
2492.688219002996
 31
0.0
 12
32421.79991884381
 22
2572.688219002996
 32
0.0
 13
32421.79991884381
 23
2572.688219002996
 33
0.0
  0
SOLID
  5
102E9
330
DB82
100
AcDbEntity
  8
SUNPOU
100
AcDbTrace
 10
32408.46658551048
 20
2127.688219002996
 30
0.0
 11
32435.13325217714
 21
2127.688219002996
 31
0.0
 12
32421.79991884381
 22
2047.688219002996
 32
0.0
 13
32421.79991884381
 23
2047.688219002996
 33
0.0
  0
MTEXT
  5
102EA
330
DB82
100
AcDbEntity
  8
SUNPOU
100
AcDbMText
 10
32329.79991884381
 20
2310.188219003001
 30
0.0
 40
120.0
 41
0.0
 71
     5
 72
     1
  1
\A1;175
 11
6.123031769111886E-17
 21
1.0
 31
0.0
 73
     1
 44
1.0
  0
POINT
  5
102EB
330
DB82
100
AcDbEntity
  8
DEFPOINTS
 62
     0
100
AcDbPoint
 10
33701.65523790707
 20
2572.688219002996
 30
0.0
  0
POINT
  5
102EC
330
DB82
100
AcDbEntity
  8
DEFPOINTS
 62
     0
100
AcDbPoint
 10
32701.65523790707
 20
2047.688219002996
 30
0.0
  0
POINT
  5
102ED
330
DB82
100
AcDbEntity
  8
DEFPOINTS
 62
     0
100
AcDbPoint
 10
32421.79991884381
 20
2047.688219002996
 30
0.0
  0
ENDBLK
  5
DB8D
330
DB82
100
AcDbEntity
  8
0
100
AcDbBlockEnd
  0
BLOCK
  5
DB9A
330
DB8E
100
AcDbEntity
  8
0
100
AcDbBlockBegin
  2
*D35
 70
     1
 10
0.0
 20
0.0
 30
0.0
  3
*D35
  1

  0
LINE
  5
FBF0
330
DB8E
100
AcDbEntity
  8
SUNPOU
370
    -2
100
AcDbLine
 10
33938.48373395314
 20
2032.688219002996
 30
0.0
 11
33938.48373395314
 21
1459.435593362563
 31
0.0
  0
LINE
  5
FBF1
330
DB8E
100
AcDbEntity
  8
SUNPOU
370
    -2
100
AcDbLine
 10
33974.48373395314
 20
2017.688219002996
 30
0.0
 11
33974.48373395314
 21
1459.435593362563
 31
0.0
  0
LINE
  5
FBF2
330
DB8E
100
AcDbEntity
  8
SUNPOU
370
    -2
100
AcDbLine
 10
33858.48373395314
 20
1483.435593362563
 30
0.0
 11
33778.48373395314
 21
1483.435593362563
 31
0.0
  0
LINE
  5
FBF3
330
DB8E
100
AcDbEntity
  8
SUNPOU
370
    -2
100
AcDbLine
 10
34054.48373395314
 20
1483.435593362563
 30
0.0
 11
34326.48373395314
 21
1483.435593362563
 31
0.0
  0
LINE
  5
FBF4
330
DB8E
100
AcDbEntity
  8
SUNPOU
370
    -2
100
AcDbLine
 10
33938.48373395314
 20
1483.435593362563
 30
0.0
 11
33974.48373395314
 21
1483.435593362563
 31
0.0
  0
SOLID
  5
FBF5
330
DB8E
100
AcDbEntity
  8
SUNPOU
100
AcDbTrace
 10
33858.48373395314
 20
1496.768926695896
 30
0.0
 11
33858.48373395314
 21
1470.10226002923
 31
0.0
 12
33938.48373395314
 22
1483.435593362563
 32
0.0
 13
33938.48373395314
 23
1483.435593362563
 33
0.0
  0
SOLID
  5
FBF6
330
DB8E
100
AcDbEntity
  8
SUNPOU
100
AcDbTrace
 10
34054.48373395314
 20
1496.768926695896
 30
0.0
 11
34054.48373395314
 21
1470.10226002923
 31
0.0
 12
33974.48373395314
 22
1483.435593362563
 32
0.0
 13
33974.48373395314
 23
1483.435593362563
 33
0.0
  0
MTEXT
  5
FBF7
330
DB8E
100
AcDbEntity
  8
SUNPOU
100
AcDbMText
 10
34230.48373395314
 20
1575.435593362563
 30
0.0
 40
120.0
 41
0.0
 71
     5
 72
     1
  1
\A1;12
 73
     1
 44
1.0
  0
POINT
  5
FBF8
330
DB8E
100
AcDbEntity
  8
DEFPOINTS
 62
     0
100
AcDbPoint
 10
33938.48373395314
 20
2092.688219002996
 30
0.0
  0
POINT
  5
FBF9
330
DB8E
100
AcDbEntity
  8
DEFPOINTS
 62
     0
100
AcDbPoint
 10
33974.48373395314
 20
2077.688219002996
 30
0.0
  0
POINT
  5
FBFA
330
DB8E
100
AcDbEntity
  8
DEFPOINTS
 62
     0
100
AcDbPoint
 10
33974.48373395314
 20
1483.435593362563
 30
0.0
  0
ENDBLK
  5
DB9B
330
DB8E
100
AcDbEntity
  8
0
100
AcDbBlockEnd
  0
BLOCK
  5
DBA6
330
DB9C
100
AcDbEntity
  8
0
100
AcDbBlockBegin
  2
*D36
 70
     1
 10
0.0
 20
0.0
 30
0.0
  3
*D36
  1

  0
LINE
  5
FBC8
330
DB9C
100
AcDbEntity
  8
SUNPOU
370
    -2
100
AcDbLine
 10
33461.65523790707
 20
2572.688219002996
 30
0.0
 11
33461.65523790707
 21
1743.832899939732
 31
0.0
  0
LINE
  5
FBC9
330
DB9C
100
AcDbEntity
  8
SUNPOU
370
    -2
100
AcDbLine
 10
33701.65523790707
 20
1987.688219002996
 30
0.0
 11
33701.65523790707
 21
1743.832899939732
 31
0.0
  0
LINE
  5
FBCA
330
DB9C
100
AcDbEntity
  8
SUNPOU
370
    -2
100
AcDbLine
 10
33541.65523790707
 20
1767.832899939732
 30
0.0
 11
33621.65523790707
 21
1767.832899939732
 31
0.0
  0
SOLID
  5
FBCB
330
DB9C
100
AcDbEntity
  8
SUNPOU
100
AcDbTrace
 10
33541.65523790707
 20
1781.166233273065
 30
0.0
 11
33541.65523790707
 21
1754.499566606399
 31
0.0
 12
33461.65523790707
 22
1767.832899939732
 32
0.0
 13
33461.65523790707
 23
1767.832899939732
 33
0.0
  0
SOLID
  5
FBCC
330
DB9C
100
AcDbEntity
  8
SUNPOU
100
AcDbTrace
 10
33621.65523790707
 20
1781.166233273065
 30
0.0
 11
33621.65523790707
 21
1754.499566606399
 31
0.0
 12
33701.65523790707
 22
1767.832899939732
 32
0.0
 13
33701.65523790707
 23
1767.832899939732
 33
0.0
  0
MTEXT
  5
FBCD
330
DB9C
100
AcDbEntity
  8
SUNPOU
100
AcDbMText
 10
33581.65523790707
 20
1859.832899939732
 30
0.0
 40
120.0
 41
0.0
 71
     5
 72
     1
  1
\A1;80
 73
     1
 44
1.0
  0
POINT
  5
FBCE
330
DB9C
100
AcDbEntity
  8
DEFPOINTS
 62
     0
100
AcDbPoint
 10
33461.65523790707
 20
2632.688219002996
 30
0.0
  0
POINT
  5
FBCF
330
DB9C
100
AcDbEntity
  8
DEFPOINTS
 62
     0
100
AcDbPoint
 10
33701.65523790707
 20
2047.688219002996
 30
0.0
  0
POINT
  5
FBD0
330
DB9C
100
AcDbEntity
  8
DEFPOINTS
 62
     0
100
AcDbPoint
 10
33701.65523790707
 20
1767.832899939732
 30
0.0
  0
ENDBLK
  5
DBA7
330
DB9C
100
AcDbEntity
  8
0
100
AcDbBlockEnd
  0
BLOCK
  5
DBB4
330
DBA8
100
AcDbEntity
  8
0
100
AcDbBlockBegin
  2
*D37
 70
     1
 10
0.0
 20
0.0
 30
0.0
  3
*D37
  1

  0
LINE
  5
FD54
330
DBA8
100
AcDbEntity
  8
SUNPOU
370
    -2
100
AcDbLine
 10
26959.70454075908
 20
4786.163796924928
 30
0.0
 11
27283.70454075908
 21
4786.163796924928
 31
0.0
  0
LINE
  5
FD55
330
DBA8
100
AcDbEntity
  8
SUNPOU
370
    -2
100
AcDbLine
 10
26959.70454075908
 20
5406.16379692493
 30
0.0
 11
27283.70454075908
 21
5406.16379692493
 31
0.0
  0
LINE
  5
FD56
330
DBA8
100
AcDbEntity
  8
SUNPOU
370
    -2
100
AcDbLine
 10
27259.70454075908
 20
4706.163796924928
 30
0.0
 11
27259.70454075908
 21
4626.163796924928
 31
0.0
  0
LINE
  5
FD57
330
DBA8
100
AcDbEntity
  8
SUNPOU
370
    -2
100
AcDbLine
 10
27259.70454075908
 20
5486.16379692493
 30
0.0
 11
27259.70454075908
 21
5566.16379692493
 31
0.0
  0
LINE
  5
FD58
330
DBA8
100
AcDbEntity
  8
SUNPOU
370
    -2
100
AcDbLine
 10
27259.70454075908
 20
4786.163796924928
 30
0.0
 11
27259.70454075908
 21
5406.16379692493
 31
0.0
  0
SOLID
  5
FD59
330
DBA8
100
AcDbEntity
  8
SUNPOU
100
AcDbTrace
 10
27246.37120742575
 20
4706.163796924928
 30
0.0
 11
27273.03787409242
 21
4706.163796924928
 31
0.0
 12
27259.70454075908
 22
4786.163796924928
 32
0.0
 13
27259.70454075908
 23
4786.163796924928
 33
0.0
  0
SOLID
  5
FD5A
330
DBA8
100
AcDbEntity
  8
SUNPOU
100
AcDbTrace
 10
27246.37120742575
 20
5486.16379692493
 30
0.0
 11
27273.03787409242
 21
5486.16379692493
 31
0.0
 12
27259.70454075908
 22
5406.16379692493
 32
0.0
 13
27259.70454075908
 23
5406.16379692493
 33
0.0
  0
MTEXT
  5
FD5B
330
DBA8
100
AcDbEntity
  8
SUNPOU
100
AcDbMText
 10
27167.70454075908
 20
5096.163796924933
 30
0.0
 40
120.0
 41
0.0
 71
     5
 72
     1
  1
\A1;2@310=620
 11
6.123031769111886E-17
 21
1.0
 31
0.0
 73
     1
 44
1.0
  0
POINT
  5
FD5C
330
DBA8
100
AcDbEntity
  8
DEFPOINTS
 62
     0
100
AcDbPoint
 10
26899.70454075908
 20
4786.163796924928
 30
0.0
  0
POINT
  5
FD5D
330
DBA8
100
AcDbEntity
  8
DEFPOINTS
 62
     0
100
AcDbPoint
 10
26899.70454075908
 20
5406.16379692493
 30
0.0
  0
POINT
  5
FD5E
330
DBA8
100
AcDbEntity
  8
DEFPOINTS
 62
     0
100
AcDbPoint
 10
27259.70454075908
 20
5406.16379692493
 30
0.0
  0
ENDBLK
  5
DBB5
330
DBA8
100
AcDbEntity
  8
0
100
AcDbBlockEnd
  0
BLOCK
  5
DBC2
330
DBB6
100
AcDbEntity
  8
0
100
AcDbBlockBegin
  2
*D38
 70
     1
 10
0.0
 20
0.0
 30
0.0
  3
*D38
  1

  0
LINE
  5
FD4A
330
DBB6
100
AcDbEntity
  8
SUNPOU
370
    -2
100
AcDbLine
 10
26959.70454075908
 20
4786.163796924928
 30
0.0
 11
27283.70454075908
 21
4786.163796924928
 31
0.0
  0
LINE
  5
FD4B
330
DBB6
100
AcDbEntity
  8
SUNPOU
370
    -2
100
AcDbLine
 10
26779.70454075908
 20
4556.16379692493
 30
0.0
 11
27283.70454075908
 21
4556.16379692493
 31
0.0
  0
LINE
  5
FD4C
330
DBB6
100
AcDbEntity
  8
SUNPOU
370
    -2
100
AcDbLine
 10
27259.70454075908
 20
4706.163796924928
 30
0.0
 11
27259.70454075908
 21
4636.16379692493
 31
0.0
  0
LINE
  5
FD4D
330
DBB6
100
AcDbEntity
  8
SUNPOU
370
    -2
100
AcDbLine
 10
27259.70454075908
 20
4556.16379692493
 30
0.0
 11
27259.70454075908
 21
4172.16379692493
 31
0.0
  0
SOLID
  5
FD4E
330
DBB6
100
AcDbEntity
  8
SUNPOU
100
AcDbTrace
 10
27246.37120742575
 20
4706.163796924928
 30
0.0
 11
27273.03787409242
 21
4706.163796924928
 31
0.0
 12
27259.70454075908
 22
4786.163796924928
 32
0.0
 13
27259.70454075908
 23
4786.163796924928
 33
0.0
  0
SOLID
  5
FD4F
330
DBB6
100
AcDbEntity
  8
SUNPOU
100
AcDbTrace
 10
27246.37120742575
 20
4636.16379692493
 30
0.0
 11
27273.03787409242
 21
4636.16379692493
 31
0.0
 12
27259.70454075908
 22
4556.16379692493
 32
0.0
 13
27259.70454075908
 23
4556.16379692493
 33
0.0
  0
MTEXT
  5
FD50
330
DBB6
100
AcDbEntity
  8
SUNPOU
100
AcDbMText
 10
27167.70454075908
 20
4324.163796924935
 30
0.0
 40
120.0
 41
0.0
 71
     5
 72
     1
  1
\A1;230
 11
6.123031769111886E-17
 21
1.0
 31
0.0
 73
     1
 44
1.0
  0
POINT
  5
FD51
330
DBB6
100
AcDbEntity
  8
DEFPOINTS
 62
     0
100
AcDbPoint
 10
26899.70454075908
 20
4786.163796924928
 30
0.0
  0
POINT
  5
FD52
330
DBB6
100
AcDbEntity
  8
DEFPOINTS
 62
     0
100
AcDbPoint
 10
26719.70454075908
 20
4556.16379692493
 30
0.0
  0
POINT
  5
FD53
330
DBB6
100
AcDbEntity
  8
DEFPOINTS
 62
     0
100
AcDbPoint
 10
27259.70454075908
 20
4556.16379692493
 30
0.0
  0
ENDBLK
  5
DBC3
330
DBB6
100
AcDbEntity
  8
0
100
AcDbBlockEnd
  0
BLOCK
  5
DBD0
330
DBC4
100
AcDbEntity
  8
0
100
AcDbBlockBegin
  2
*D39
 70
     1
 10
0.0
 20
0.0
 30
0.0
  3
*D39
  1

  0
LINE
  5
101E6
330
DBC4
100
AcDbEntity
  8
SUNPOU
370
    -2
100
AcDbLine
 10
29753.29287243254
 20
2702.550907110831
 30
0.0
 11
29753.29287243254
 21
3235.274477000078
 31
0.0
  0
LINE
  5
101E7
330
DBC4
100
AcDbEntity
  8
SUNPOU
370
    -2
100
AcDbLine
 10
29983.29287243254
 20
2702.550907110831
 30
0.0
 11
29983.29287243254
 21
3235.274477000078
 31
0.0
  0
LINE
  5
101E8
330
DBC4
100
AcDbEntity
  8
SUNPOU
370
    -2
100
AcDbLine
 10
29833.29287243254
 20
3211.274477000078
 30
0.0
 11
29903.29287243254
 21
3211.274477000078
 31
0.0
  0
LINE
  5
101E9
330
DBC4
100
AcDbEntity
  8
SUNPOU
370
    -2
100
AcDbLine
 10
29983.29287243254
 20
3211.274477000078
 30
0.0
 11
30367.29287243254
 21
3211.274477000078
 31
0.0
  0
SOLID
  5
101EA
330
DBC4
100
AcDbEntity
  8
SUNPOU
100
AcDbTrace
 10
29833.29287243254
 20
3224.607810333412
 30
0.0
 11
29833.29287243254
 21
3197.941143666745
 31
0.0
 12
29753.29287243254
 22
3211.274477000078
 32
0.0
 13
29753.29287243254
 23
3211.274477000078
 33
0.0
  0
SOLID
  5
101EB
330
DBC4
100
AcDbEntity
  8
SUNPOU
100
AcDbTrace
 10
29903.29287243254
 20
3224.607810333412
 30
0.0
 11
29903.29287243254
 21
3197.941143666745
 31
0.0
 12
29983.29287243254
 22
3211.274477000078
 32
0.0
 13
29983.29287243254
 23
3211.274477000078
 33
0.0
  0
MTEXT
  5
101EC
330
DBC4
100
AcDbEntity
  8
SUNPOU
100
AcDbMText
 10
30215.29287243254
 20
3303.274477000078
 30
0.0
 40
120.0
 41
0.0
 71
     5
 72
     1
  1
\A1;230
 73
     1
 44
1.0
  0
POINT
  5
101ED
330
DBC4
100
AcDbEntity
  8
DEFPOINTS
 62
     0
100
AcDbPoint
 10
29753.29287243254
 20
2642.550907110831
 30
0.0
  0
POINT
  5
101EE
330
DBC4
100
AcDbEntity
  8
DEFPOINTS
 62
     0
100
AcDbPoint
 10
29983.29287243254
 20
2642.550907110831
 30
0.0
  0
POINT
  5
101EF
330
DBC4
100
AcDbEntity
  8
DEFPOINTS
 62
     0
100
AcDbPoint
 10
29983.29287243254
 20
3211.274477000078
 30
0.0
  0
ENDBLK
  5
DBD1
330
DBC4
100
AcDbEntity
  8
0
100
AcDbBlockEnd
  0
BLOCK
  5
DBDE
330
DBD2
100
AcDbEntity
  8
0
100
AcDbBlockBegin
  2
*D40
 70
     1
 10
0.0
 20
0.0
 30
0.0
  3
*D40
  1

  0
LINE
  5
10099
330
DBD2
100
AcDbEntity
  8
SUNPOU
370
    -2
100
AcDbLine
 10
29133.29287243254
 20
2702.550907110831
 30
0.0
 11
29133.29287243254
 21
3235.274477000078
 31
0.0
  0
LINE
  5
1009A
330
DBD2
100
AcDbEntity
  8
SUNPOU
370
    -2
100
AcDbLine
 10
29753.29287243254
 20
2702.550907110831
 30
0.0
 11
29753.29287243254
 21
3235.274477000078
 31
0.0
  0
LINE
  5
1009B
330
DBD2
100
AcDbEntity
  8
SUNPOU
370
    -2
100
AcDbLine
 10
29053.29287243254
 20
3211.274477000078
 30
0.0
 11
28973.29287243254
 21
3211.274477000078
 31
0.0
  0
LINE
  5
1009C
330
DBD2
100
AcDbEntity
  8
SUNPOU
370
    -2
100
AcDbLine
 10
29833.29287243254
 20
3211.274477000078
 30
0.0
 11
29913.29287243254
 21
3211.274477000078
 31
0.0
  0
LINE
  5
1009D
330
DBD2
100
AcDbEntity
  8
SUNPOU
370
    -2
100
AcDbLine
 10
29133.29287243254
 20
3211.274477000078
 30
0.0
 11
29753.29287243254
 21
3211.274477000078
 31
0.0
  0
SOLID
  5
1009E
330
DBD2
100
AcDbEntity
  8
SUNPOU
100
AcDbTrace
 10
29053.29287243254
 20
3224.607810333412
 30
0.0
 11
29053.29287243254
 21
3197.941143666745
 31
0.0
 12
29133.29287243254
 22
3211.274477000078
 32
0.0
 13
29133.29287243254
 23
3211.274477000078
 33
0.0
  0
SOLID
  5
1009F
330
DBD2
100
AcDbEntity
  8
SUNPOU
100
AcDbTrace
 10
29833.29287243254
 20
3224.607810333412
 30
0.0
 11
29833.29287243254
 21
3197.941143666745
 31
0.0
 12
29753.29287243254
 22
3211.274477000078
 32
0.0
 13
29753.29287243254
 23
3211.274477000078
 33
0.0
  0
MTEXT
  5
100A0
330
DBD2
100
AcDbEntity
  8
SUNPOU
100
AcDbMText
 10
29443.29287243254
 20
3303.274477000078
 30
0.0
 40
120.0
 41
0.0
 71
     5
 72
     1
  1
\A1;2@310=620
 73
     1
 44
1.0
  0
POINT
  5
100A1
330
DBD2
100
AcDbEntity
  8
DEFPOINTS
 62
     0
100
AcDbPoint
 10
29133.29287243254
 20
2642.550907110831
 30
0.0
  0
POINT
  5
100A2
330
DBD2
100
AcDbEntity
  8
DEFPOINTS
 62
     0
100
AcDbPoint
 10
29753.29287243254
 20
2642.550907110831
 30
0.0
  0
POINT
  5
100A3
330
DBD2
100
AcDbEntity
  8
DEFPOINTS
 62
     0
100
AcDbPoint
 10
29753.29287243254
 20
3211.274477000078
 30
0.0
  0
ENDBLK
  5
DBDF
330
DBD2
100
AcDbEntity
  8
0
100
AcDbBlockEnd
  0
BLOCK
  5
DBEC
330
DBE0
100
AcDbEntity
  8
0
100
AcDbBlockBegin
  2
*D41
 70
     1
 10
0.0
 20
0.0
 30
0.0
  3
*D41
  1

  0
LINE
  5
102C4
330
DBE0
100
AcDbEntity
  8
SUNPOU
370
    -2
100
AcDbLine
 10
28903.29287243254
 20
2702.550907110831
 30
0.0
 11
28903.29287243254
 21
3235.274477000078
 31
0.0
  0
LINE
  5
102C5
330
DBE0
100
AcDbEntity
  8
SUNPOU
370
    -2
100
AcDbLine
 10
29133.29287243254
 20
2702.550907110831
 30
0.0
 11
29133.29287243254
 21
3235.274477000078
 31
0.0
  0
LINE
  5
102C6
330
DBE0
100
AcDbEntity
  8
SUNPOU
370
    -2
100
AcDbLine
 10
29053.29287243254
 20
3211.274477000078
 30
0.0
 11
28983.29287243254
 21
3211.274477000078
 31
0.0
  0
LINE
  5
102C7
330
DBE0
100
AcDbEntity
  8
SUNPOU
370
    -2
100
AcDbLine
 10
28903.29287243254
 20
3211.274477000078
 30
0.0
 11
28519.29287243254
 21
3211.274477000078
 31
0.0
  0
SOLID
  5
102C8
330
DBE0
100
AcDbEntity
  8
SUNPOU
100
AcDbTrace
 10
29053.29287243254
 20
3224.607810333412
 30
0.0
 11
29053.29287243254
 21
3197.941143666745
 31
0.0
 12
29133.29287243254
 22
3211.274477000078
 32
0.0
 13
29133.29287243254
 23
3211.274477000078
 33
0.0
  0
SOLID
  5
102C9
330
DBE0
100
AcDbEntity
  8
SUNPOU
100
AcDbTrace
 10
28983.29287243254
 20
3224.607810333412
 30
0.0
 11
28983.29287243254
 21
3197.941143666745
 31
0.0
 12
28903.29287243254
 22
3211.274477000078
 32
0.0
 13
28903.29287243254
 23
3211.274477000078
 33
0.0
  0
MTEXT
  5
102CA
330
DBE0
100
AcDbEntity
  8
SUNPOU
100
AcDbMText
 10
28671.29287243254
 20
3303.274477000078
 30
0.0
 40
120.0
 41
0.0
 71
     5
 72
     1
  1
\A1;230
 73
     1
 44
1.0
  0
POINT
  5
102CB
330
DBE0
100
AcDbEntity
  8
DEFPOINTS
 62
     0
100
AcDbPoint
 10
28903.29287243254
 20
2642.550907110831
 30
0.0
  0
POINT
  5
102CC
330
DBE0
100
AcDbEntity
  8
DEFPOINTS
 62
     0
100
AcDbPoint
 10
29133.29287243254
 20
2642.550907110831
 30
0.0
  0
POINT
  5
102CD
330
DBE0
100
AcDbEntity
  8
DEFPOINTS
 62
     0
100
AcDbPoint
 10
29133.29287243254
 20
3211.274477000078
 30
0.0
  0
ENDBLK
  5
DBED
330
DBE0
100
AcDbEntity
  8
0
100
AcDbBlockEnd
  0
BLOCK
  5
DC06
330
DBFC
100
AcDbEntity
  8
0
100
AcDbBlockBegin
  2
*D42
 70
     1
 10
0.0
 20
0.0
 30
0.0
  3
*D42
  1

  0
LINE
  5
100B7
330
DBFC
100
AcDbEntity
  8
SUNPOU
370
    -2
100
AcDbLine
 10
28903.29287243254
 20
-177.4490928891682
 30
0.0
 11
28903.29287243254
 21
-981.4490907891741
 31
0.0
  0
LINE
  5
100B8
330
DBFC
100
AcDbEntity
  8
SUNPOU
370
    -2
100
AcDbLine
 10
29983.29287243254
 20
-177.4490928891682
 30
0.0
 11
29983.29287243254
 21
-981.4490907891741
 31
0.0
  0
LINE
  5
100B9
330
DBFC
100
AcDbEntity
  8
SUNPOU
370
    -2
100
AcDbLine
 10
28983.29287243254
 20
-957.4490907891741
 30
0.0
 11
29903.29287243254
 21
-957.4490907891741
 31
0.0
  0
SOLID
  5
100BA
330
DBFC
100
AcDbEntity
  8
SUNPOU
100
AcDbTrace
 10
28983.29287243254
 20
-944.1157574558407
 30
0.0
 11
28983.29287243254
 21
-970.7824241225075
 31
0.0
 12
28903.29287243254
 22
-957.4490907891741
 32
0.0
 13
28903.29287243254
 23
-957.4490907891741
 33
0.0
  0
SOLID
  5
100BB
330
DBFC
100
AcDbEntity
  8
SUNPOU
100
AcDbTrace
 10
29903.29287243254
 20
-944.1157574558407
 30
0.0
 11
29903.29287243254
 21
-970.7824241225075
 31
0.0
 12
29983.29287243254
 22
-957.4490907891741
 32
0.0
 13
29983.29287243254
 23
-957.4490907891741
 33
0.0
  0
MTEXT
  5
100BC
330
DBFC
100
AcDbEntity
  8
SUNPOU
100
AcDbMText
 10
29443.29287243254
 20
-865.4490907891741
 30
0.0
 40
120.0
 41
0.0
 71
     5
 72
     1
  1
\A1;1080
 73
     1
 44
1.0
  0
POINT
  5
100BD
330
DBFC
100
AcDbEntity
  8
DEFPOINTS
 62
     0
100
AcDbPoint
 10
28903.29287243254
 20
-117.4490928891682
 30
0.0
  0
POINT
  5
100BE
330
DBFC
100
AcDbEntity
  8
DEFPOINTS
 62
     0
100
AcDbPoint
 10
29983.29287243254
 20
-117.4490928891682
 30
0.0
  0
POINT
  5
100BF
330
DBFC
100
AcDbEntity
  8
DEFPOINTS
 62
     0
100
AcDbPoint
 10
29983.29287243254
 20
-957.4490907891741
 30
0.0
  0
ENDBLK
  5
DC07
330
DBFC
100
AcDbEntity
  8
0
100
AcDbBlockEnd
  0
BLOCK
  5
DC12
330
DC08
100
AcDbEntity
  8
0
100
AcDbBlockBegin
  2
*D43
 70
     1
 10
0.0
 20
0.0
 30
0.0
  3
*D43
  1

  0
LINE
  5
100AE
330
DC08
100
AcDbEntity
  8
SUNPOU
370
    -2
100
AcDbLine
 10
28903.29287243254
 20
-177.4490928891682
 30
0.0
 11
28903.29287243254
 21
-701.4490914891721
 31
0.0
  0
LINE
  5
100AF
330
DC08
100
AcDbEntity
  8
SUNPOU
370
    -2
100
AcDbLine
 10
29903.29287243254
 20
-177.4490928891682
 30
0.0
 11
29903.29287243254
 21
-701.4490914891721
 31
0.0
  0
LINE
  5
100B0
330
DC08
100
AcDbEntity
  8
SUNPOU
370
    -2
100
AcDbLine
 10
28983.29287243254
 20
-677.4490914891721
 30
0.0
 11
29823.29287243254
 21
-677.4490914891721
 31
0.0
  0
SOLID
  5
100B1
330
DC08
100
AcDbEntity
  8
SUNPOU
100
AcDbTrace
 10
28983.29287243254
 20
-664.1157581558388
 30
0.0
 11
28983.29287243254
 21
-690.7824248225055
 31
0.0
 12
28903.29287243254
 22
-677.4490914891721
 32
0.0
 13
28903.29287243254
 23
-677.4490914891721
 33
0.0
  0
SOLID
  5
100B2
330
DC08
100
AcDbEntity
  8
SUNPOU
100
AcDbTrace
 10
29823.29287243254
 20
-664.1157581558388
 30
0.0
 11
29823.29287243254
 21
-690.7824248225055
 31
0.0
 12
29903.29287243254
 22
-677.4490914891721
 32
0.0
 13
29903.29287243254
 23
-677.4490914891721
 33
0.0
  0
MTEXT
  5
100B3
330
DC08
100
AcDbEntity
  8
SUNPOU
100
AcDbMText
 10
29403.29287243254
 20
-585.4490914891721
 30
0.0
 40
120.0
 41
0.0
 71
     5
 72
     1
  1
\A1;1000
 73
     1
 44
1.0
  0
POINT
  5
100B4
330
DC08
100
AcDbEntity
  8
DEFPOINTS
 62
     0
100
AcDbPoint
 10
28903.29287243254
 20
-117.4490928891682
 30
0.0
  0
POINT
  5
100B5
330
DC08
100
AcDbEntity
  8
DEFPOINTS
 62
     0
100
AcDbPoint
 10
29903.29287243254
 20
-117.4490928891682
 30
0.0
  0
POINT
  5
100B6
330
DC08
100
AcDbEntity
  8
DEFPOINTS
 62
     0
100
AcDbPoint
 10
29903.29287243254
 20
-677.4490914891721
 30
0.0
  0
ENDBLK
  5
DC13
330
DC08
100
AcDbEntity
  8
0
100
AcDbBlockEnd
  0
BLOCK
  5
DC20
330
DC14
100
AcDbEntity
  8
0
100
AcDbBlockBegin
  2
*D44
 70
     1
 10
0.0
 20
0.0
 30
0.0
  3
*D44
  1

  0
LINE
  5
10172
330
DC14
100
AcDbEntity
  8
SUNPOU
370
    -2
100
AcDbLine
 10
29903.29287243254
 20
-177.4490928891682
 30
0.0
 11
29903.29287243254
 21
-701.4490914891721
 31
0.0
  0
LINE
  5
10173
330
DC14
100
AcDbEntity
  8
SUNPOU
370
    -2
100
AcDbLine
 10
29983.29287243254
 20
-177.4490928891682
 30
0.0
 11
29983.29287243254
 21
-701.4490914891721
 31
0.0
  0
LINE
  5
10174
330
DC14
100
AcDbEntity
  8
SUNPOU
370
    -2
100
AcDbLine
 10
29823.29287243254
 20
-677.4490914891721
 30
0.0
 11
29743.29287243254
 21
-677.4490914891721
 31
0.0
  0
LINE
  5
10175
330
DC14
100
AcDbEntity
  8
SUNPOU
370
    -2
100
AcDbLine
 10
30063.29287243254
 20
-677.4490914891721
 30
0.0
 11
30351.29287243254
 21
-677.4490914891721
 31
0.0
  0
LINE
  5
10176
330
DC14
100
AcDbEntity
  8
SUNPOU
370
    -2
100
AcDbLine
 10
29903.29287243254
 20
-677.4490914891721
 30
0.0
 11
29983.29287243254
 21
-677.4490914891721
 31
0.0
  0
SOLID
  5
10177
330
DC14
100
AcDbEntity
  8
SUNPOU
100
AcDbTrace
 10
29823.29287243254
 20
-664.1157581558388
 30
0.0
 11
29823.29287243254
 21
-690.7824248225055
 31
0.0
 12
29903.29287243254
 22
-677.4490914891721
 32
0.0
 13
29903.29287243254
 23
-677.4490914891721
 33
0.0
  0
SOLID
  5
10178
330
DC14
100
AcDbEntity
  8
SUNPOU
100
AcDbTrace
 10
30063.29287243254
 20
-664.1157581558388
 30
0.0
 11
30063.29287243254
 21
-690.7824248225055
 31
0.0
 12
29983.29287243254
 22
-677.4490914891721
 32
0.0
 13
29983.29287243254
 23
-677.4490914891721
 33
0.0
  0
MTEXT
  5
10179
330
DC14
100
AcDbEntity
  8
SUNPOU
100
AcDbMText
 10
30247.29287243254
 20
-585.4490914891721
 30
0.0
 40
120.0
 41
0.0
 71
     5
 72
     1
  1
\A1;80
 73
     1
 44
1.0
  0
POINT
  5
1017A
330
DC14
100
AcDbEntity
  8
DEFPOINTS
 62
     0
100
AcDbPoint
 10
29903.29287243254
 20
-117.4490928891682
 30
0.0
  0
POINT
  5
1017B
330
DC14
100
AcDbEntity
  8
DEFPOINTS
 62
     0
100
AcDbPoint
 10
29983.29287243254
 20
-117.4490928891682
 30
0.0
  0
POINT
  5
1017C
330
DC14
100
AcDbEntity
  8
DEFPOINTS
 62
     0
100
AcDbPoint
 10
29983.29287243254
 20
-677.4490914891721
 30
0.0
  0
ENDBLK
  5
DC21
330
DC14
100
AcDbEntity
  8
0
100
AcDbBlockEnd
  0
BLOCK
  5
DC2E
330
DC22
100
AcDbEntity
  8
0
100
AcDbBlockBegin
  2
*D45
 70
     1
 10
0.0
 20
0.0
 30
0.0
  3
*D45
  1

  0
LINE
  5
10122
330
DC22
100
AcDbEntity
  8
SUNPOU
370
    -2
100
AcDbLine
 10
28903.29287243254
 20
-177.4490928891682
 30
0.0
 11
28903.29287243254
 21
-421.4490921891702
 31
0.0
  0
LINE
  5
10123
330
DC22
100
AcDbEntity
  8
SUNPOU
370
    -2
100
AcDbLine
 10
28983.29287243254
 20
-177.4490928891682
 30
0.0
 11
28983.29287243254
 21
-421.4490921891702
 31
0.0
  0
LINE
  5
10124
330
DC22
100
AcDbEntity
  8
SUNPOU
370
    -2
100
AcDbLine
 10
28823.29287243254
 20
-397.4490921891702
 30
0.0
 11
28743.29287243254
 21
-397.4490921891702
 31
0.0
  0
LINE
  5
10125
330
DC22
100
AcDbEntity
  8
SUNPOU
370
    -2
100
AcDbLine
 10
29063.29287243254
 20
-397.4490921891702
 30
0.0
 11
29351.29287243254
 21
-397.4490921891702
 31
0.0
  0
LINE
  5
10126
330
DC22
100
AcDbEntity
  8
SUNPOU
370
    -2
100
AcDbLine
 10
28903.29287243254
 20
-397.4490921891702
 30
0.0
 11
28983.29287243254
 21
-397.4490921891702
 31
0.0
  0
SOLID
  5
10127
330
DC22
100
AcDbEntity
  8
SUNPOU
100
AcDbTrace
 10
28823.29287243254
 20
-384.1157588558369
 30
0.0
 11
28823.29287243254
 21
-410.7824255225035
 31
0.0
 12
28903.29287243254
 22
-397.4490921891702
 32
0.0
 13
28903.29287243254
 23
-397.4490921891702
 33
0.0
  0
SOLID
  5
10128
330
DC22
100
AcDbEntity
  8
SUNPOU
100
AcDbTrace
 10
29063.29287243254
 20
-384.1157588558369
 30
0.0
 11
29063.29287243254
 21
-410.7824255225035
 31
0.0
 12
28983.29287243254
 22
-397.4490921891702
 32
0.0
 13
28983.29287243254
 23
-397.4490921891702
 33
0.0
  0
MTEXT
  5
10129
330
DC22
100
AcDbEntity
  8
SUNPOU
100
AcDbMText
 10
29247.29287243254
 20
-305.4490921891702
 30
0.0
 40
120.0
 41
0.0
 71
     5
 72
     1
  1
\A1;80
 73
     1
 44
1.0
  0
POINT
  5
1012A
330
DC22
100
AcDbEntity
  8
DEFPOINTS
 62
     0
100
AcDbPoint
 10
28903.29287243254
 20
-117.4490928891682
 30
0.0
  0
POINT
  5
1012B
330
DC22
100
AcDbEntity
  8
DEFPOINTS
 62
     0
100
AcDbPoint
 10
28983.29287243254
 20
-117.4490928891682
 30
0.0
  0
POINT
  5
1012C
330
DC22
100
AcDbEntity
  8
DEFPOINTS
 62
     0
100
AcDbPoint
 10
28983.29287243254
 20
-397.4490921891702
 30
0.0
  0
ENDBLK
  5
DC2F
330
DC22
100
AcDbEntity
  8
0
100
AcDbBlockEnd
  0
BLOCK
  5
DC3A
330
DC30
100
AcDbEntity
  8
0
100
AcDbBlockBegin
  2
*D46
 70
     1
 10
0.0
 20
0.0
 30
0.0
  3
*D46
  1

  0
LINE
  5
10190
330
DC30
100
AcDbEntity
  8
SUNPOU
370
    -2
100
AcDbLine
 10
21239.70454075908
 20
-177.4490928891682
 30
0.0
 11
21239.70454075908
 21
-981.4490907891741
 31
0.0
  0
LINE
  5
10191
330
DC30
100
AcDbEntity
  8
SUNPOU
370
    -2
100
AcDbLine
 10
26899.70454075908
 20
-177.4490928891682
 30
0.0
 11
26899.70454075908
 21
-981.4490907891741
 31
0.0
  0
LINE
  5
10192
330
DC30
100
AcDbEntity
  8
SUNPOU
370
    -2
100
AcDbLine
 10
21319.70454075908
 20
-957.4490907891741
 30
0.0
 11
26819.70454075908
 21
-957.4490907891741
 31
0.0
  0
SOLID
  5
10193
330
DC30
100
AcDbEntity
  8
SUNPOU
100
AcDbTrace
 10
21319.70454075908
 20
-944.1157574558407
 30
0.0
 11
21319.70454075908
 21
-970.7824241225075
 31
0.0
 12
21239.70454075908
 22
-957.4490907891741
 32
0.0
 13
21239.70454075908
 23
-957.4490907891741
 33
0.0
  0
SOLID
  5
10194
330
DC30
100
AcDbEntity
  8
SUNPOU
100
AcDbTrace
 10
26819.70454075908
 20
-944.1157574558407
 30
0.0
 11
26819.70454075908
 21
-970.7824241225075
 31
0.0
 12
26899.70454075908
 22
-957.4490907891741
 32
0.0
 13
26899.70454075908
 23
-957.4490907891741
 33
0.0
  0
MTEXT
  5
10195
330
DC30
100
AcDbEntity
  8
SUNPOU
100
AcDbMText
 10
24069.70454075908
 20
-865.4490907891741
 30
0.0
 40
120.0
 41
0.0
 71
     5
 72
     1
  1
\A1;5660
 73
     1
 44
1.0
  0
POINT
  5
10196
330
DC30
100
AcDbEntity
  8
DEFPOINTS
 62
     0
100
AcDbPoint
 10
21239.70454075908
 20
-117.4490928891682
 30
0.0
  0
POINT
  5
10197
330
DC30
100
AcDbEntity
  8
DEFPOINTS
 62
     0
100
AcDbPoint
 10
26899.70454075908
 20
-117.4490928891682
 30
0.0
  0
POINT
  5
10198
330
DC30
100
AcDbEntity
  8
DEFPOINTS
 62
     0
100
AcDbPoint
 10
26899.70454075908
 20
-957.4490907891741
 30
0.0
  0
ENDBLK
  5
DC3B
330
DC30
100
AcDbEntity
  8
0
100
AcDbBlockEnd
  0
BLOCK
  5
DC46
330
DC3C
100
AcDbEntity
  8
0
100
AcDbBlockBegin
  2
*D47
 70
     1
 10
0.0
 20
0.0
 30
0.0
  3
*D47
  1

  0
LINE
  5
10187
330
DC3C
100
AcDbEntity
  8
SUNPOU
370
    -2
100
AcDbLine
 10
26569.70454075908
 20
-177.4490928891682
 30
0.0
 11
26569.70454075908
 21
-701.4710052948697
 31
0.0
  0
LINE
  5
10188
330
DC3C
100
AcDbEntity
  8
SUNPOU
370
    -2
100
AcDbLine
 10
21569.70454075908
 20
-177.4490928891682
 30
0.0
 11
21569.70454075908
 21
-701.4710052948697
 31
0.0
  0
LINE
  5
10189
330
DC3C
100
AcDbEntity
  8
SUNPOU
370
    -2
100
AcDbLine
 10
26489.70454075908
 20
-677.4710052948697
 30
0.0
 11
21649.70454075908
 21
-677.4710052948697
 31
0.0
  0
SOLID
  5
1018A
330
DC3C
100
AcDbEntity
  8
SUNPOU
100
AcDbTrace
 10
26489.70454075908
 20
-664.1376719615363
 30
0.0
 11
26489.70454075908
 21
-690.804338628203
 31
0.0
 12
26569.70454075908
 22
-677.4710052948697
 32
0.0
 13
26569.70454075908
 23
-677.4710052948697
 33
0.0
  0
SOLID
  5
1018B
330
DC3C
100
AcDbEntity
  8
SUNPOU
100
AcDbTrace
 10
21649.70454075908
 20
-664.1376719615363
 30
0.0
 11
21649.70454075908
 21
-690.804338628203
 31
0.0
 12
21569.70454075908
 22
-677.4710052948697
 32
0.0
 13
21569.70454075908
 23
-677.4710052948697
 33
0.0
  0
MTEXT
  5
1018C
330
DC3C
100
AcDbEntity
  8
SUNPOU
100
AcDbMText
 10
24069.70454075908
 20
-585.4710052948697
 30
0.0
 40
120.0
 41
0.0
 71
     5
 72
     1
  1
\A1;5000
 73
     1
 44
1.0
  0
POINT
  5
1018D
330
DC3C
100
AcDbEntity
  8
DEFPOINTS
 62
     0
100
AcDbPoint
 10
26569.70454075908
 20
-117.4490928891682
 30
0.0
  0
POINT
  5
1018E
330
DC3C
100
AcDbEntity
  8
DEFPOINTS
 62
     0
100
AcDbPoint
 10
21569.70454075908
 20
-117.4490928891682
 30
0.0
  0
POINT
  5
1018F
330
DC3C
100
AcDbEntity
  8
DEFPOINTS
 62
     0
100
AcDbPoint
 10
21569.70454075908
 20
-677.4710052948697
 30
0.0
  0
ENDBLK
  5
DC47
330
DC3C
100
AcDbEntity
  8
0
100
AcDbBlockEnd
  0
BLOCK
  5
DC52
330
DC48
100
AcDbEntity
  8
0
100
AcDbBlockBegin
  2
*D48
 70
     1
 10
0.0
 20
0.0
 30
0.0
  3
*D48
  1

  0
LINE
  5
101A2
330
DC48
100
AcDbEntity
  8
SUNPOU
370
    -2
100
AcDbLine
 10
26569.70454075908
 20
-177.4490928891682
 30
0.0
 11
26569.70454075908
 21
-701.4490914891733
 31
0.0
  0
LINE
  5
101A3
330
DC48
100
AcDbEntity
  8
SUNPOU
370
    -2
100
AcDbLine
 10
26899.70454075908
 20
-177.4490928891682
 30
0.0
 11
26899.70454075908
 21
-701.4490914891733
 31
0.0
  0
LINE
  5
101A4
330
DC48
100
AcDbEntity
  8
SUNPOU
370
    -2
100
AcDbLine
 10
26649.70454075908
 20
-677.4490914891733
 30
0.0
 11
26819.70454075908
 21
-677.4490914891733
 31
0.0
  0
SOLID
  5
101A5
330
DC48
100
AcDbEntity
  8
SUNPOU
100
AcDbTrace
 10
26649.70454075908
 20
-664.1157581558399
 30
0.0
 11
26649.70454075908
 21
-690.7824248225066
 31
0.0
 12
26569.70454075908
 22
-677.4490914891733
 32
0.0
 13
26569.70454075908
 23
-677.4490914891733
 33
0.0
  0
SOLID
  5
101A6
330
DC48
100
AcDbEntity
  8
SUNPOU
100
AcDbTrace
 10
26819.70454075908
 20
-664.1157581558399
 30
0.0
 11
26819.70454075908
 21
-690.7824248225066
 31
0.0
 12
26899.70454075908
 22
-677.4490914891733
 32
0.0
 13
26899.70454075908
 23
-677.4490914891733
 33
0.0
  0
MTEXT
  5
101A7
330
DC48
100
AcDbEntity
  8
SUNPOU
100
AcDbMText
 10
26734.70454075908
 20
-585.4490914891733
 30
0.0
 40
120.0
 41
0.0
 71
     5
 72
     1
  1
\A1;330
 73
     1
 44
1.0
  0
POINT
  5
101A8
330
DC48
100
AcDbEntity
  8
DEFPOINTS
 62
     0
100
AcDbPoint
 10
26569.70454075908
 20
-117.4490928891682
 30
0.0
  0
POINT
  5
101A9
330
DC48
100
AcDbEntity
  8
DEFPOINTS
 62
     0
100
AcDbPoint
 10
26899.70454075908
 20
-117.4490928891682
 30
0.0
  0
POINT
  5
101AA
330
DC48
100
AcDbEntity
  8
DEFPOINTS
 62
     0
100
AcDbPoint
 10
26899.70454075908
 20
-677.4490914891733
 30
0.0
  0
ENDBLK
  5
DC53
330
DC48
100
AcDbEntity
  8
0
100
AcDbBlockEnd
  0
BLOCK
  5
DC5E
330
DC54
100
AcDbEntity
  8
0
100
AcDbBlockBegin
  2
*D49
 70
     1
 10
0.0
 20
0.0
 30
0.0
  3
*D49
  1

  0
LINE
  5
10199
330
DC54
100
AcDbEntity
  8
SUNPOU
370
    -2
100
AcDbLine
 10
21239.70454075908
 20
-177.4490928891682
 30
0.0
 11
21239.70454075908
 21
-701.4710052948697
 31
0.0
  0
LINE
  5
1019A
330
DC54
100
AcDbEntity
  8
SUNPOU
370
    -2
100
AcDbLine
 10
21569.70454075908
 20
-177.4490928891682
 30
0.0
 11
21569.70454075908
 21
-701.4710052948697
 31
0.0
  0
LINE
  5
1019B
330
DC54
100
AcDbEntity
  8
SUNPOU
370
    -2
100
AcDbLine
 10
21319.70454075908
 20
-677.4710052948697
 30
0.0
 11
21489.70454075908
 21
-677.4710052948697
 31
0.0
  0
SOLID
  5
1019C
330
DC54
100
AcDbEntity
  8
SUNPOU
100
AcDbTrace
 10
21319.70454075908
 20
-664.1376719615363
 30
0.0
 11
21319.70454075908
 21
-690.804338628203
 31
0.0
 12
21239.70454075908
 22
-677.4710052948697
 32
0.0
 13
21239.70454075908
 23
-677.4710052948697
 33
0.0
  0
SOLID
  5
1019D
330
DC54
100
AcDbEntity
  8
SUNPOU
100
AcDbTrace
 10
21489.70454075908
 20
-664.1376719615363
 30
0.0
 11
21489.70454075908
 21
-690.804338628203
 31
0.0
 12
21569.70454075908
 22
-677.4710052948697
 32
0.0
 13
21569.70454075908
 23
-677.4710052948697
 33
0.0
  0
MTEXT
  5
1019E
330
DC54
100
AcDbEntity
  8
SUNPOU
100
AcDbMText
 10
21404.70454075908
 20
-585.4710052948697
 30
0.0
 40
120.0
 41
0.0
 71
     5
 72
     1
  1
\A1;330
 73
     1
 44
1.0
  0
POINT
  5
1019F
330
DC54
100
AcDbEntity
  8
DEFPOINTS
 62
     0
100
AcDbPoint
 10
21239.70454075908
 20
-117.4490928891682
 30
0.0
  0
POINT
  5
101A0
330
DC54
100
AcDbEntity
  8
DEFPOINTS
 62
     0
100
AcDbPoint
 10
21569.70454075908
 20
-117.4490928891682
 30
0.0
  0
POINT
  5
101A1
330
DC54
100
AcDbEntity
  8
DEFPOINTS
 62
     0
100
AcDbPoint
 10
21569.70454075908
 20
-677.4710052948697
 30
0.0
  0
ENDBLK
  5
DC5F
330
DC54
100
AcDbEntity
  8
0
100
AcDbBlockEnd
  0
BLOCK
  5
DC6A
330
DC60
100
AcDbEntity
  8
0
100
AcDbBlockBegin
  2
*D50
 70
     1
 10
0.0
 20
0.0
 30
0.0
  3
*D50
  1

  0
LINE
  5
101AC
330
DC60
100
AcDbEntity
  8
SUNPOU
370
    -2
100
AcDbLine
 10
26959.70454075908
 20
2642.55090711083
 30
0.0
 11
27843.70454005909
 21
2642.550907110829
 31
0.0
  0
LINE
  5
101AD
330
DC60
100
AcDbEntity
  8
SUNPOU
370
    -2
100
AcDbLine
 10
26959.70454075908
 20
-117.4490928891683
 30
0.0
 11
27843.70454005909
 21
-117.4490928891685
 31
0.0
  0
LINE
  5
101AE
330
DC60
100
AcDbEntity
  8
SUNPOU
370
    -2
100
AcDbLine
 10
27819.70454005909
 20
2562.550907110829
 30
0.0
 11
27819.70454005909
 21
-37.4490928891685
 31
0.0
  0
SOLID
  5
101AF
330
DC60
100
AcDbEntity
  8
SUNPOU
100
AcDbTrace
 10
27806.37120672575
 20
2562.550907110829
 30
0.0
 11
27833.03787339242
 21
2562.550907110829
 31
0.0
 12
27819.70454005909
 22
2642.550907110829
 32
0.0
 13
27819.70454005909
 23
2642.550907110829
 33
0.0
  0
SOLID
  5
101B0
330
DC60
100
AcDbEntity
  8
SUNPOU
100
AcDbTrace
 10
27806.37120672575
 20
-37.4490928891685
 30
0.0
 11
27833.03787339242
 21
-37.44909288916851
 31
0.0
 12
27819.70454005909
 22
-117.4490928891685
 32
0.0
 13
27819.70454005909
 23
-117.4490928891685
 33
0.0
  0
MTEXT
  5
101B1
330
DC60
100
AcDbEntity
  8
SUNPOU
100
AcDbMText
 10
27727.70454005909
 20
1262.550907110835
 30
0.0
 40
120.0
 41
0.0
 71
     5
 72
     1
  1
\A1;2760
 11
6.123031769111886E-17
 21
1.0
 31
0.0
 73
     1
 44
1.0
  0
POINT
  5
101B2
330
DC60
100
AcDbEntity
  8
DEFPOINTS
 62
     0
100
AcDbPoint
 10
26899.70454075908
 20
2642.55090711083
 30
0.0
  0
POINT
  5
101B3
330
DC60
100
AcDbEntity
  8
DEFPOINTS
 62
     0
100
AcDbPoint
 10
26899.70454075908
 20
-117.4490928891682
 30
0.0
  0
POINT
  5
101B4
330
DC60
100
AcDbEntity
  8
DEFPOINTS
 62
     0
100
AcDbPoint
 10
27819.70454005909
 20
-117.4490928891685
 30
0.0
  0
ENDBLK
  5
DC6B
330
DC60
100
AcDbEntity
  8
0
100
AcDbBlockEnd
  0
BLOCK
  5
DC76
330
DC6C
100
AcDbEntity
  8
0
100
AcDbBlockBegin
  2
*D51
 70
     1
 10
0.0
 20
0.0
 30
0.0
  3
*D51
  1

  0
LINE
  5
101B5
330
DC6C
100
AcDbEntity
  8
SUNPOU
370
    -2
100
AcDbLine
 10
26959.70454075908
 20
262.5509071108299
 30
0.0
 11
27563.70454075909
 21
262.5509071108297
 31
0.0
  0
LINE
  5
101B6
330
DC6C
100
AcDbEntity
  8
SUNPOU
370
    -2
100
AcDbLine
 10
26959.70454075908
 20
2262.55090711083
 30
0.0
 11
27563.70454075909
 21
2262.55090711083
 31
0.0
  0
LINE
  5
101B7
330
DC6C
100
AcDbEntity
  8
SUNPOU
370
    -2
100
AcDbLine
 10
27539.70454075909
 20
342.5509071108297
 30
0.0
 11
27539.70454075909
 21
2182.55090711083
 31
0.0
  0
SOLID
  5
101B8
330
DC6C
100
AcDbEntity
  8
SUNPOU
100
AcDbTrace
 10
27526.37120742576
 20
342.5509071108297
 30
0.0
 11
27553.03787409242
 21
342.5509071108297
 31
0.0
 12
27539.70454075909
 22
262.5509071108297
 32
0.0
 13
27539.70454075909
 23
262.5509071108297
 33
0.0
  0
SOLID
  5
101B9
330
DC6C
100
AcDbEntity
  8
SUNPOU
100
AcDbTrace
 10
27526.37120742576
 20
2182.55090711083
 30
0.0
 11
27553.03787409242
 21
2182.55090711083
 31
0.0
 12
27539.70454075909
 22
2262.55090711083
 32
0.0
 13
27539.70454075909
 23
2262.55090711083
 33
0.0
  0
MTEXT
  5
101BA
330
DC6C
100
AcDbEntity
  8
SUNPOU
100
AcDbMText
 10
27447.70454075909
 20
1262.550907110834
 30
0.0
 40
120.0
 41
0.0
 71
     5
 72
     1
  1
\A1;2000
 11
6.123031769111886E-17
 21
1.0
 31
0.0
 73
     1
 44
1.0
  0
POINT
  5
101BB
330
DC6C
100
AcDbEntity
  8
DEFPOINTS
 62
     0
100
AcDbPoint
 10
26899.70454075908
 20
262.5509071108299
 30
0.0
  0
POINT
  5
101BC
330
DC6C
100
AcDbEntity
  8
DEFPOINTS
 62
     0
100
AcDbPoint
 10
26899.70454075908
 20
2262.55090711083
 30
0.0
  0
POINT
  5
101BD
330
DC6C
100
AcDbEntity
  8
DEFPOINTS
 62
     0
100
AcDbPoint
 10
27539.70454075909
 20
2262.55090711083
 30
0.0
  0
ENDBLK
  5
DC77
330
DC6C
100
AcDbEntity
  8
0
100
AcDbBlockEnd
  0
BLOCK
  5
DC82
330
DC78
100
AcDbEntity
  8
0
100
AcDbBlockBegin
  2
*D52
 70
     1
 10
0.0
 20
0.0
 30
0.0
  3
*D52
  1

  0
LINE
  5
101C9
330
DC78
100
AcDbEntity
  8
SUNPOU
370
    -2
100
AcDbLine
 10
26959.70454075908
 20
2262.55090711083
 30
0.0
 11
27563.70454075909
 21
2262.55090711083
 31
0.0
  0
LINE
  5
101CA
330
DC78
100
AcDbEntity
  8
SUNPOU
370
    -2
100
AcDbLine
 10
26959.70454075908
 20
2642.55090711083
 30
0.0
 11
27563.70454075909
 21
2642.55090711083
 31
0.0
  0
LINE
  5
101CB
330
DC78
100
AcDbEntity
  8
SUNPOU
370
    -2
100
AcDbLine
 10
27539.70454075909
 20
2342.55090711083
 30
0.0
 11
27539.70454075909
 21
2562.55090711083
 31
0.0
  0
SOLID
  5
101CC
330
DC78
100
AcDbEntity
  8
SUNPOU
100
AcDbTrace
 10
27526.37120742576
 20
2342.55090711083
 30
0.0
 11
27553.03787409242
 21
2342.55090711083
 31
0.0
 12
27539.70454075909
 22
2262.55090711083
 32
0.0
 13
27539.70454075909
 23
2262.55090711083
 33
0.0
  0
SOLID
  5
101CD
330
DC78
100
AcDbEntity
  8
SUNPOU
100
AcDbTrace
 10
27526.37120742576
 20
2562.55090711083
 30
0.0
 11
27553.03787409242
 21
2562.55090711083
 31
0.0
 12
27539.70454075909
 22
2642.55090711083
 32
0.0
 13
27539.70454075909
 23
2642.55090711083
 33
0.0
  0
MTEXT
  5
101CE
330
DC78
100
AcDbEntity
  8
SUNPOU
100
AcDbMText
 10
27447.70454075909
 20
2452.550907110834
 30
0.0
 40
120.0
 41
0.0
 71
     5
 72
     1
  1
\A1;380
 11
6.123031769111886E-17
 21
1.0
 31
0.0
 73
     1
 44
1.0
  0
POINT
  5
101CF
330
DC78
100
AcDbEntity
  8
DEFPOINTS
 62
     0
100
AcDbPoint
 10
26899.70454075908
 20
2262.55090711083
 30
0.0
  0
POINT
  5
101D0
330
DC78
100
AcDbEntity
  8
DEFPOINTS
 62
     0
100
AcDbPoint
 10
26899.70454075908
 20
2642.55090711083
 30
0.0
  0
POINT
  5
101D1
330
DC78
100
AcDbEntity
  8
DEFPOINTS
 62
     0
100
AcDbPoint
 10
27539.70454075909
 20
2642.55090711083
 30
0.0
  0
ENDBLK
  5
DC83
330
DC78
100
AcDbEntity
  8
0
100
AcDbBlockEnd
  0
BLOCK
  5
DC8E
330
DC84
100
AcDbEntity
  8
0
100
AcDbBlockBegin
  2
*D53
 70
     1
 10
0.0
 20
0.0
 30
0.0
  3
*D53
  1

  0
LINE
  5
101F0
330
DC84
100
AcDbEntity
  8
SUNPOU
370
    -2
100
AcDbLine
 10
26959.70454075908
 20
262.5509071108318
 30
0.0
 11
27563.70454075909
 21
262.5509071108315
 31
0.0
  0
LINE
  5
101F1
330
DC84
100
AcDbEntity
  8
SUNPOU
370
    -2
100
AcDbLine
 10
26959.70454075908
 20
-117.4490928891683
 30
0.0
 11
27563.70454075909
 21
-117.4490928891684
 31
0.0
  0
LINE
  5
101F2
330
DC84
100
AcDbEntity
  8
SUNPOU
370
    -2
100
AcDbLine
 10
27539.70454075909
 20
182.5509071108316
 30
0.0
 11
27539.70454075909
 21
-37.44909288916843
 31
0.0
  0
SOLID
  5
101F3
330
DC84
100
AcDbEntity
  8
SUNPOU
100
AcDbTrace
 10
27526.37120742576
 20
182.5509071108316
 30
0.0
 11
27553.03787409242
 21
182.5509071108316
 31
0.0
 12
27539.70454075909
 22
262.5509071108315
 32
0.0
 13
27539.70454075909
 23
262.5509071108315
 33
0.0
  0
SOLID
  5
101F4
330
DC84
100
AcDbEntity
  8
SUNPOU
100
AcDbTrace
 10
27526.37120742576
 20
-37.44909288916843
 30
0.0
 11
27553.03787409242
 21
-37.44909288916843
 31
0.0
 12
27539.70454075909
 22
-117.4490928891684
 32
0.0
 13
27539.70454075909
 23
-117.4490928891684
 33
0.0
  0
MTEXT
  5
101F5
330
DC84
100
AcDbEntity
  8
SUNPOU
100
AcDbMText
 10
27447.70454075909
 20
72.55090711083157
 30
0.0
 40
120.0
 41
0.0
 71
     5
 72
     1
  1
\A1;380
 11
6.123031769111886E-17
 21
1.0
 31
0.0
 73
     1
 44
1.0
  0
POINT
  5
101F6
330
DC84
100
AcDbEntity
  8
DEFPOINTS
 62
     0
100
AcDbPoint
 10
26899.70454075908
 20
262.5509071108318
 30
0.0
  0
POINT
  5
101F7
330
DC84
100
AcDbEntity
  8
DEFPOINTS
 62
     0
100
AcDbPoint
 10
26899.70454075908
 20
-117.4490928891682
 30
0.0
  0
POINT
  5
101F8
330
DC84
100
AcDbEntity
  8
DEFPOINTS
 62
     0
100
AcDbPoint
 10
27539.70454075909
 20
-117.4490928891684
 30
0.0
  0
ENDBLK
  5
DC8F
330
DC84
100
AcDbEntity
  8
0
100
AcDbBlockEnd
  0
BLOCK
  5
DC9C
330
DC90
100
AcDbEntity
  8
0
100
AcDbBlockBegin
  2
*D54
 70
     1
 10
0.0
 20
0.0
 30
0.0
  3
*D54
  1

  0
LINE
  5
FD3F
330
DC90
100
AcDbEntity
  8
SUNPOU
370
    -2
100
AcDbLine
 10
26959.70454075908
 20
5636.16379692493
 30
0.0
 11
27843.7656827755
 21
5636.16379692493
 31
0.0
  0
LINE
  5
FD40
330
DC90
100
AcDbEntity
  8
SUNPOU
370
    -2
100
AcDbLine
 10
26959.70454075908
 20
5556.16379692493
 30
0.0
 11
27843.7656827755
 21
5556.16379692493
 31
0.0
  0
LINE
  5
FD41
330
DC90
100
AcDbEntity
  8
SUNPOU
370
    -2
100
AcDbLine
 10
27819.7656827755
 20
5476.16379692493
 30
0.0
 11
27819.7656827755
 21
5396.16379692493
 31
0.0
  0
LINE
  5
FD42
330
DC90
100
AcDbEntity
  8
SUNPOU
370
    -2
100
AcDbLine
 10
27819.7656827755
 20
5716.16379692493
 30
0.0
 11
27819.7656827755
 21
6004.16379692493
 31
0.0
  0
LINE
  5
FD43
330
DC90
100
AcDbEntity
  8
SUNPOU
370
    -2
100
AcDbLine
 10
27819.7656827755
 20
5556.16379692493
 30
0.0
 11
27819.7656827755
 21
5636.16379692493
 31
0.0
  0
SOLID
  5
FD44
330
DC90
100
AcDbEntity
  8
SUNPOU
100
AcDbTrace
 10
27806.43234944217
 20
5476.16379692493
 30
0.0
 11
27833.09901610883
 21
5476.16379692493
 31
0.0
 12
27819.7656827755
 22
5556.16379692493
 32
0.0
 13
27819.7656827755
 23
5556.16379692493
 33
0.0
  0
SOLID
  5
FD45
330
DC90
100
AcDbEntity
  8
SUNPOU
100
AcDbTrace
 10
27806.43234944217
 20
5716.16379692493
 30
0.0
 11
27833.09901610883
 21
5716.16379692493
 31
0.0
 12
27819.7656827755
 22
5636.16379692493
 32
0.0
 13
27819.7656827755
 23
5636.16379692493
 33
0.0
  0
MTEXT
  5
FD46
330
DC90
100
AcDbEntity
  8
SUNPOU
100
AcDbMText
 10
27727.7656827755
 20
5900.163796924934
 30
0.0
 40
120.0
 41
0.0
 71
     5
 72
     1
  1
\A1;80
 11
6.123031769111886E-17
 21
1.0
 31
0.0
 73
     1
 44
1.0
  0
POINT
  5
FD47
330
DC90
100
AcDbEntity
  8
DEFPOINTS
 62
     0
100
AcDbPoint
 10
26899.70454075908
 20
5636.16379692493
 30
0.0
  0
POINT
  5
FD48
330
DC90
100
AcDbEntity
  8
DEFPOINTS
 62
     0
100
AcDbPoint
 10
26899.70454075908
 20
5556.16379692493
 30
0.0
  0
POINT
  5
FD49
330
DC90
100
AcDbEntity
  8
DEFPOINTS
 62
     0
100
AcDbPoint
 10
27819.7656827755
 20
5556.16379692493
 30
0.0
  0
ENDBLK
  5
DC9D
330
DC90
100
AcDbEntity
  8
0
100
AcDbBlockEnd
  0
BLOCK
  5
DCA8
330
DC9E
100
AcDbEntity
  8
0
100
AcDbBlockBegin
  2
*D55
 70
     1
 10
0.0
 20
0.0
 30
0.0
  3
*D55
  1

  0
LINE
  5
FD36
330
DC9E
100
AcDbEntity
  8
SUNPOU
370
    -2
100
AcDbLine
 10
26779.70454075908
 20
4556.16379692493
 30
0.0
 11
27843.70454005909
 21
4556.16379692493
 31
0.0
  0
LINE
  5
FD37
330
DC9E
100
AcDbEntity
  8
SUNPOU
370
    -2
100
AcDbLine
 10
26959.70454075908
 20
5556.16379692493
 30
0.0
 11
27843.70454005909
 21
5556.16379692493
 31
0.0
  0
LINE
  5
FD38
330
DC9E
100
AcDbEntity
  8
SUNPOU
370
    -2
100
AcDbLine
 10
27819.70454005909
 20
4636.16379692493
 30
0.0
 11
27819.70454005909
 21
5476.16379692493
 31
0.0
  0
SOLID
  5
FD39
330
DC9E
100
AcDbEntity
  8
SUNPOU
100
AcDbTrace
 10
27806.37120672575
 20
4636.16379692493
 30
0.0
 11
27833.03787339242
 21
4636.16379692493
 31
0.0
 12
27819.70454005909
 22
4556.16379692493
 32
0.0
 13
27819.70454005909
 23
4556.16379692493
 33
0.0
  0
SOLID
  5
FD3A
330
DC9E
100
AcDbEntity
  8
SUNPOU
100
AcDbTrace
 10
27806.37120672575
 20
5476.16379692493
 30
0.0
 11
27833.03787339242
 21
5476.16379692493
 31
0.0
 12
27819.70454005909
 22
5556.16379692493
 32
0.0
 13
27819.70454005909
 23
5556.16379692493
 33
0.0
  0
MTEXT
  5
FD3B
330
DC9E
100
AcDbEntity
  8
SUNPOU
100
AcDbMText
 10
27727.70454005909
 20
5056.163796924935
 30
0.0
 40
120.0
 41
0.0
 71
     5
 72
     1
  1
\A1;1000
 11
6.123031769111886E-17
 21
1.0
 31
0.0
 73
     1
 44
1.0
  0
POINT
  5
FD3C
330
DC9E
100
AcDbEntity
  8
DEFPOINTS
 62
     0
100
AcDbPoint
 10
26719.70454075908
 20
4556.16379692493
 30
0.0
  0
POINT
  5
FD3D
330
DC9E
100
AcDbEntity
  8
DEFPOINTS
 62
     0
100
AcDbPoint
 10
26899.70454075908
 20
5556.16379692493
 30
0.0
  0
POINT
  5
FD3E
330
DC9E
100
AcDbEntity
  8
DEFPOINTS
 62
     0
100
AcDbPoint
 10
27819.70454005909
 20
5556.16379692493
 30
0.0
  0
ENDBLK
  5
DCA9
330
DC9E
100
AcDbEntity
  8
0
100
AcDbBlockEnd
  0
BLOCK
  5
DCB6
330
DCAA
100
AcDbEntity
  8
0
100
AcDbBlockBegin
  2
*D56
 70
     1
 10
0.0
 20
0.0
 30
0.0
  3
*D56
  1

  0
LINE
  5
FD2B
330
DCAA
100
AcDbEntity
  8
SUNPOU
370
    -2
100
AcDbLine
 10
26959.70454075908
 20
4636.16379692493
 30
0.0
 11
27563.70454005909
 21
4636.16379692493
 31
0.0
  0
LINE
  5
FD2C
330
DCAA
100
AcDbEntity
  8
SUNPOU
370
    -2
100
AcDbLine
 10
26779.70454075908
 20
4556.16379692493
 30
0.0
 11
27563.70454005909
 21
4556.16379692493
 31
0.0
  0
LINE
  5
FD2D
330
DCAA
100
AcDbEntity
  8
SUNPOU
370
    -2
100
AcDbLine
 10
27539.70454005909
 20
4716.16379692493
 30
0.0
 11
27539.70454005909
 21
4796.16379692493
 31
0.0
  0
LINE
  5
FD2E
330
DCAA
100
AcDbEntity
  8
SUNPOU
370
    -2
100
AcDbLine
 10
27539.70454005909
 20
4476.16379692493
 30
0.0
 11
27539.70454005909
 21
4188.16379692493
 31
0.0
  0
LINE
  5
FD2F
330
DCAA
100
AcDbEntity
  8
SUNPOU
370
    -2
100
AcDbLine
 10
27539.70454005909
 20
4636.16379692493
 30
0.0
 11
27539.70454005909
 21
4556.16379692493
 31
0.0
  0
SOLID
  5
FD30
330
DCAA
100
AcDbEntity
  8
SUNPOU
100
AcDbTrace
 10
27526.37120672575
 20
4716.16379692493
 30
0.0
 11
27553.03787339242
 21
4716.16379692493
 31
0.0
 12
27539.70454005909
 22
4636.16379692493
 32
0.0
 13
27539.70454005909
 23
4636.16379692493
 33
0.0
  0
SOLID
  5
FD31
330
DCAA
100
AcDbEntity
  8
SUNPOU
100
AcDbTrace
 10
27526.37120672575
 20
4476.16379692493
 30
0.0
 11
27553.03787339242
 21
4476.16379692493
 31
0.0
 12
27539.70454005909
 22
4556.16379692493
 32
0.0
 13
27539.70454005909
 23
4556.16379692493
 33
0.0
  0
MTEXT
  5
FD32
330
DCAA
100
AcDbEntity
  8
SUNPOU
100
AcDbMText
 10
27447.70454005909
 20
4292.163796924935
 30
0.0
 40
120.0
 41
0.0
 71
     5
 72
     1
  1
\A1;80
 11
6.123031769111886E-17
 21
1.0
 31
0.0
 73
     1
 44
1.0
  0
POINT
  5
FD33
330
DCAA
100
AcDbEntity
  8
DEFPOINTS
 62
     0
100
AcDbPoint
 10
26899.70454075908
 20
4636.16379692493
 30
0.0
  0
POINT
  5
FD34
330
DCAA
100
AcDbEntity
  8
DEFPOINTS
 62
     0
100
AcDbPoint
 10
26719.70454075908
 20
4556.16379692493
 30
0.0
  0
POINT
  5
FD35
330
DCAA
100
AcDbEntity
  8
DEFPOINTS
 62
     0
100
AcDbPoint
 10
27539.70454005909
 20
4556.16379692493
 30
0.0
  0
ENDBLK
  5
DCB7
330
DCAA
100
AcDbEntity
  8
0
100
AcDbBlockEnd
  0
BLOCK
  5
DCC2
330
DCB8
100
AcDbEntity
  8
0
100
AcDbBlockBegin
  2
*D57
 70
     1
 10
0.0
 20
0.0
 30
0.0
  3
*D57
  1

  0
LINE
  5
10136
330
DCB8
100
AcDbEntity
  8
SUNPOU
370
    -2
100
AcDbLine
 10
26489.70454075908
 20
1962.55090711083
 30
0.0
 11
26021.84108547509
 21
1962.55090711083
 31
0.0
  0
LINE
  5
10137
330
DCB8
100
AcDbEntity
  8
SUNPOU
370
    -2
100
AcDbLine
 10
26189.70454075908
 20
2262.55090711083
 30
0.0
 11
26021.84108547509
 21
2262.55090711083
 31
0.0
  0
LINE
  5
10138
330
DCB8
100
AcDbEntity
  8
SUNPOU
 62
     0
370
    -2
100
AcDbLine
 10
26061.84108547509
 20
2042.55090711083
 30
0.0
 11
26061.84108547509
 21
2182.55090711083
 31
0.0
  0
SOLID
  5
10139
330
DCB8
100
AcDbEntity
  8
SUNPOU
 62
     0
100
AcDbTrace
 10
26048.50775214176
 20
2042.55090711083
 30
0.0
 11
26075.17441880843
 21
2042.55090711083
 31
0.0
 12
26061.84108547509
 22
1962.55090711083
 32
0.0
 13
26061.84108547509
 23
1962.55090711083
 33
0.0
  0
SOLID
  5
1013A
330
DCB8
100
AcDbEntity
  8
SUNPOU
 62
     0
100
AcDbTrace
 10
26048.50775214176
 20
2182.55090711083
 30
0.0
 11
26075.17441880843
 21
2182.55090711083
 31
0.0
 12
26061.84108547509
 22
2262.55090711083
 32
0.0
 13
26061.84108547509
 23
2262.55090711083
 33
0.0
  0
MTEXT
  5
1013B
330
DCB8
100
AcDbEntity
  8
SUNPOU
 62
     0
100
AcDbMText
 10
25979.84108547509
 20
2112.550907110834
 30
0.0
 40
100.0
 41
0.0
 71
     5
 72
     1
  1
\A1;300
 11
6.123031769111886E-17
 21
1.0
 31
0.0
 73
     1
 44
1.0
  0
POINT
  5
1013C
330
DCB8
100
AcDbEntity
  8
DEFPOINTS
 62
     0
100
AcDbPoint
 10
26569.70454075908
 20
1962.55090711083
 30
0.0
  0
POINT
  5
1013D
330
DCB8
100
AcDbEntity
  8
DEFPOINTS
 62
     0
100
AcDbPoint
 10
26269.70454075908
 20
2262.55090711083
 30
0.0
  0
POINT
  5
1013E
330
DCB8
100
AcDbEntity
  8
DEFPOINTS
 62
     0
100
AcDbPoint
 10
26061.84108547509
 20
2262.55090711083
 30
0.0
  0
ENDBLK
  5
DCC3
330
DCB8
100
AcDbEntity
  8
0
100
AcDbBlockEnd
  0
BLOCK
  5
DCCE
330
DCC4
100
AcDbEntity
  8
0
100
AcDbBlockBegin
  2
*D58
 70
     1
 10
0.0
 20
0.0
 30
0.0
  3
*D58
  1

  0
LINE
  5
1012D
330
DCC4
100
AcDbEntity
  8
SUNPOU
370
    -2
100
AcDbLine
 10
26269.70454075908
 20
2182.55090711083
 30
0.0
 11
26269.70454075908
 21
1714.687451826841
 31
0.0
  0
LINE
  5
1012E
330
DCC4
100
AcDbEntity
  8
SUNPOU
370
    -2
100
AcDbLine
 10
26569.70454075908
 20
1882.55090711083
 30
0.0
 11
26569.70454075908
 21
1714.687451826841
 31
0.0
  0
LINE
  5
1012F
330
DCC4
100
AcDbEntity
  8
SUNPOU
 62
     0
370
    -2
100
AcDbLine
 10
26349.70454075908
 20
1754.687451826841
 30
0.0
 11
26489.70454075908
 21
1754.687451826841
 31
0.0
  0
SOLID
  5
10130
330
DCC4
100
AcDbEntity
  8
SUNPOU
 62
     0
100
AcDbTrace
 10
26349.70454075908
 20
1768.020785160175
 30
0.0
 11
26349.70454075908
 21
1741.354118493508
 31
0.0
 12
26269.70454075908
 22
1754.687451826841
 32
0.0
 13
26269.70454075908
 23
1754.687451826841
 33
0.0
  0
SOLID
  5
10131
330
DCC4
100
AcDbEntity
  8
SUNPOU
 62
     0
100
AcDbTrace
 10
26489.70454075908
 20
1768.020785160175
 30
0.0
 11
26489.70454075908
 21
1741.354118493508
 31
0.0
 12
26569.70454075908
 22
1754.687451826841
 32
0.0
 13
26569.70454075908
 23
1754.687451826841
 33
0.0
  0
MTEXT
  5
10132
330
DCC4
100
AcDbEntity
  8
SUNPOU
 62
     0
100
AcDbMText
 10
26419.70454075908
 20
1836.687451826841
 30
0.0
 40
100.0
 41
0.0
 71
     5
 72
     1
  1
\A1;300
 73
     1
 44
1.0
  0
POINT
  5
10133
330
DCC4
100
AcDbEntity
  8
DEFPOINTS
 62
     0
100
AcDbPoint
 10
26269.70454075908
 20
2262.55090711083
 30
0.0
  0
POINT
  5
10134
330
DCC4
100
AcDbEntity
  8
DEFPOINTS
 62
     0
100
AcDbPoint
 10
26569.70454075908
 20
1962.55090711083
 30
0.0
  0
POINT
  5
10135
330
DCC4
100
AcDbEntity
  8
DEFPOINTS
 62
     0
100
AcDbPoint
 10
26569.70454075908
 20
1754.687451826841
 30
0.0
  0
ENDBLK
  5
DCCF
330
DCC4
100
AcDbEntity
  8
0
100
AcDbBlockEnd
  0
BLOCK
  5
EA74
330
EA68
100
AcDbEntity
  8
0
100
AcDbBlockBegin
  2
*D59
 70
     1
 10
0.0
 20
0.0
 30
0.0
  3
*D59
  1

  0
LINE
  5
100C0
330
EA68
100
AcDbEntity
  8
SUNPOU
370
    -2
100
AcDbLine
 10
28923.29287243254
 20
-117.4490928891682
 30
0.0
 11
28487.00752042768
 21
-117.4490928891681
 31
0.0
  0
LINE
  5
100C1
330
EA68
100
AcDbEntity
  8
SUNPOU
370
    -2
100
AcDbLine
 10
28923.29287243254
 20
22.55090711083177
 30
0.0
 11
28487.00752042768
 21
22.5509071108319
 31
0.0
  0
LINE
  5
100C2
330
EA68
100
AcDbEntity
  8
SUNPOU
370
    -2
100
AcDbLine
 10
28511.00752042768
 20
22.55090711083189
 30
0.0
 11
28511.00752042768
 21
182.5509071108319
 31
0.0
  0
LINE
  5
100C3
330
EA68
100
AcDbEntity
  8
SUNPOU
370
    -2
100
AcDbLine
 10
28511.00752042768
 20
-197.4490928891681
 30
0.0
 11
28511.00752042768
 21
-549.4490928891682
 31
0.0
  0
LINE
  5
100C4
330
EA68
100
AcDbEntity
  8
SUNPOU
370
    -2
100
AcDbLine
 10
28511.00752042768
 20
22.55090711083189
 30
0.0
 11
28511.00752042768
 21
-117.4490928891681
 31
0.0
  0
INSERT
  5
100C5
330
EA68
100
AcDbEntity
  8
SUNPOU
370
    -2
100
AcDbBlockReference
  2
_DotSmall
 10
28511.00752042768
 20
22.55090711083189
 30
0.0
 41
80.0
 42
80.0
 43
80.0
 50
270.0
  0
SOLID
  5
100C6
330
EA68
100
AcDbEntity
  8
SUNPOU
100
AcDbTrace
 10
28497.67418709435
 20
-197.4490928891681
 30
0.0
 11
28524.34085376102
 21
-197.4490928891681
 31
0.0
 12
28511.00752042768
 22
-117.4490928891681
 32
0.0
 13
28511.00752042768
 23
-117.4490928891681
 33
0.0
  0
MTEXT
  5
100C7
330
EA68
100
AcDbEntity
  8
SUNPOU
100
AcDbMText
 10
28419.00752042768
 20
-413.4490928891637
 30
0.0
 40
120.0
 41
0.0
 71
     5
 72
     1
  1
\A1;140
 11
6.123031769111886E-17
 21
1.0
 31
0.0
 73
     1
 44
1.0
  0
POINT
  5
100C8
330
EA68
100
AcDbEntity
  8
DEFPOINTS
 62
     0
100
AcDbPoint
 10
28983.29287243254
 20
-117.4490928891682
 30
0.0
  0
POINT
  5
100C9
330
EA68
100
AcDbEntity
  8
DEFPOINTS
 62
     0
100
AcDbPoint
 10
28983.29287243254
 20
22.55090711083176
 30
0.0
  0
POINT
  5
100CA
330
EA68
100
AcDbEntity
  8
DEFPOINTS
 62
     0
100
AcDbPoint
 10
28511.00752042768
 20
22.55090711083189
 30
0.0
  0
ENDBLK
  5
EA75
330
EA68
100
AcDbEntity
  8
0
100
AcDbBlockEnd
  0
ENDSEC
  0
SECTION
  2
ENTITIES
  0
TEXT
  5
416
330
17
100
AcDbEntity
  8
SUNPOU
100
AcDbText
 10
5150.0
 20
4155.536076919234
 30
0.0
 40
150.0
  1

 72
     1
 11
5150.0
 21
4155.536076919234
 31
0.0
100
AcDbText
  0
TEXT
  5
6D79
330
17
100
AcDbEntity
  8
SUNPOU
100
AcDbText
 10
16032.94782817519
 20
4057.622502763472
 30
0.0
 40
90.0
  1

 72
     1
 11
16032.94782817519
 21
4057.622502763472
 31
0.0
100
AcDbText
  0
LINE
  5
D854
330
17
100
AcDbEntity
  8
SEIHIN
100
AcDbLine
 10
21399.70454075908
 20
4636.16379692493
 30
0.0
 11
21419.70454075907
 21
4556.163796924932
 31
0.0
  0
LINE
  5
D855
330
17
100
AcDbEntity
  8
HASEN
100
AcDbLine
 10
21554.70454075908
 20
5556.16379692493
 30
0.0
 11
21569.70454075907
 21
5544.163796924931
 31
0.0
  0
LINE
  5
D856
330
17
100
AcDbEntity
  8
HASEN
100
AcDbLine
 10
21389.70454075908
 20
5636.163796924928
 30
0.0
 11
21409.70454075909
 21
5556.16379692493
 31
0.0
  0
LINE
  5
D858
330
17
100
AcDbEntity
  8
PC
100
AcDbLine
 10
29700.79287243253
 20
182.5509071108318
 30
0.0
 11
29805.79287243253
 21
182.5509071108318
 31
0.0
  0
LINE
  5
D859
330
17
100
AcDbEntity
  8
PC
100
AcDbLine
 10
29753.29287243254
 20
130.0509071108318
 30
0.0
 11
29753.29287243254
 21
235.0509071108318
 31
0.0
  0
CIRCLE
  5
D85A
330
17
100
AcDbEntity
  8
PC
100
AcDbCircle
 10
29753.29287243253
 20
182.5509071108318
 30
0.0
 40
52.5
  0
CIRCLE
  5
D85B
330
17
100
AcDbEntity
  8
PC
100
AcDbCircle
 10
29753.29287243253
 20
22.55090711083176
 30
0.0
 40
52.5
  0
LINE
  5
D85C
330
17
100
AcDbEntity
  8
PC
100
AcDbLine
 10
29753.29287243254
 20
-29.94909288916824
 30
0.0
 11
29753.29287243254
 21
75.05090711083176
 31
0.0
  0
LINE
  5
D85D
330
17
100
AcDbEntity
  8
PC
100
AcDbLine
 10
29700.79287243253
 20
22.55090711083176
 30
0.0
 11
29805.79287243253
 21
22.55090711083176
 31
0.0
  0
LINE
  5
D85E
330
17
100
AcDbEntity
  8
PC
100
AcDbLine
 10
29390.79287243253
 20
22.55090711083176
 30
0.0
 11
29495.79287243253
 21
22.55090711083176
 31
0.0
  0
LINE
  5
D85F
330
17
100
AcDbEntity
  8
PC
100
AcDbLine
 10
29443.29287243254
 20
-29.94909288916824
 30
0.0
 11
29443.29287243254
 21
75.05090711083176
 31
0.0
  0
CIRCLE
  5
D860
330
17
100
AcDbEntity
  8
PC
100
AcDbCircle
 10
29443.29287243253
 20
22.55090711083176
 30
0.0
 40
52.5
  0
CIRCLE
  5
D861
330
17
100
AcDbEntity
  8
PC
100
AcDbCircle
 10
29443.29287243253
 20
182.5509071108318
 30
0.0
 40
52.5
  0
LINE
  5
D862
330
17
100
AcDbEntity
  8
PC
100
AcDbLine
 10
29443.29287243254
 20
130.0509071108318
 30
0.0
 11
29443.29287243254
 21
235.0509071108318
 31
0.0
  0
LINE
  5
D863
330
17
100
AcDbEntity
  8
PC
100
AcDbLine
 10
29390.79287243253
 20
182.5509071108318
 30
0.0
 11
29495.79287243253
 21
182.5509071108318
 31
0.0
  0
LINE
  5
D864
330
17
100
AcDbEntity
  8
PC
100
AcDbLine
 10
29080.79287243253
 20
182.5509071108318
 30
0.0
 11
29185.79287243253
 21
182.5509071108318
 31
0.0
  0
LINE
  5
D865
330
17
100
AcDbEntity
  8
PC
100
AcDbLine
 10
29133.29287243254
 20
130.0509071108318
 30
0.0
 11
29133.29287243254
 21
235.0509071108318
 31
0.0
  0
CIRCLE
  5
D866
330
17
100
AcDbEntity
  8
PC
100
AcDbCircle
 10
29133.29287243253
 20
182.5509071108318
 30
0.0
 40
52.5
  0
CIRCLE
  5
D867
330
17
100
AcDbEntity
  8
PC
100
AcDbCircle
 10
29133.29287243253
 20
22.55090711083176
 30
0.0
 40
52.5
  0
LINE
  5
D868
330
17
100
AcDbEntity
  8
PC
100
AcDbLine
 10
29700.79287243254
 20
2342.550907110831
 30
0.0
 11
29805.79287243254
 21
2342.550907110831
 31
0.0
  0
LINE
  5
D869
330
17
100
AcDbEntity
  8
PC
100
AcDbLine
 10
29753.29287243254
 20
2395.050907110831
 30
0.0
 11
29753.29287243254
 21
2290.050907110831
 31
0.0
  0
CIRCLE
  5
D86A
330
17
100
AcDbEntity
  8
PC
100
AcDbCircle
 10
29753.29287243254
 20
2342.550907110831
 30
0.0
 40
52.5
  0
CIRCLE
  5
D86B
330
17
100
AcDbEntity
  8
PC
100
AcDbCircle
 10
29753.29287243254
 20
2502.550907110831
 30
0.0
 40
52.5
  0
LINE
  5
D86C
330
17
100
AcDbEntity
  8
PC
100
AcDbLine
 10
29753.29287243254
 20
2555.050907110831
 30
0.0
 11
29753.29287243254
 21
2450.050907110831
 31
0.0
  0
LINE
  5
D86D
330
17
100
AcDbEntity
  8
PC
100
AcDbLine
 10
29700.79287243254
 20
2502.550907110831
 30
0.0
 11
29805.79287243254
 21
2502.550907110831
 31
0.0
  0
LINE
  5
D86E
330
17
100
AcDbEntity
  8
PC
100
AcDbLine
 10
29390.79287243254
 20
2502.550907110831
 30
0.0
 11
29495.79287243254
 21
2502.550907110831
 31
0.0
  0
LINE
  5
D86F
330
17
100
AcDbEntity
  8
PC
100
AcDbLine
 10
29443.29287243254
 20
2555.050907110831
 30
0.0
 11
29443.29287243254
 21
2450.050907110831
 31
0.0
  0
CIRCLE
  5
D870
330
17
100
AcDbEntity
  8
PC
100
AcDbCircle
 10
29443.29287243254
 20
2502.550907110831
 30
0.0
 40
52.5
  0
CIRCLE
  5
D871
330
17
100
AcDbEntity
  8
PC
100
AcDbCircle
 10
29443.29287243254
 20
2342.550907110831
 30
0.0
 40
52.5
  0
LINE
  5
D872
330
17
100
AcDbEntity
  8
PC
100
AcDbLine
 10
29443.29287243254
 20
2395.050907110831
 30
0.0
 11
29443.29287243254
 21
2290.050907110831
 31
0.0
  0
LINE
  5
D873
330
17
100
AcDbEntity
  8
PC
100
AcDbLine
 10
29390.79287243254
 20
2342.550907110831
 30
0.0
 11
29495.79287243254
 21
2342.550907110831
 31
0.0
  0
LINE
  5
D874
330
17
100
AcDbEntity
  8
PC
100
AcDbLine
 10
29080.79287243254
 20
2342.550907110831
 30
0.0
 11
29185.79287243254
 21
2342.550907110831
 31
0.0
  0
LINE
  5
D875
330
17
100
AcDbEntity
  8
PC
100
AcDbLine
 10
29133.29287243254
 20
2395.050907110831
 30
0.0
 11
29133.29287243254
 21
2290.050907110831
 31
0.0
  0
CIRCLE
  5
D876
330
17
100
AcDbEntity
  8
PC
100
AcDbCircle
 10
29133.29287243254
 20
2342.550907110831
 30
0.0
 40
52.5
  0
CIRCLE
  5
D877
330
17
100
AcDbEntity
  8
PC
100
AcDbCircle
 10
29133.29287243254
 20
2502.550907110831
 30
0.0
 40
52.5
  0
LINE
  5
D878
330
17
100
AcDbEntity
  8
PC
  6
HIDDEN
 48
0.4
100
AcDbLine
 10
26799.70454075908
 20
4821.163796924926
 30
0.0
 11
26899.70454075908
 21
4838.663796924926
 31
0.0
  0
LINE
  5
D879
330
17
100
AcDbEntity
  8
PC
  6
HIDDEN
 48
0.4
100
AcDbLine
 10
26799.70454075908
 20
4751.163796924926
 30
0.0
 11
26899.70454075908
 21
4733.663796924926
 31
0.0
  0
LINE
  5
D87A
330
17
100
AcDbEntity
  8
PC
  6
HIDDEN
 48
0.4
100
AcDbLine
 10
26799.70454075908
 20
4821.163796924924
 30
0.0
 11
26799.70454075908
 21
4751.163796924924
 31
0.0
  0
LINE
  5
D87B
330
17
100
AcDbEntity
  8
PC
  6
HIDDEN
 48
0.4
100
AcDbLine
 10
26799.70454075908
 20
5131.163796924926
 30
0.0
 11
26899.70454075908
 21
5148.663796924926
 31
0.0
  0
LINE
  5
D87C
330
17
100
AcDbEntity
  8
PC
  6
HIDDEN
 48
0.4
100
AcDbLine
 10
26799.70454075908
 20
5061.163796924926
 30
0.0
 11
26899.70454075908
 21
5043.663796924926
 31
0.0
  0
LINE
  5
D87D
330
17
100
AcDbEntity
  8
PC
  6
HIDDEN
 48
0.4
100
AcDbLine
 10
26799.70454075908
 20
5131.163796924924
 30
0.0
 11
26799.70454075908
 21
5061.163796924924
 31
0.0
  0
LINE
  5
D882
330
17
100
AcDbEntity
  8
SUNPOU
100
AcDbLine
 10
28789.23019708947
 20
3588.541336777713
 30
0.0
 11
30048.72206877769
 21
3588.541336777713
 31
0.0
  0
DIMENSION
  5
D883
330
17
100
AcDbEntity
  8
SUNPOU
100
AcDbDimension
  2
*D1
 10
27259.70454075908
 20
5636.16379692493
 30
0.0
 11
27259.70454075908
 21
5868.163796924934
 31
0.0
 70
   160
 71
     5
 42
230.0
  3
1-40
100
AcDbAlignedDimension
 13
26899.70454075908
 23
5406.16379692493
 33
0.0
 14
26899.70454075908
 24
5636.16379692493
 34
0.0
 50
90.0
100
AcDbRotatedDimension
  0
TEXT
  5
D884
330
17
100
AcDbEntity
  8
SUNPOU
100
AcDbText
 10
31826.37120853408
 20
-1700.502869566733
 30
0.0
 40
139.99999965
  1
名　   　称
 72
     4
 11
32269.70454075908
 21
-1630.502869741733
 31
0.0
100
AcDbText
  0
LINE
  5
D885
330
17
100
AcDbEntity
  8
HAIKIN
100
AcDbLine
 10
31669.70454075908
 20
-1510.502869741733
 30
0.0
 11
31669.70454075908
 21
-3323.836203075067
 31
0.0
  0
LINE
  5
D886
330
17
100
AcDbEntity
  8
HAIKIN
100
AcDbLine
 10
31669.70454075908
 20
-1510.502869741733
 30
0.0
 11
36469.70454075908
 21
-1510.502869741733
 31
0.0
  0
LINE
  5
D887
330
17
100
AcDbEntity
  8
SUNPOU
100
AcDbLine
 10
31669.70454075908
 20
-1750.502869741733
 30
0.0
 11
36469.70454075908
 21
-1750.502869741733
 31
0.0
  0
LINE
  5
D888
330
17
100
AcDbEntity
  8
SUNPOU
100
AcDbLine
 10
31669.70454075908
 20
-1990.502869741733
 30
0.0
 11
36469.70454075908
 21
-1990.502869741733
 31
0.0
  0
LINE
  5
D889
330
17
100
AcDbEntity
  8
SUNPOU
100
AcDbLine
 10
31669.70454075908
 20
-2230.502869741733
 30
0.0
 11
36469.70454075908
 21
-2230.502869741733
 31
0.0
  0
LINE
  5
D88A
330
17
100
AcDbEntity
  8
SUNPOU
100
AcDbLine
 10
31669.70454075908
 20
-2470.502869741733
 30
0.0
 11
36469.70454075908
 21
-2470.502869741733
 31
0.0
  0
LINE
  5
D88B
330
17
100
AcDbEntity
  8
SUNPOU
100
AcDbLine
 10
31669.70454075908
 20
-2777.169536408401
 30
0.0
 11
36469.70454075908
 21
-2777.169536408401
 31
0.0
  0
LINE
  5
D88C
330
17
100
AcDbEntity
  8
SUNPOU
100
AcDbLine
 10
31669.70454075908
 20
-3083.836203075067
 30
0.0
 11
36469.70454075908
 21
-3083.836203075067
 31
0.0
  0
LINE
  5
D88D
330
17
100
AcDbEntity
  8
SUNPOU
100
AcDbLine
 10
32869.70454075908
 20
-1510.502869741733
 30
0.0
 11
32869.70454075908
 21
-2470.502869741733
 31
0.0
  0
LINE
  5
D88E
330
17
100
AcDbEntity
  8
SUNPOU
100
AcDbLine
 10
34469.70454075908
 20
-1990.502869741733
 30
0.0
 11
34469.70454075908
 21
-2230.502869741733
 31
0.0
  0
LINE
  5
D88F
330
17
100
AcDbEntity
  8
SUNPOU
100
AcDbLine
 10
35269.70454075908
 20
-1990.502869741733
 30
0.0
 11
35269.70454075908
 21
-2230.502869741733
 31
0.0
  0
TEXT
  5
D890
330
17
100
AcDbEntity
  8
SUNPOU
100
AcDbText
 10
31826.37120853408
 20
-1940.502869566733
 30
0.0
 40
139.99999965
  1
呼 び 寸 法
 72
     4
 11
32269.70454075908
 21
-1870.502869741733
 31
0.0
100
AcDbText
  0
TEXT
  5
D891
330
17
100
AcDbEntity
  8
SUNPOU
100
AcDbText
 10
31835.70454184408
 20
-2180.502869566733
 30
0.0
 40
139.99999965
  1
発 行 年 月
 72
     4
 11
32269.70454075908
 21
-2110.502869741733
 31
0.0
100
AcDbText
  0
TEXT
  5
D892
330
17
100
AcDbEntity
  8
SUNPOU
100
AcDbText
 10
31821.70454187908
 20
-2420.502869566733
 30
0.0
 40
139.99999965
  1
図　   　番
 72
     4
 11
32269.70454075908
 21
-2350.502869741733
 31
0.0
100
AcDbText
  0
TEXT
  5
D893
330
17
100
AcDbEntity
  8
SUNPOU
100
AcDbText
 10
31831.03787518908
 20
-3273.836202900067
 30
0.0
 40
139.99999965
  1
社　   　名
 72
     4
 11
32269.70454075908
 21
-3203.836203075067
 31
0.0
100
AcDbText
  0
TEXT
  5
D894
330
17
100
AcDbEntity
  8
SUNPOU
100
AcDbText
 10
33149.70454075908
 20
-1690.502869741733
 30
0.0
 40
120.0
  1
PCボックスカルバート 構造図  (150型)
 11
33149.70454075908
 21
-1630.502869741733
 31
0.0
100
AcDbText
 73
     2
  0
TEXT
  5
D895
330
17
100
AcDbEntity
  8
SUNPOU
100
AcDbText
 10
33137.06694284049
 20
-2188.937972191663
 30
0.0
 40
120.0
  1
平成12年6月版
 72
     4
 11
33641.06694284049
 21
-2128.937972191663
 31
0.0
100
AcDbText
  0
TEXT
  5
D896
330
17
100
AcDbEntity
  8
SUNPOU
100
AcDbText
 10
34667.40631140126
 20
-2193.491214817943
 30
0.0
 40
140.0
  1
縮 尺
 72
     4
 11
34858.7396447346
 21
-2123.491214817943
 31
0.0
100
AcDbText
  0
TEXT
  5
D897
330
17
100
AcDbEntity
  8
SUNPOU
100
AcDbText
 10
35551.73660356194
 20
-2183.491214817943
 30
0.0
 40
120.0
  1
S = 1/40
 41
0.8
 72
     4
 11
35857.33660356194
 21
-2123.491214817943
 31
0.0
100
AcDbText
  0
LINE
  5
D898
330
17
100
AcDbEntity
  8
SUNPOU
100
AcDbLine
 10
32869.70454075908
 20
-3083.836203075067
 30
0.0
 11
32869.70454075908
 21
-3323.836203075067
 31
0.0
  0
TEXT
  5
D899
330
17
100
AcDbEntity
  8
SUNPOU
100
AcDbText
 10
33269.70454075908
 20
-3263.836203075067
 30
0.0
 40
120.0
  1
新和コンクリ－ト工業株式会社
 11
33269.70454075908
 21
-3203.836203075067
 31
0.0
100
AcDbText
 73
     2
  0
TEXT
  5
D89A
330
17
100
AcDbEntity
  8
SUNPOU
100
AcDbText
 10
33142.48108900231
 20
-1930.502869741733
 30
0.0
 40
120.0
  1
5000x2000x1000
 41
0.8
 11
33142.48108900231
 21
-1870.502869741733
 31
0.0
100
AcDbText
 73
     2
  0
TEXT
  5
D89B
330
17
100
AcDbEntity
  8
SUNPOU
100
AcDbText
 10
31809.45270847073
 20
-2992.973109852258
 30
0.0
 40
139.99999965
  1
全国ボックスカルバート協会
 11
31809.45270847073
 21
-2922.973110027258
 31
0.0
100
AcDbText
 73
     2
  0
LINE
  5
D89C
330
17
100
AcDbEntity
  8
HAIKIN
100
AcDbLine
 10
20869.70454075908
 20
-3323.836203075067
 30
0.0
 11
36469.70454075908
 21
-3323.836203075067
 31
0.0
  0
LINE
  5
D89D
330
17
100
AcDbEntity
  8
HAIKIN
100
AcDbLine
 10
20869.70454075908
 20
-3323.836203075067
 30
0.0
 11
20869.70454075908
 21
7676.163796924931
 31
0.0
  0
LINE
  5
D89E
330
17
100
AcDbEntity
  8
HAIKIN
100
AcDbLine
 10
20869.70454075908
 20
7676.163796924931
 30
0.0
 11
36469.70454075908
 21
7676.163796924931
 31
0.0
  0
LINE
  5
D89F
330
17
100
AcDbEntity
  8
HAIKIN
100
AcDbLine
 10
36469.70454075908
 20
7676.163796924931
 30
0.0
 11
36469.70454075908
 21
-3323.836203075067
 31
0.0
  0
LINE
  5
D8A0
330
17
100
AcDbEntity
  8
SUNPOU
100
AcDbLine
 10
21239.70454075908
 20
3588.541336777713
 30
0.0
 11
22499.19641244731
 21
3588.541336777713
 31
0.0
  0
DIMENSION
  5
D8A1
330
17
100
AcDbEntity
  8
SUNPOU
100
AcDbDimension
  2
*D2
 10
28511.00752042768
 20
2642.550907110831
 30
0.0
 11
28511.00752042768
 21
2938.550907110835
 31
0.0
 70
   160
 71
     5
 42
139.9999999999982
  3
1-40
100
AcDbAlignedDimension
 13
28983.29287243254
 23
2502.550907110833
 33
0.0
 14
28983.29287243254
 24
2642.550907110831
 34
0.0
 50
90.0
100
AcDbRotatedDimension
1001
ACAD
1000
DSTYLE
1002
{
1070
   344
1005
0
1070
   173
1070
     1
1070
   343
1005
D4A3
1002
}
  0
DIMENSION
  5
D8A2
330
17
100
AcDbEntity
  8
SUNPOU
100
AcDbDimension
  2
*D3
 10
28231.00752112768
 20
2642.55090711083
 30
0.0
 11
28231.00752112768
 21
2954.550907110834
 31
0.0
 70
   160
 71
     5
 42
220.0000000000027
  3
1-40
100
AcDbAlignedDimension
 13
28903.29287243254
 23
2422.550907110827
 33
0.0
 14
28983.29287243254
 24
2642.55090711083
 34
0.0
 50
270.0
100
AcDbRotatedDimension
1001
ACAD
1000
DSTYLE
1002
{
1070
   344
1005
0
1070
   173
1070
     1
1070
   343
1005
D4A3
1002
}
  0
DIMENSION
  5
D8A3
330
17
100
AcDbEntity
  8
SUNPOU
100
AcDbDimension
  2
*D4
 10
28511.00752042768
 20
2262.550907110832
 30
0.0
 11
28511.00752042768
 21
1998.550907110836
 31
0.0
 70
   160
 71
     5
 42
80.00000000000091
  3
1-40
100
AcDbAlignedDimension
 13
28903.29287243254
 23
2342.550907110833
 33
0.0
 14
28903.29287243254
 24
2262.550907110832
 34
0.0
 50
270.0
100
AcDbRotatedDimension
1001
ACAD
1000
DSTYLE
1002
{
1070
   173
1070
     1
1070
   343
1005
D4A3
1002
}
  0
DIMENSION
  5
D8A4
330
17
100
AcDbEntity
  8
SUNPOU
100
AcDbDimension
  2
*D5
 10
28231.00752112768
 20
2262.550907110832
 30
0.0
 11
28231.00752112768
 21
1966.550907110836
 31
0.0
 70
   160
 71
     5
 42
159.9999999999955
  3
1-40
100
AcDbAlignedDimension
 13
28903.29287243254
 23
2422.550907110827
 33
0.0
 14
28903.29287243254
 24
2262.550907110832
 34
0.0
 50
270.0
100
AcDbRotatedDimension
1001
ACAD
1000
DSTYLE
1002
{
1070
   344
1005
0
1070
   173
1070
     1
1070
   343
1005
D4A3
1002
}
  0
LINE
  5
D8A5
330
17
100
AcDbEntity
  8
HASEN
100
AcDbLine
 10
29903.29287243254
 20
2277.550907110833
 30
0.0
 11
29891.29287243254
 21
2262.550907110833
 31
0.0
  0
LINE
  5
D8A6
330
17
100
AcDbEntity
  8
HASEN
100
AcDbLine
 10
29983.29287243254
 20
2467.550907110831
 30
0.0
 11
29903.29287243254
 21
2447.550907110834
 31
0.0
  0
DIMENSION
  5
D8A7
330
17
100
AcDbEntity
  8
SUNPOU
100
AcDbDimension
  2
*D6
 10
28231.00752112768
 20
262.550907110832
 30
0.0
 11
28231.00752112768
 21
558.5509071108365
 31
0.0
 70
   160
 71
     5
 42
160.0
  3
1-40
100
AcDbAlignedDimension
 13
28903.29287243254
 23
102.5509071108318
 33
0.0
 14
28903.29287243254
 24
262.5509071108318
 34
0.0
 50
90.0
100
AcDbRotatedDimension
1001
ACAD
1000
DSTYLE
1002
{
1070
   173
1070
     1
1070
   343
1005
D4A3
1002
}
  0
DIMENSION
  5
D8A8
330
17
100
AcDbEntity
  8
SUNPOU
100
AcDbDimension
  2
*D7
 10
28511.00752042768
 20
262.5509071108319
 30
0.0
 11
28511.00752042768
 21
526.5509071108364
 31
0.0
 70
   160
 71
     5
 42
80.0
  3
1-40
100
AcDbAlignedDimension
 13
28903.29287243254
 23
182.5509071108318
 33
0.0
 14
28903.29287243254
 24
262.5509071108318
 34
0.0
 50
90.0
100
AcDbRotatedDimension
1001
ACAD
1000
DSTYLE
1002
{
1070
   173
1070
     1
1070
   343
1005
D4A3
1002
}
  0
DIMENSION
  5
D8A9
330
17
100
AcDbEntity
  8
SUNPOU
100
AcDbDimension
  2
*D8
 10
28231.00752112768
 20
-117.449092889168
 30
0.0
 11
28231.00752112768
 21
-429.4490928891637
 31
0.0
 70
   160
 71
     5
 42
220.0
  3
1-40
100
AcDbAlignedDimension
 13
28903.29287243254
 23
102.5509071108318
 33
0.0
 14
28983.29287243254
 24
-117.4490928891682
 34
0.0
 50
90.0
100
AcDbRotatedDimension
1001
ACAD
1000
DSTYLE
1002
{
1070
   173
1070
     1
1070
   343
1005
D4A3
1002
}
  0
LINE
  5
D8AA
330
17
100
AcDbEntity
  8
HASEN
100
AcDbLine
 10
29903.29287243254
 20
247.5509071108318
 30
0.0
 11
29891.29287243254
 21
262.5509071108318
 31
0.0
  0
LINE
  5
D8AB
330
17
100
AcDbEntity
  8
SUNPOU
100
AcDbLine
 10
26739.70454075908
 20
2457.550907110829
 30
0.0
 11
26719.70454075908
 21
2437.550907110828
 31
0.0
  0
LINE
  5
D8AC
330
17
100
AcDbEntity
  8
SUNPOU
100
AcDbLine
 10
24069.70454075908
 20
87.55090711083176
 30
0.0
 11
26719.70454075908
 21
87.5509071108354
 31
0.0
  0
LINE
  5
D8AD
330
17
100
AcDbEntity
  8
SUNPOU
100
AcDbLine
 10
24069.70454075908
 20
67.55090711083176
 30
0.0
 11
26739.70454075908
 21
67.5509071108354
 31
0.0
  0
LINE
  5
D8AE
330
17
100
AcDbEntity
  8
SUNPOU
100
AcDbLine
 10
26739.70454075908
 20
2457.550907110829
 30
0.0
 11
26739.70454075908
 21
67.5509071108354
 31
0.0
  0
LINE
  5
D8AF
330
17
100
AcDbEntity
  8
SUNPOU
100
AcDbLine
 10
26719.70454075908
 20
2437.550907110828
 30
0.0
 11
26719.70454075908
 21
87.5509071108354
 31
0.0
  0
LINE
  5
D8B0
330
17
100
AcDbEntity
  8
SUNPOU
100
AcDbLine
 10
24069.70454075908
 20
2457.550907110831
 30
0.0
 11
26739.70454075908
 21
2457.550907110829
 31
0.0
  0
LINE
  5
D8B1
330
17
100
AcDbEntity
  8
SUNPOU
100
AcDbLine
 10
24069.70454075908
 20
2437.550907110831
 30
0.0
 11
26719.70454075908
 21
2437.550907110828
 31
0.0
  0
LINE
  5
D8B2
330
17
100
AcDbEntity
  8
SUNPOU
100
AcDbLine
 10
21409.70454075908
 20
77.55090711083176
 30
0.0
 11
21389.70454075908
 21
57.55090711083176
 31
0.0
  0
LINE
  5
D8B3
330
17
100
AcDbEntity
  8
SUNPOU
100
AcDbLine
 10
21389.70454075908
 20
2467.550907110831
 30
0.0
 11
21409.70454075908
 21
2447.550907110831
 31
0.0
  0
ARC
  5
D8B4
330
17
100
AcDbEntity
  8
SUNPOU
100
AcDbCircle
 10
21622.70454075908
 20
2209.550907110831
 30
0.0
 40
95.0
100
AcDbArc
 50
90.0
 51
180.0
  0
ARC
  5
D8B5
330
17
100
AcDbEntity
  8
SUNPOU
100
AcDbCircle
 10
21622.70454075908
 20
315.5509071108318
 30
0.0
 40
95.0
100
AcDbArc
 50
180.0
 51
270.0
  0
ARC
  5
D8B6
330
17
100
AcDbEntity
  8
SUNPOU
100
AcDbCircle
 10
21620.70454075908
 20
313.5509071108318
 30
0.0
 40
115.0
100
AcDbArc
 50
180.0
 51
270.0
  0
ARC
  5
D8B7
330
17
100
AcDbEntity
  8
SUNPOU
100
AcDbCircle
 10
21620.70454075908
 20
2211.550907110831
 30
0.0
 40
115.0
100
AcDbArc
 50
90.0
 51
180.0
  0
LINE
  5
D8B8
330
17
100
AcDbEntity
  8
SUNPOU
100
AcDbLine
 10
21863.49133732348
 20
247.5509071108318
 30
0.0
 11
21554.70454075908
 21
556.3377036752354
 31
0.0
  0
LINE
  5
D8B9
330
17
100
AcDbEntity
  8
SUNPOU
100
AcDbLine
 10
21622.70454075908
 20
220.5509071108318
 30
0.0
 11
24069.70454075908
 21
220.5509071108318
 31
0.0
  0
LINE
  5
D8BA
330
17
100
AcDbEntity
  8
SUNPOU
100
AcDbLine
 10
21620.70454075908
 20
198.5509071108318
 30
0.0
 11
24069.70454075908
 21
198.5509071108318
 31
0.0
  0
LINE
  5
D8BB
330
17
100
AcDbEntity
  8
SUNPOU
100
AcDbLine
 10
21409.70454075908
 20
77.55090711083176
 30
0.0
 11
24069.70454075908
 21
77.55090711083176
 31
0.0
  0
LINE
  5
D8BC
330
17
100
AcDbEntity
  8
SUNPOU
100
AcDbLine
 10
21389.70454075908
 20
57.55090711083176
 30
0.0
 11
24069.70454075908
 21
57.55090711083176
 31
0.0
  0
LINE
  5
D8BD
330
17
100
AcDbEntity
  8
SUNPOU
100
AcDbLine
 10
21863.49133732348
 20
247.5509071108318
 30
0.0
 11
24069.70454075908
 21
247.5509071108318
 31
0.0
  0
LINE
  5
D8BE
330
17
100
AcDbEntity
  8
SUNPOU
100
AcDbLine
 10
21863.49133732348
 20
2277.550907110831
 30
0.0
 11
21554.70454075908
 21
1968.764110546428
 31
0.0
  0
LINE
  5
D8BF
330
17
100
AcDbEntity
  8
SUNPOU
100
AcDbLine
 10
21389.70454075908
 20
57.55090711083176
 30
0.0
 11
21389.70454075908
 21
2467.550907110831
 31
0.0
  0
LINE
  5
D8C0
330
17
100
AcDbEntity
  8
SUNPOU
100
AcDbLine
 10
21409.70454075908
 20
77.55090711083176
 30
0.0
 11
21409.70454075908
 21
2447.550907110831
 31
0.0
  0
LINE
  5
D8C1
330
17
100
AcDbEntity
  8
SUNPOU
100
AcDbLine
 10
21505.70454075908
 20
313.5509071108318
 30
0.0
 11
21505.70454075908
 21
2211.550907110831
 31
0.0
  0
LINE
  5
D8C2
330
17
100
AcDbEntity
  8
SUNPOU
100
AcDbLine
 10
21527.70454075908
 20
315.5509071108318
 30
0.0
 11
21527.70454075908
 21
2209.550907110831
 31
0.0
  0
LINE
  5
D8C3
330
17
100
AcDbEntity
  8
SUNPOU
100
AcDbLine
 10
21554.70454075908
 20
556.3377036752354
 30
0.0
 11
21554.70454075908
 21
1968.764110546428
 31
0.0
  0
LINE
  5
D8C4
330
17
100
AcDbEntity
  8
SUNPOU
100
AcDbLine
 10
21389.70454075908
 20
2467.550907110831
 30
0.0
 11
24069.70454075908
 21
2467.550907110831
 31
0.0
  0
LINE
  5
D8C5
330
17
100
AcDbEntity
  8
SUNPOU
100
AcDbLine
 10
21409.70454075908
 20
2447.550907110831
 30
0.0
 11
24069.70454075908
 21
2447.550907110831
 31
0.0
  0
LINE
  5
D8C6
330
17
100
AcDbEntity
  8
SUNPOU
100
AcDbLine
 10
21620.70454075908
 20
2326.550907110831
 30
0.0
 11
24069.70454075908
 21
2326.550907110831
 31
0.0
  0
LINE
  5
D8C7
330
17
100
AcDbEntity
  8
SUNPOU
100
AcDbLine
 10
21622.70454075908
 20
2304.550907110831
 30
0.0
 11
24069.70454075908
 21
2304.550907110831
 31
0.0
  0
LINE
  5
D8C8
330
17
100
AcDbEntity
  8
SUNPOU
100
AcDbLine
 10
21863.49133732348
 20
2277.550907110831
 30
0.0
 11
24069.70454075908
 21
2277.550907110831
 31
0.0
  0
LINE
  5
D8C9
330
17
100
AcDbEntity
  8
SEIHIN
100
AcDbLine
 10
21869.70454075908
 20
2262.550907110831
 30
0.0
 11
21569.70454075908
 21
1962.550907110832
 31
0.0
  0
LINE
  5
D8CA
330
17
100
AcDbEntity
  8
SEIHIN
100
AcDbLine
 10
21569.70454075908
 20
562.5509071108299
 30
0.0
 11
21869.70454075908
 21
262.5509071108299
 31
0.0
  0
LINE
  5
D8CB
330
17
100
AcDbEntity
  8
SEIHIN
100
AcDbLine
 10
26569.70454075908
 20
1962.55090711083
 30
0.0
 11
26269.70454075908
 21
2262.55090711083
 31
0.0
  0
LINE
  5
D8CC
330
17
100
AcDbEntity
  8
SEIHIN
100
AcDbLine
 10
26569.70454075908
 20
562.5509071108299
 30
0.0
 11
26269.70454075908
 21
262.5509071108299
 31
0.0
  0
DIMENSION
  5
D8CD
330
17
100
AcDbEntity
  8
SUNPOU
100
AcDbDimension
  2
*D9
 10
33947.48373395314
 20
3467.543538066259
 30
0.0
 11
34171.48373395314
 21
3467.543538066259
 31
0.0
 70
   160
 71
     5
 42
2.999997
  3
1-40
100
AcDbAlignedDimension
 13
33938.48373395314
 23
2602.688219002996
 33
0.0
 14
33947.48373395314
 24
2239.688219002996
 34
0.0
100
AcDbRotatedDimension
1001
ACAD
1000
DSTYLE
1002
{
1070
   144
1040
0.333333
1002
}
  0
DIMENSION
  5
D8CE
330
17
100
AcDbEntity
  8
SUNPOU
100
AcDbDimension
  2
*D10
 10
33974.48373395314
 20
-1227.938363510937
 30
0.0
 11
34230.48373395314
 21
-1227.938363510937
 31
0.0
 70
   160
 71
     5
 42
11.999988
  3
1-40
100
AcDbAlignedDimension
 13
33938.48373395314
 23
-606.0648447039584
 33
0.0
 14
33974.48373395314
 24
-621.0648447039584
 34
0.0
100
AcDbRotatedDimension
1001
ACAD
1000
DSTYLE
1002
{
1070
   144
1040
0.333333
1002
}
  0
TEXT
  5
D8CF
330
17
100
AcDbEntity
  8
SUNPOU
100
AcDbText
 10
34644.12782584793
 20
5133.404130095661
 30
0.0
 40
66.66666666666666
  1
t 
 41
0.8
100
AcDbText
  0
DIMENSION
  5
D8D0
330
17
100
AcDbEntity
  8
SUNPOU
100
AcDbDimension
  2
*D11
 10
34347.48373395314
 20
2047.688219002995
 30
0.0
 11
34347.48373395314
 21
1791.688219003001
 31
0.0
 70
   160
 71
     5
 42
14.99998500000008
  3
1-40
100
AcDbAlignedDimension
 13
33938.48373395314
 23
2092.688219002996
 33
0.0
 14
33968.48373395314
 24
2047.688219002996
 34
0.0
 50
90.0
100
AcDbRotatedDimension
1001
ACAD
1000
DSTYLE
1002
{
1070
   144
1040
0.333333
1070
   173
1070
     1
1070
   343
1005
D4A3
1070
   344
1005
D4A3
1002
}
  0
DIMENSION
  5
D8D1
330
17
100
AcDbEntity
  8
SUNPOU
100
AcDbDimension
  2
*D12
 10
34347.48373395314
 20
2239.688219002996
 30
0.0
 11
34347.48373395314
 21
2431.688219003003
 31
0.0
 70
   160
  1
<>
 71
     5
 42
21.999978
  3
1-40
100
AcDbAlignedDimension
 13
33947.48373395314
 23
2173.688219002996
 33
0.0
 14
33947.48373395314
 24
2239.688219002996
 34
0.0
 50
90.0
100
AcDbRotatedDimension
1001
ACAD
1000
DSTYLE
1002
{
1070
   144
1040
0.333333
1070
   173
1070
     1
1070
   343
1005
D4A3
1070
   344
1005
D4A3
1002
}
  0
DIMENSION
  5
D8D2
330
17
100
AcDbEntity
  8
SUNPOU
100
AcDbDimension
  2
*D13
 10
34347.48373395314
 20
2173.688219002996
 30
0.0
 11
34347.48373395314
 21
2133.188219003001
 31
0.0
 70
   160
 71
     5
 42
26.999973
  3
1-40
100
AcDbAlignedDimension
 13
33938.48373395314
 23
2092.688219002996
 33
0.0
 14
33947.48373395314
 24
2173.688219002996
 34
0.0
 50
90.0
100
AcDbRotatedDimension
1001
ACAD
1000
DSTYLE
1002
{
1070
   343
1005
D4A3
1070
   173
1070
     1
1070
   344
1005
D4A3
1070
   144
1040
0.333333
1002
}
  0
DIMENSION
  5
D8D3
330
17
100
AcDbEntity
  8
SUNPOU
100
AcDbDimension
  2
*D14
 10
34980.82245130723
 20
2662.688219002995
 30
0.0
 11
34980.82245130723
 21
2632.688219003001
 31
0.0
 70
   160
 71
     5
 42
19.99997999999985
  3
1-40
100
AcDbAlignedDimension
 13
33938.48373395314
 23
2602.688219002996
 33
0.0
 14
33698.48373395314
 24
2662.688219002996
 34
0.0
 50
90.0
100
AcDbRotatedDimension
1001
ACAD
1000
DSTYLE
1002
{
1070
   144
1040
0.333333
1002
}
  0
LINE
  5
D8D4
330
17
100
AcDbEntity
  8
PC
100
AcDbLine
 10
29133.29287243254
 20
-29.94909288916824
 30
0.0
 11
29133.29287243254
 21
75.05090711083176
 31
0.0
  0
LINE
  5
D8D5
330
17
100
AcDbEntity
  8
PC
100
AcDbLine
 10
29080.79287243253
 20
22.55090711083176
 30
0.0
 11
29185.79287243253
 21
22.55090711083176
 31
0.0
  0
LINE
  5
D8D7
330
17
100
AcDbEntity
  8
SUNPOU
100
AcDbLine
 10
34701.65523790707
 20
-201.0648447039584
 30
0.0
 11
34671.65523790707
 21
-186.0648447039584
 31
0.0
  0
LINE
  5
D8D8
330
17
100
AcDbEntity
  8
SUNPOU
100
AcDbLine
 10
34671.65523790707
 20
-186.0648447039584
 30
0.0
 11
34731.65523790707
 21
-96.06484470395844
 31
0.0
  0
LINE
  5
D8D9
330
17
100
AcDbEntity
  8
SUNPOU
100
AcDbLine
 10
34731.65523790707
 20
-96.06484470395844
 30
0.0
 11
34701.65523790707
 21
-81.06484470395844
 31
0.0
  0
LINE
  5
D8DA
330
17
100
AcDbEntity
  8
SUNPOU
100
AcDbLine
 10
34701.65523790707
 20
413.9351552960416
 30
0.0
 11
34701.65523790707
 21
-81.06484470396117
 31
0.0
  0
LINE
  5
D8DB
330
17
100
AcDbEntity
  8
SEIHIN
100
AcDbLine
 10
33938.48373395314
 20
-450.0648447039584
 30
0.0
 11
33947.48373395314
 21
-459.0648447039584
 31
0.0
  0
LINE
  5
D8DC
330
17
100
AcDbEntity
  8
SEIHIN
100
AcDbLine
 10
33947.48373395314
 20
-525.0648447039584
 30
0.0
 11
33938.48373395314
 21
-534.0648447039584
 31
0.0
  0
LINE
  5
D8DD
330
17
100
AcDbEntity
  8
SEIHIN
100
AcDbLine
 10
33947.48373395314
 20
-459.0648447039584
 30
0.0
 11
33947.48373395314
 21
-525.0648447039584
 31
0.0
  0
LINE
  5
D8DE
330
17
100
AcDbEntity
  8
SEIHIN
100
AcDbLine
 10
33938.48373395314
 20
-171.0648447039584
 30
0.0
 11
33938.48373395314
 21
-450.0648447039584
 31
0.0
  0
DIMENSION
  5
D8DF
330
17
100
AcDbEntity
  8
SUNPOU
100
AcDbDimension
  2
*D15
 10
33947.48373395314
 20
618.7904743593053
 30
0.0
 11
34171.48373395314
 21
618.7904743593053
 31
0.0
 70
   160
 71
     5
 42
2.999997
  3
1-40
100
AcDbAlignedDimension
 13
33938.48373395314
 23
-171.0648447039584
 33
0.0
 14
33947.48373395314
 24
-459.0648447039584
 34
0.0
100
AcDbRotatedDimension
1001
ACAD
1000
DSTYLE
1002
{
1070
   144
1040
0.333333
1002
}
  0
LINE
  5
D8E0
330
17
100
AcDbEntity
  8
SEIHIN
100
AcDbLine
 10
33461.65523790707
 20
-141.0648447039584
 30
0.0
 11
33701.65523790707
 21
-201.0648447039584
 31
0.0
  0
LINE
  5
D8E1
330
17
100
AcDbEntity
  8
SEIHIN
100
AcDbLine
 10
33461.65523790707
 20
338.9351552960416
 30
0.0
 11
33461.65523790707
 21
-141.0648447039584
 31
0.0
  0
LINE
  5
D8E2
330
17
100
AcDbEntity
  8
SEIHIN
100
AcDbLine
 10
33698.48373395314
 20
338.9351552960416
 30
0.0
 11
33698.48373395314
 21
-111.0648447039584
 31
0.0
  0
LINE
  5
D8E3
330
17
100
AcDbEntity
  8
SUNPOU
100
AcDbLine
 10
32701.65523790707
 20
-201.0648447039584
 30
0.0
 11
32671.65523790707
 21
-186.0648447039584
 31
0.0
  0
LINE
  5
D8E4
330
17
100
AcDbEntity
  8
SUNPOU
100
AcDbLine
 10
32671.65523790707
 20
-186.0648447039584
 30
0.0
 11
32731.65523790707
 21
-96.06484470395844
 31
0.0
  0
LINE
  5
D8E5
330
17
100
AcDbEntity
  8
SUNPOU
100
AcDbLine
 10
32731.65523790707
 20
-96.06484470395844
 30
0.0
 11
32701.65523790707
 21
-81.06484470395844
 31
0.0
  0
LINE
  5
D8E6
330
17
100
AcDbEntity
  8
SUNPOU
100
AcDbLine
 10
32701.65523790707
 20
413.9351552960416
 30
0.0
 11
32701.65523790707
 21
-81.06484470396117
 31
0.0
  0
LINE
  5
D8E7
330
17
100
AcDbEntity
  8
SEIHIN
100
AcDbLine
 10
32701.65523790707
 20
338.9351552960416
 30
0.0
 11
33461.65523790707
 21
338.9351552960416
 31
0.0
  0
DIMENSION
  5
D8E8
330
17
100
AcDbEntity
  8
SUNPOU
100
AcDbDimension
  2
*D16
 10
32421.76694245159
 20
-141.0648447039582
 30
0.0
 11
32329.76694245159
 21
98.93515529604741
 31
0.0
 70
    32
 71
     5
 42
159.9998400000003
  3
1-40
100
AcDbAlignedDimension
 13
32701.65523790706
 23
338.9351552960425
 33
0.0
 14
33461.65523790707
 24
-141.0648447039584
 34
0.0
 50
90.0
100
AcDbRotatedDimension
1001
ACAD
1000
DSTYLE
1002
{
1070
   144
1040
0.333333
1002
}
  0
DIMENSION
  5
D8E9
330
17
100
AcDbEntity
  8
SUNPOU
100
AcDbDimension
  2
*D17
 10
32421.76694245159
 20
-201.0648447039581
 30
0.0
 11
32421.76694245159
 21
-171.0648447039529
 31
0.0
 70
   160
 71
     5
 42
19.99997999999998
  3
1-40
100
AcDbAlignedDimension
 13
33461.65523790707
 23
-141.0648447039584
 33
0.0
 14
33701.65523790707
 24
-201.0648447039584
 34
0.0
 50
90.0
100
AcDbRotatedDimension
1001
ACAD
1000
DSTYLE
1002
{
1070
   144
1040
0.333333
1002
}
  0
DIMENSION
  5
D8EA
330
17
100
AcDbEntity
  8
SUNPOU
100
AcDbDimension
  2
*D18
 10
34981.65523790707
 20
-111.0648447039588
 30
0.0
 11
34981.65523790707
 21
-141.0648447039531
 31
0.0
 70
   160
 71
     5
 42
19.99997999999999
  3
1-40
100
AcDbAlignedDimension
 13
33938.48373395314
 23
-171.0648447039584
 33
0.0
 14
33698.48373395314
 24
-111.0648447039584
 34
0.0
 50
90.0
100
AcDbRotatedDimension
1001
ACAD
1000
DSTYLE
1002
{
1070
   144
1040
0.333333
1002
}
  0
LINE
  5
D8EB
330
17
100
AcDbEntity
  8
SEIHIN
100
AcDbLine
 10
33698.48373395314
 20
-111.0648447039584
 30
0.0
 11
33938.48373395314
 21
-171.0648447039584
 31
0.0
  0
LINE
  5
D8EC
330
17
100
AcDbEntity
  8
SEIHIN
100
AcDbLine
 10
33698.48373395314
 20
338.9351552960416
 30
0.0
 11
34701.65523790707
 21
338.9351552960416
 31
0.0
  0
DIMENSION
  5
D8ED
330
17
100
AcDbEntity
  8
SUNPOU
100
AcDbDimension
  2
*D19
 10
33698.48373395314
 20
898.6457934225691
 30
0.0
 11
33818.48373395314
 21
990.6457934225691
 31
0.0
 70
    32
 71
     5
 42
79.99992
  3
1-40
100
AcDbAlignedDimension
 13
33938.48373395314
 23
-171.0648447039584
 33
0.0
 14
33698.48373395314
 24
338.9351552960425
 34
0.0
100
AcDbRotatedDimension
1001
ACAD
1000
DSTYLE
1002
{
1070
   144
1040
0.333333
1002
}
  0
DIMENSION
  5
D8EE
330
17
100
AcDbEntity
  8
SUNPOU
100
AcDbDimension
  2
*D20
 10
34981.65523790707
 20
338.9351552960415
 30
0.0
 11
34889.65523790707
 21
113.935155296047
 31
0.0
 70
    32
 71
     5
 42
149.9998500000001
  3
1-40
100
AcDbAlignedDimension
 13
33698.48373395314
 23
-111.0648447039584
 33
0.0
 14
34701.65523790707
 24
338.9351552960416
 34
0.0
 50
90.0
100
AcDbRotatedDimension
1001
ACAD
1000
DSTYLE
1002
{
1070
   144
1040
0.333333
1002
}
  0
LINE
  5
D8F0
330
17
100
AcDbEntity
  8
SEIHIN
100
AcDbLine
 10
33974.48373395314
 20
-621.0648447039584
 30
0.0
 11
33968.48373395314
 21
-651.0648447039584
 31
0.0
  0
LINE
  5
D8F1
330
17
100
AcDbEntity
  8
SEIHIN
100
AcDbLine
 10
33938.48373395314
 20
-606.0648447039584
 30
0.0
 11
33974.48373395314
 21
-621.0648447039584
 31
0.0
  0
LINE
  5
D8F2
330
17
100
AcDbEntity
  8
SEIHIN
100
AcDbLine
 10
33968.48373395314
 20
-651.0648447039584
 30
0.0
 11
34701.65523790707
 21
-651.0648447039584
 31
0.0
  0
TEXT
  5
D8F3
330
17
100
AcDbEntity
  8
SUNPOU
100
AcDbText
 10
33196.92205629851
 20
-1340.514783719849
 30
0.0
 40
120.0
  1
目地溝
100
AcDbText
  0
TEXT
  5
D8F4
330
17
100
AcDbEntity
  8
SUNPOU
100
AcDbText
 10
32892.04188932008
 20
-1167.855348295674
 30
0.0
 40
120.0
  1
パッキン溝
100
AcDbText
  0
LINE
  5
D8F5
330
17
100
AcDbEntity
  8
SUNPOU
100
AcDbLine
 10
33610.42887297271
 20
-1194.852368918928
 30
0.0
 11
32889.80759120597
 21
-1194.852368918928
 31
0.0
1001
ACAD
1000
DSTYLE
1002
{
1070
    78
1070
     8
1070
   284
1070
     8
1070
   140
1040
2.5
1070
   145
1040
1.0
1070
    74
1070
     0
1070
    73
1070
     0
1070
    40
1040
30.0
1070
   287
1070
     5
1070
    42
1040
2.0
1070
    44
1040
1.0
1070
    43
1040
7.0
1070
   141
1040
0.0
1070
   275
1070
     1
1070
    41
1040
2.0
1070
   285
1070
     8
1070
   286
1070
     8
1002
}
  0
LINE
  5
D8F6
330
17
100
AcDbEntity
  8
SEIHIN
100
AcDbLine
 10
33701.65523790707
 20
-651.0648447039584
 30
0.0
 11
32701.65523790707
 21
-651.0648447039584
 31
0.0
  0
LEADER
  5
D8F7
330
17
100
AcDbEntity
  8
SUNPOU
100
AcDbLeader
  3
STANDARD
 76
     2
 10
33971.48373395314
 20
-636.0648447039584
 30
0.0
 10
33636.43181996758
 20
-1367.511804343103
 30
0.0
1001
ACAD
1000
DSTYLE
1002
{
1070
    40
1040
40.0
1070
    41
1040
2.0
1070
    42
1040
2.0
1070
    43
1040
7.0
1070
    44
1040
1.0
1070
    73
1070
     0
1070
    74
1070
     0
1070
    78
1070
     8
1070
   140
1040
2.5
1070
   141
1040
0.0
1070
   145
1040
1.0
1070
   147
1040
0.8
1070
   172
1070
     1
1070
   174
1070
     1
1070
   177
1070
   256
1070
   271
1070
     0
1070
   272
1070
     0
1070
   275
1070
     1
1070
   279
1070
     2
1070
   284
1070
     8
1070
   285
1070
     8
1070
   286
1070
     8
1070
   289
1070
     0
1002
}
  0
DIMENSION
  5
D8F8
330
17
100
AcDbEntity
  8
SUNPOU
100
AcDbDimension
  2
*D21
 10
33701.65523790707
 20
-931.0648447039584
 30
0.0
 11
33581.65523790707
 21
-839.0648447039584
 31
0.0
 70
    32
 71
     5
 42
79.99992
  3
1-40
100
AcDbAlignedDimension
 13
33461.65523790707
 23
-141.0648447039584
 33
0.0
 14
33701.65523790707
 24
-651.0648447039584
 34
0.0
100
AcDbRotatedDimension
1001
ACAD
1000
DSTYLE
1002
{
1070
   144
1040
0.333333
1002
}
  0
DIMENSION
  5
D8F9
330
17
100
AcDbEntity
  8
SUNPOU
100
AcDbDimension
  2
*D22
 10
32141.79991884381
 20
-651.0648447039583
 30
0.0
 11
32049.79991884381
 21
-156.0648447039526
 31
0.0
 70
    32
 71
     5
 42
329.9996700000003
  3
1-40
100
AcDbAlignedDimension
 13
32701.65523790706
 23
338.9351552960425
 33
0.0
 14
32701.65523790706
 24
-651.0648447039584
 34
0.0
 50
90.0
100
AcDbRotatedDimension
1001
ACAD
1000
DSTYLE
1002
{
1070
   144
1040
0.333333
1002
}
  0
DIMENSION
  5
D8FA
330
17
100
AcDbEntity
  8
SUNPOU
100
AcDbDimension
  2
*D23
 10
32421.76694245159
 20
-651.0648447039583
 30
0.0
 11
32329.76694245159
 21
-426.064844703953
 31
0.0
 70
    32
 71
     5
 42
149.9998500000001
  3
1-40
100
AcDbAlignedDimension
 13
33701.65523790707
 23
-201.0648447039584
 33
0.0
 14
32701.65523790707
 24
-651.0648447039584
 34
0.0
 50
90.0
100
AcDbRotatedDimension
1001
ACAD
1000
DSTYLE
1002
{
1070
   144
1040
0.333333
1002
}
  0
LINE
  5
D8FB
330
17
100
AcDbEntity
  8
SUNPOU
100
AcDbLine
 10
32701.65523790707
 20
-201.0648447039612
 30
0.0
 11
32701.65523790707
 21
-726.0648447039584
 31
0.0
  0
LINE
  5
D8FC
330
17
100
AcDbEntity
  8
SEIHIN
100
AcDbLine
 10
33701.65523790707
 20
-201.0648447039584
 30
0.0
 11
33701.65523790707
 21
-651.0648447039584
 31
0.0
  0
LINE
  5
D8FD
330
17
100
AcDbEntity
  8
SUNPOU
100
AcDbLine
 10
34701.65523790707
 20
-201.0648447039612
 30
0.0
 11
34701.65523790707
 21
-726.0648447039584
 31
0.0
  0
LINE
  5
D8FE
330
17
100
AcDbEntity
  8
SEIHIN
100
AcDbLine
 10
33938.48373395314
 20
-534.0648447039584
 30
0.0
 11
33938.48373395314
 21
-606.0648447039584
 31
0.0
  0
DIMENSION
  5
D8FF
330
17
100
AcDbEntity
  8
SUNPOU
100
AcDbDimension
  2
*D24
 10
34347.48373395314
 20
-459.0648447039585
 30
0.0
 11
34347.48373395314
 21
-267.064844703953
 31
0.0
 70
   160
  1
<>
 71
     5
 42
21.99997800000002
  3
1-40
100
AcDbAlignedDimension
 13
33947.48373395314
 23
-525.0648447039584
 33
0.0
 14
33947.48373395314
 24
-459.0648447039584
 34
0.0
 50
90.0
100
AcDbRotatedDimension
1001
ACAD
1000
DSTYLE
1002
{
1070
   144
1040
0.333333
1070
   173
1070
     1
1070
   343
1005
D4A3
1070
   344
1005
D4A3
1002
}
  0
DIMENSION
  5
D900
330
17
100
AcDbEntity
  8
SUNPOU
100
AcDbDimension
  2
*D25
 10
34347.48373395314
 20
-525.0648447039586
 30
0.0
 11
34255.48373395314
 21
-565.564844703953
 31
0.0
 70
    32
 71
     5
 42
26.999973
  3
1-40
100
AcDbAlignedDimension
 13
33938.48373395314
 23
-606.0648447039584
 33
0.0
 14
33947.48373395314
 24
-525.0648447039584
 34
0.0
 50
90.0
100
AcDbRotatedDimension
1001
ACAD
1000
DSTYLE
1002
{
1070
   144
1040
0.333333
1070
   173
1070
     1
1070
   343
1005
D4A3
1070
   344
1005
D4A3
1002
}
  0
DIMENSION
  5
D901
330
17
100
AcDbEntity
  8
SUNPOU
100
AcDbDimension
  2
*D26
 10
34347.48373395314
 20
-651.0648447039586
 30
0.0
 11
34347.48373395314
 21
-907.064844703953
 31
0.0
 70
   160
 71
     5
 42
14.999985
  3
1-40
100
AcDbAlignedDimension
 13
33938.48373395314
 23
-606.0648447039584
 33
0.0
 14
33968.48373395314
 24
-651.0648447039584
 34
0.0
 50
90.0
100
AcDbRotatedDimension
1001
ACAD
1000
DSTYLE
1002
{
1070
   144
1040
0.333333
1070
   173
1070
     1
1070
   343
1005
D4A3
1070
   344
1005
D4A3
1002
}
  0
DIMENSION
  5
D902
330
17
100
AcDbEntity
  8
SUNPOU
100
AcDbDimension
  2
*D27
 10
34981.65523790707
 20
-651.0648447039584
 30
0.0
 11
34889.65523790707
 21
-411.064844703953
 31
0.0
 70
    32
 71
     5
 42
159.9998399999999
  3
1-40
100
AcDbAlignedDimension
 13
33938.48373395314
 23
-171.0648447039584
 33
0.0
 14
34701.65523790707
 24
-651.0648447039584
 34
0.0
 50
90.0
100
AcDbRotatedDimension
1001
ACAD
1000
DSTYLE
1002
{
1070
   144
1040
0.333333
1002
}
  0
LEADER
  5
D903
330
17
100
AcDbEntity
  8
SUNPOU
100
AcDbLeader
  3
STANDARD
 76
     2
 10
33947.48373395314
 20
-481.5540645268284
 30
0.0
 10
33610.42887297271
 20
-1194.852368918928
 30
0.0
1001
ACAD
1000
DSTYLE
1002
{
1070
    40
1040
40.0
1070
    41
1040
2.0
1070
    42
1040
2.0
1070
    43
1040
7.0
1070
    44
1040
1.0
1070
    73
1070
     0
1070
    74
1070
     0
1070
    78
1070
     8
1070
   140
1040
2.5
1070
   141
1040
0.0
1070
   145
1040
1.0
1070
   147
1040
0.8
1070
   172
1070
     1
1070
   174
1070
     1
1070
   177
1070
   256
1070
   271
1070
     0
1070
   272
1070
     0
1070
   275
1070
     1
1070
   279
1070
     2
1070
   284
1070
     8
1070
   285
1070
     8
1070
   286
1070
     8
1070
   289
1070
     0
1002
}
  0
LINE
  5
D905
330
17
100
AcDbEntity
  8
HASEN
100
AcDbLine
 10
28903.29287243254
 20
562.5509071108318
 30
0.0
 11
29891.29287243254
 21
562.5509071108318
 31
0.0
  0
LINE
  5
D906
330
17
100
AcDbEntity
  8
HASEN
100
AcDbLine
 10
28903.29287243254
 20
262.5509071108318
 30
0.0
 11
29891.29287243254
 21
262.5509071108318
 31
0.0
  0
TEXT
  5
D907
330
17
100
AcDbEntity
  8
SUNPOU
100
AcDbText
 10
32898.73576078981
 20
1579.418061659609
 30
0.0
 40
120.0
  1
パッキン溝
100
AcDbText
  0
TEXT
  5
D908
330
17
100
AcDbEntity
  8
SUNPOU
100
AcDbText
 10
33070.63949009326
 20
1375.851460931455
 30
0.0
 40
120.0
  1
目地溝
100
AcDbText
  0
LINE
  5
D909
330
17
100
AcDbEntity
  8
SUNPOU
100
AcDbLine
 10
33604.87004873956
 20
1348.854440308201
 30
0.0
 11
33019.96390403507
 21
1348.854440308201
 31
0.0
1001
ACAD
1000
DSTYLE
1002
{
1070
    78
1070
     8
1070
   284
1070
     8
1070
   140
1040
2.5
1070
   145
1040
1.0
1070
    74
1070
     0
1070
    73
1070
     0
1070
    40
1040
30.0
1070
   287
1070
     5
1070
    42
1040
2.0
1070
    44
1040
1.0
1070
    43
1040
7.0
1070
   141
1040
0.0
1070
   275
1070
     1
1070
    41
1040
2.0
1070
   285
1070
     8
1070
   286
1070
     8
1002
}
  0
LINE
  5
D90A
330
17
100
AcDbEntity
  8
SUNPOU
100
AcDbLine
 10
33606.02474360346
 20
1552.421041036356
 30
0.0
 11
32896.5014626757
 21
1552.421041036356
 31
0.0
1001
ACAD
1000
DSTYLE
1002
{
1070
    78
1070
     8
1070
   284
1070
     8
1070
   140
1040
2.5
1070
   145
1040
1.0
1070
    74
1070
     0
1070
    73
1070
     0
1070
    40
1040
30.0
1070
   287
1070
     5
1070
    42
1040
2.0
1070
    44
1040
1.0
1070
    43
1040
7.0
1070
   141
1040
0.0
1070
   275
1070
     1
1070
    41
1040
2.0
1070
   285
1070
     8
1070
   286
1070
     8
1002
}
  0
LEADER
  5
D90B
330
17
100
AcDbEntity
  8
SUNPOU
100
AcDbLeader
  3
STANDARD
 76
     2
 10
33971.48373395314
 20
2062.688219002996
 30
0.0
 10
33604.87004873956
 20
1348.854440308201
 30
0.0
1001
ACAD
1000
DSTYLE
1002
{
1070
    40
1040
40.0
1070
    41
1040
2.0
1070
    42
1040
2.0
1070
    43
1040
7.0
1070
    44
1040
1.0
1070
    73
1070
     0
1070
    74
1070
     0
1070
    78
1070
     8
1070
   140
1040
2.5
1070
   141
1040
0.0
1070
   145
1040
1.0
1070
   147
1040
0.8
1070
   172
1070
     1
1070
   174
1070
     1
1070
   177
1070
   256
1070
   271
1070
     0
1070
   272
1070
     0
1070
   275
1070
     1
1070
   279
1070
     2
1070
   284
1070
     8
1070
   285
1070
     8
1070
   286
1070
     8
1070
   289
1070
     0
1002
}
  0
LEADER
  5
D90C
330
17
100
AcDbEntity
  8
SUNPOU
100
AcDbLeader
  3
STANDARD
 76
     2
 10
33947.48373395314
 20
2217.198999180126
 30
0.0
 10
33606.02474360346
 20
1552.421041036356
 30
0.0
1001
ACAD
1000
DSTYLE
1002
{
1070
    40
1040
40.0
1070
    41
1040
2.0
1070
    42
1040
2.0
1070
    43
1040
7.0
1070
    44
1040
1.0
1070
    73
1070
     0
1070
    74
1070
     0
1070
    78
1070
     8
1070
   140
1040
2.5
1070
   141
1040
0.0
1070
   145
1040
1.0
1070
   147
1040
0.8
1070
   172
1070
     1
1070
   174
1070
     1
1070
   177
1070
   256
1070
   271
1070
     0
1070
   272
1070
     0
1070
   275
1070
     1
1070
   279
1070
     2
1070
   284
1070
     8
1070
   285
1070
     8
1070
   286
1070
     8
1070
   289
1070
     0
1002
}
  0
DIMENSION
  5
D90F
330
17
100
AcDbEntity
  8
SUNPOU
100
AcDbDimension
  2
*D28
 10
34980.82245130723
 20
3187.688219002996
 30
0.0
 11
34888.82245130723
 21
2925.188219003001
 31
0.0
 70
    32
 71
     5
 42
174.9998250000002
  3
1-40
100
AcDbAlignedDimension
 13
33698.48373395314
 23
2662.688219002996
 33
0.0
 14
34701.65523790707
 24
3187.688219002996
 34
0.0
 50
90.0
100
AcDbRotatedDimension
1001
ACAD
1000
DSTYLE
1002
{
1070
   144
1040
0.333333
1002
}
  0
DIMENSION
  5
D910
330
17
100
AcDbEntity
  8
SUNPOU
100
AcDbDimension
  2
*D29
 10
34980.82245130723
 20
2047.688219002996
 30
0.0
 11
34888.82245130723
 21
2325.188219003001
 31
0.0
 70
    32
 71
     5
 42
184.999815
  3
1-40
100
AcDbAlignedDimension
 13
33938.48373395314
 23
2602.688219002996
 33
0.0
 14
34701.65523790707
 24
2047.688219002996
 34
0.0
 50
90.0
100
AcDbRotatedDimension
1001
ACAD
1000
DSTYLE
1002
{
1070
   144
1040
0.333333
1002
}
  0
DIMENSION
  5
D911
330
17
100
AcDbEntity
  8
SUNPOU
100
AcDbDimension
  2
*D30
 10
33698.48373395314
 20
3747.346060214398
 30
0.0
 11
33818.48373395314
 21
3839.346060214398
 31
0.0
 70
    32
 71
     5
 42
79.99992
  3
1-40
100
AcDbAlignedDimension
 13
33938.48373395314
 23
2602.688219002996
 33
0.0
 14
33698.48373395314
 24
3187.688219002996
 34
0.0
100
AcDbRotatedDimension
1001
ACAD
1000
DSTYLE
1002
{
1070
   144
1040
0.333333
1002
}
  0
DIMENSION
  5
D912
330
17
100
AcDbEntity
  8
SUNPOU
100
AcDbDimension
  2
*D31
 10
32421.79991884381
 20
2572.688219002996
 30
0.0
 11
32421.79991884381
 21
2602.688219003001
 31
0.0
 70
   160
 71
     5
 42
19.99998
  3
1-40
100
AcDbAlignedDimension
 13
33461.65523790707
 23
2632.688219002996
 33
0.0
 14
33701.65523790707
 24
2572.688219002996
 34
0.0
 50
90.0
100
AcDbRotatedDimension
1001
ACAD
1000
DSTYLE
1002
{
1070
   144
1040
0.333333
1002
}
  0
DIMENSION
  5
D913
330
17
100
AcDbEntity
  8
SUNPOU
100
AcDbDimension
  2
*D32
 10
32421.79991884381
 20
2632.688219002996
 30
0.0
 11
32329.79991884381
 21
2910.188219003001
 31
0.0
 70
    32
 71
     5
 42
184.9998150000003
  3
1-40
100
AcDbAlignedDimension
 13
32701.65523790706
 23
3187.688219002996
 33
0.0
 14
33461.65523790707
 24
2632.688219002996
 34
0.0
 50
90.0
100
AcDbRotatedDimension
1001
ACAD
1000
DSTYLE
1002
{
1070
   144
1040
0.333333
1002
}
  0
DIMENSION
  5
D914
330
17
100
AcDbEntity
  8
SUNPOU
100
AcDbDimension
  2
*D33
 10
32141.94459978055
 20
2047.688219002996
 30
0.0
 11
32049.94459978055
 21
2617.688219003001
 31
0.0
 70
    32
 71
     5
 42
379.9996200000003
  3
1-40
100
AcDbAlignedDimension
 13
32701.65523790706
 23
3187.688219002996
 33
0.0
 14
32701.65523790706
 24
2047.688219002996
 34
0.0
 50
90.0
100
AcDbRotatedDimension
1001
ACAD
1000
DSTYLE
1002
{
1070
   144
1040
0.333333
1002
}
  0
DIMENSION
  5
D915
330
17
100
AcDbEntity
  8
SUNPOU
100
AcDbDimension
  2
*D34
 10
32421.79991884381
 20
2047.688219002996
 30
0.0
 11
32329.79991884381
 21
2310.188219003001
 31
0.0
 70
    32
 71
     5
 42
174.999825
  3
1-40
100
AcDbAlignedDimension
 13
33701.65523790707
 23
2572.688219002996
 33
0.0
 14
32701.65523790707
 24
2047.688219002996
 34
0.0
 50
90.0
100
AcDbRotatedDimension
1001
ACAD
1000
DSTYLE
1002
{
1070
   144
1040
0.333333
1002
}
  0
DIMENSION
  5
D918
330
17
100
AcDbEntity
  8
SUNPOU
100
AcDbDimension
  2
*D35
 10
33974.48373395314
 20
1483.435593362563
 30
0.0
 11
34230.48373395314
 21
1483.435593362563
 31
0.0
 70
   160
 71
     5
 42
11.999988
  3
1-40
100
AcDbAlignedDimension
 13
33938.48373395314
 23
2092.688219002996
 33
0.0
 14
33974.48373395314
 24
2077.688219002996
 34
0.0
100
AcDbRotatedDimension
1001
ACAD
1000
DSTYLE
1002
{
1070
   144
1040
0.333333
1002
}
  0
DIMENSION
  5
D919
330
17
100
AcDbEntity
  8
SUNPOU
100
AcDbDimension
  2
*D36
 10
33701.65523790707
 20
1767.832899939732
 30
0.0
 11
33581.65523790707
 21
1859.832899939732
 31
0.0
 70
    32
 71
     5
 42
79.99992
  3
1-40
100
AcDbAlignedDimension
 13
33461.65523790707
 23
2632.688219002996
 33
0.0
 14
33701.65523790707
 24
2047.688219002996
 34
0.0
100
AcDbRotatedDimension
1001
ACAD
1000
DSTYLE
1002
{
1070
   144
1040
0.333333
1002
}
  0
TEXT
  5
D91A
330
17
100
AcDbEntity
  8
SUNPOU
100
AcDbText
 10
32882.81964269852
 20
6369.411254033006
 30
0.0
 40
119.9999997
  1
SBPR 1080/1230
 41
0.8
100
AcDbText
  0
DIMENSION
  5
D91B
330
17
100
AcDbEntity
  8
SUNPOU
100
AcDbDimension
  2
*D37
 10
27259.70454075908
 20
5406.16379692493
 30
0.0
 11
27167.70454075908
 21
5096.163796924933
 31
0.0
 70
    32
  1
2@310=<>
 71
     5
 42
620.0000000000018
  3
1-40
100
AcDbAlignedDimension
 13
26899.70454075908
 23
4786.163796924928
 33
0.0
 14
26899.70454075908
 24
5406.16379692493
 34
0.0
 50
90.0
100
AcDbRotatedDimension
  0
DIMENSION
  5
D91C
330
17
100
AcDbEntity
  8
SUNPOU
100
AcDbDimension
  2
*D38
 10
27259.70454075908
 20
4556.16379692493
 30
0.0
 11
27259.70454075908
 21
4324.163796924935
 31
0.0
 70
   160
  1
<>
 71
     5
 42
229.9999999999973
  3
1-40
100
AcDbAlignedDimension
 13
26899.70454075908
 23
4786.163796924928
 33
0.0
 14
26719.70454075908
 24
4556.16379692493
 34
0.0
 50
90.0
100
AcDbRotatedDimension
  0
LINE
  5
D91D
330
17
100
AcDbEntity
  8
PC
100
AcDbLine
 10
21289.70454075908
 20
4796.16379692493
 30
0.0
 11
21239.70454075908
 21
4801.16379692493
 31
0.0
  0
LINE
  5
D91E
330
17
100
AcDbEntity
  8
PC
100
AcDbLine
 10
21289.70454075908
 20
4776.16379692493
 30
0.0
 11
21239.70454075908
 21
4771.16379692493
 31
0.0
  0
LINE
  5
D91F
330
17
100
AcDbEntity
  8
PC
100
AcDbLine
 10
21289.70454075908
 20
4796.16379692493
 30
0.0
 11
21289.70454075908
 21
4776.16379692493
 31
0.0
  0
LINE
  5
D920
330
17
100
AcDbEntity
  8
PC
  6
CENTER
 48
0.5
100
AcDbLine
 10
21259.70454075908
 20
4786.16379692493
 30
0.0
 11
26879.70454075908
 21
4786.163796924928
 31
0.0
  0
LINE
  5
D921
330
17
100
AcDbEntity
  8
PC
100
AcDbLine
 10
21289.70454075908
 20
5106.16379692493
 30
0.0
 11
21289.70454075908
 21
5086.16379692493
 31
0.0
  0
LINE
  5
D922
330
17
100
AcDbEntity
  8
PC
100
AcDbLine
 10
21289.70454075908
 20
5106.16379692493
 30
0.0
 11
21239.70454075908
 21
5111.16379692493
 31
0.0
  0
LINE
  5
D923
330
17
100
AcDbEntity
  8
PC
100
AcDbLine
 10
21289.70454075908
 20
5086.16379692493
 30
0.0
 11
21239.70454075908
 21
5081.16379692493
 31
0.0
  0
LINE
  5
D924
330
17
100
AcDbEntity
  8
PC
  6
CENTER
 48
0.5
100
AcDbLine
 10
21259.70454075908
 20
5096.16379692493
 30
0.0
 11
26879.70454075908
 21
5096.163796924928
 31
0.0
  0
LINE
  5
D925
330
17
100
AcDbEntity
  8
PC
  6
HIDDEN
 48
0.4
100
AcDbLine
 10
26799.70454075908
 20
5441.163796924926
 30
0.0
 11
26799.70454075908
 21
5371.163796924926
 31
0.0
  0
LINE
  5
D926
330
17
100
AcDbEntity
  8
PC
  6
HIDDEN
 48
0.4
100
AcDbLine
 10
26799.70454075908
 20
5371.163796924928
 30
0.0
 11
26899.70454075908
 21
5353.663796924928
 31
0.0
  0
LINE
  5
D927
330
17
100
AcDbEntity
  8
PC
  6
HIDDEN
 48
0.4
100
AcDbLine
 10
26799.70454075908
 20
5441.163796924928
 30
0.0
 11
26899.70454075908
 21
5458.663796924928
 31
0.0
  0
LINE
  5
D928
330
17
100
AcDbEntity
  8
PC
100
AcDbLine
 10
21289.70454075908
 20
5416.16379692493
 30
0.0
 11
21289.70454075908
 21
5396.16379692493
 31
0.0
  0
LINE
  5
D929
330
17
100
AcDbEntity
  8
PC
100
AcDbLine
 10
21289.70454075908
 20
5396.16379692493
 30
0.0
 11
21239.70454075908
 21
5391.16379692493
 31
0.0
  0
LINE
  5
D92A
330
17
100
AcDbEntity
  8
PC
100
AcDbLine
 10
21289.70454075908
 20
5416.16379692493
 30
0.0
 11
21239.70454075908
 21
5421.16379692493
 31
0.0
  0
LINE
  5
D92B
330
17
100
AcDbEntity
  8
PC
  6
CENTER
 48
0.5
100
AcDbLine
 10
21259.70454075908
 20
5406.16379692493
 30
0.0
 11
26879.70454075908
 21
5406.163796924928
 31
0.0
  0
DIMENSION
  5
D92C
330
17
100
AcDbEntity
  8
SUNPOU
100
AcDbDimension
  2
*D39
 10
29983.29287243254
 20
3211.274477000078
 30
0.0
 11
30215.29287243254
 21
3211.274477000078
 31
0.0
 70
   160
 71
     5
 42
230.0
  3
1-40
100
AcDbAlignedDimension
 13
29753.29287243254
 23
2642.550907110831
 33
0.0
 14
29983.29287243254
 24
2642.550907110831
 34
0.0
100
AcDbRotatedDimension
  0
DIMENSION
  5
D92D
330
17
100
AcDbEntity
  8
SUNPOU
100
AcDbDimension
  2
*D40
 10
29753.29287243254
 20
3211.274477000078
 30
0.0
 11
29443.29287243254
 21
3303.274477000078
 31
0.0
 70
    32
  1
2@310=<>
 71
     5
 42
620.0
  3
1-40
100
AcDbAlignedDimension
 13
29133.29287243254
 23
2642.550907110831
 33
0.0
 14
29753.29287243254
 24
2642.550907110831
 34
0.0
100
AcDbRotatedDimension
  0
DIMENSION
  5
D92E
330
17
100
AcDbEntity
  8
SUNPOU
100
AcDbDimension
  2
*D41
 10
29133.29287243254
 20
3211.274477000078
 30
0.0
 11
28671.29287243254
 21
3211.274477000078
 31
0.0
 70
   160
 71
     5
 42
230.0
  3
1-40
100
AcDbAlignedDimension
 13
28903.29287243254
 23
2642.550907110831
 33
0.0
 14
29133.29287243254
 24
2642.550907110831
 34
0.0
100
AcDbRotatedDimension
  0
TEXT
  5
D92F
330
17
100
AcDbEntity
  8
SUNPOU
100
AcDbText
 10
30172.2034419647
 20
-213.1471569176647
 30
0.0
 40
119.9999997
  1
PC鋼棒φ19mm(C種)
100
AcDbText
  0
LEADER
  5
D930
330
17
100
AcDbEntity
  8
SUNPOU
100
AcDbLeader
  3
STANDARD
 76
     2
 10
29805.79287243253
 20
182.5509071108318
 30
0.0
 10
30169.96914385058
 20
-240.1441775409185
 30
0.0
210
0.0
220
0.0
230
-1.0
1001
ACAD
1000
DSTYLE
1002
{
1070
    40
1040
40.0
1070
    41
1040
2.0
1070
    42
1040
2.0
1070
    43
1040
7.0
1070
    44
1040
1.0
1070
    73
1070
     0
1070
    74
1070
     0
1070
    78
1070
     8
1070
   140
1040
2.5
1070
   141
1040
0.0
1070
   145
1040
1.0
1070
   147
1040
0.8
1070
   172
1070
     1
1070
   174
1070
     1
1070
   177
1070
   256
1070
   271
1070
     0
1070
   272
1070
     0
1070
   275
1070
     1
1070
   279
1070
     2
1070
   284
1070
     8
1070
   285
1070
     8
1070
   286
1070
     8
1070
   289
1070
     0
1002
}
  0
LEADER
  5
D932
330
17
100
AcDbEntity
  8
SUNPOU
100
AcDbLeader
  3
STANDARD
 76
     2
 10
29805.79287243254
 20
2502.550907110831
 30
0.0
 10
30105.70728981042
 20
2805.970970439032
 30
0.0
210
0.0
220
0.0
230
-1.0
1001
ACAD
1000
DSTYLE
1002
{
1070
    40
1040
40.0
1070
    41
1040
2.0
1070
    42
1040
2.0
1070
    43
1040
7.0
1070
    44
1040
1.0
1070
    73
1070
     0
1070
    74
1070
     0
1070
    78
1070
     8
1070
   140
1040
2.5
1070
   141
1040
0.0
1070
   145
1040
1.0
1070
   147
1040
0.8
1070
   172
1070
     1
1070
   174
1070
     1
1070
   177
1070
   256
1070
   271
1070
     0
1070
   272
1070
     0
1070
   275
1070
     1
1070
   279
1070
     2
1070
   284
1070
     8
1070
   285
1070
     8
1070
   286
1070
     8
1070
   289
1070
     0
1002
}
  0
LINE
  5
D933
330
17
100
AcDbEntity
  8
SUNPOU
100
AcDbLine
 10
31631.78533526689
 20
2805.970970439032
 30
0.0
 11
30105.70728981042
 21
2805.970970439032
 31
0.0
1001
ACAD
1000
DSTYLE
1002
{
1070
    78
1070
     8
1070
   284
1070
     8
1070
   140
1040
2.5
1070
   145
1040
1.0
1070
    74
1070
     0
1070
    73
1070
     0
1070
    40
1040
30.0
1070
   287
1070
     5
1070
    42
1040
2.0
1070
    44
1040
1.0
1070
    43
1040
7.0
1070
   141
1040
0.0
1070
   275
1070
     1
1070
    41
1040
2.0
1070
   285
1070
     8
1070
   286
1070
     8
1002
}
  0
TEXT
  5
D934
330
17
100
AcDbEntity
  8
SUNPOU
100
AcDbText
 10
30121.72467888946
 20
2843.576099088495
 30
0.0
 40
119.9999997
  1
PC鋼棒φ19mm(C種)
100
AcDbText
  0
LINE
  5
D936
330
17
100
AcDbEntity
  8
PC
100
AcDbLine
 10
29133.29287243254
 20
2555.050907110831
 30
0.0
 11
29133.29287243254
 21
2450.050907110831
 31
0.0
  0
LINE
  5
D937
330
17
100
AcDbEntity
  8
PC
100
AcDbLine
 10
29080.79287243254
 20
2502.550907110831
 30
0.0
 11
29185.79287243254
 21
2502.550907110831
 31
0.0
  0
DIMENSION
  5
D938
330
17
100
AcDbEntity
  8
SUNPOU
100
AcDbDimension
  2
*D42
 10
29983.29287243254
 20
-957.4490907891741
 30
0.0
 11
29443.29287243254
 21
-865.4490907891741
 31
0.0
 70
    32
 71
     5
 42
1080.0
  3
1-40
100
AcDbAlignedDimension
 13
28903.29287243254
 23
-117.4490928891682
 33
0.0
 14
29983.29287243254
 24
-117.4490928891682
 34
0.0
100
AcDbRotatedDimension
  0
DIMENSION
  5
D939
330
17
100
AcDbEntity
  8
SUNPOU
100
AcDbDimension
  2
*D43
 10
29903.29287243254
 20
-677.4490914891721
 30
0.0
 11
29403.29287243254
 21
-585.4490914891721
 31
0.0
 70
    32
 71
     5
 42
1000.0
  3
1-40
100
AcDbAlignedDimension
 13
28903.29287243254
 23
-117.4490928891682
 33
0.0
 14
29903.29287243254
 24
-117.4490928891682
 34
0.0
100
AcDbRotatedDimension
  0
DIMENSION
  5
D93A
330
17
100
AcDbEntity
  8
SUNPOU
100
AcDbDimension
  2
*D44
 10
29983.29287243254
 20
-677.4490914891721
 30
0.0
 11
30247.29287243254
 21
-677.4490914891721
 31
0.0
 70
   160
 71
     5
 42
80.0
  3
1-40
100
AcDbAlignedDimension
 13
29903.29287243254
 23
-117.4490928891682
 33
0.0
 14
29983.29287243254
 24
-117.4490928891682
 34
0.0
100
AcDbRotatedDimension
  0
DIMENSION
  5
D93B
330
17
100
AcDbEntity
  8
SUNPOU
100
AcDbDimension
  2
*D45
 10
28983.29287243254
 20
-397.4490921891702
 30
0.0
 11
29247.29287243254
 21
-397.4490921891702
 31
0.0
 70
   160
 71
     5
 42
80.0
  3
1-40
100
AcDbAlignedDimension
 13
28903.29287243254
 23
-117.4490928891682
 33
0.0
 14
28983.29287243254
 24
-117.4490928891682
 34
0.0
100
AcDbRotatedDimension
  0
DIMENSION
  5
D93C
330
17
100
AcDbEntity
  8
SUNPOU
100
AcDbDimension
  2
*D46
 10
26899.70454075908
 20
-957.4490907891741
 30
0.0
 11
24069.70454075908
 21
-865.4490907891741
 31
0.0
 70
    32
 71
     5
 42
5660.0
  3
1-40
100
AcDbAlignedDimension
 13
21239.70454075908
 23
-117.4490928891682
 33
0.0
 14
26899.70454075908
 24
-117.4490928891682
 34
0.0
100
AcDbRotatedDimension
  0
DIMENSION
  5
D93D
330
17
100
AcDbEntity
  8
SUNPOU
100
AcDbDimension
  2
*D47
 10
21569.70454075908
 20
-677.4710052948697
 30
0.0
 11
24069.70454075908
 21
-585.4710052948697
 31
0.0
 70
    32
  1
<>
 71
     5
 42
5000.0
  3
1-40
100
AcDbAlignedDimension
 13
26569.70454075908
 23
-117.4490928891682
 33
0.0
 14
21569.70454075908
 24
-117.4490928891682
 34
0.0
100
AcDbRotatedDimension
  0
DIMENSION
  5
D93E
330
17
100
AcDbEntity
  8
SUNPOU
100
AcDbDimension
  2
*D48
 10
26899.70454075908
 20
-677.4490914891733
 30
0.0
 11
26734.70454075908
 21
-585.4490914891733
 31
0.0
 70
    32
 71
     5
 42
330.0
  3
1-40
100
AcDbAlignedDimension
 13
26569.70454075908
 23
-117.4490928891682
 33
0.0
 14
26899.70454075908
 24
-117.4490928891682
 34
0.0
100
AcDbRotatedDimension
  0
DIMENSION
  5
D93F
330
17
100
AcDbEntity
  8
SUNPOU
100
AcDbDimension
  2
*D49
 10
21569.70454075908
 20
-677.4710052948697
 30
0.0
 11
21404.70454075908
 21
-585.4710052948697
 31
0.0
 70
    32
 71
     5
 42
330.0
  3
1-40
100
AcDbAlignedDimension
 13
21239.70454075908
 23
-117.4490928891682
 33
0.0
 14
21569.70454075908
 24
-117.4490928891682
 34
0.0
100
AcDbRotatedDimension
  0
DIMENSION
  5
D940
330
17
100
AcDbEntity
  8
SUNPOU
100
AcDbDimension
  2
*D50
 10
27819.70454005909
 20
-117.4490928891685
 30
0.0
 11
27727.70454005909
 21
1262.550907110835
 31
0.0
 70
    32
 71
     5
 42
2759.999999999998
  3
1-40
100
AcDbAlignedDimension
 13
26899.70454075908
 23
2642.55090711083
 33
0.0
 14
26899.70454075908
 24
-117.4490928891682
 34
0.0
 50
90.0
100
AcDbRotatedDimension
  0
DIMENSION
  5
D941
330
17
100
AcDbEntity
  8
SUNPOU
100
AcDbDimension
  2
*D51
 10
27539.70454075909
 20
2262.55090711083
 30
0.0
 11
27447.70454075909
 21
1262.550907110834
 31
0.0
 70
    32
 71
     5
 42
2000.0
  3
1-40
100
AcDbAlignedDimension
 13
26899.70454075908
 23
262.5509071108299
 33
0.0
 14
26899.70454075908
 24
2262.55090711083
 34
0.0
 50
90.0
100
AcDbRotatedDimension
  0
DIMENSION
  5
D942
330
17
100
AcDbEntity
  8
SUNPOU
100
AcDbDimension
  2
*D52
 10
27539.70454075909
 20
2642.55090711083
 30
0.0
 11
27447.70454075909
 21
2452.550907110834
 31
0.0
 70
    32
 71
     5
 42
380.0
  3
1-40
100
AcDbAlignedDimension
 13
26899.70454075908
 23
2262.55090711083
 33
0.0
 14
26899.70454075908
 24
2642.55090711083
 34
0.0
 50
90.0
100
AcDbRotatedDimension
  0
DIMENSION
  5
D943
330
17
100
AcDbEntity
  8
SUNPOU
100
AcDbDimension
  2
*D53
 10
27539.70454075909
 20
-117.4490928891684
 30
0.0
 11
27539.70454075909
 21
72.55090711083156
 31
0.0
 70
   160
 71
     5
 42
380.0
  3
1-40
100
AcDbAlignedDimension
 13
26899.70454075908
 23
262.5509071108318
 33
0.0
 14
26899.70454075908
 24
-117.4490928891682
 34
0.0
 50
90.0
100
AcDbRotatedDimension
  0
DIMENSION
  5
D944
330
17
100
AcDbEntity
  8
SUNPOU
100
AcDbDimension
  2
*D54
 10
27819.7656827755
 20
5556.16379692493
 30
0.0
 11
27819.7656827755
 21
5900.163796924934
 31
0.0
 70
   160
 71
     5
 42
80.0
  3
1-40
100
AcDbAlignedDimension
 13
26899.70454075908
 23
5636.16379692493
 33
0.0
 14
26899.70454075908
 24
5556.16379692493
 34
0.0
 50
90.0
100
AcDbRotatedDimension
  0
DIMENSION
  5
D945
330
17
100
AcDbEntity
  8
SUNPOU
100
AcDbDimension
  2
*D55
 10
27819.70454005909
 20
5556.16379692493
 30
0.0
 11
27727.70454005909
 21
5056.163796924935
 31
0.0
 70
    32
 71
     5
 42
999.9999999999991
  3
1-40
100
AcDbAlignedDimension
 13
26719.70454075908
 23
4556.16379692493
 33
0.0
 14
26899.70454075908
 24
5556.16379692493
 34
0.0
 50
90.0
100
AcDbRotatedDimension
  0
DIMENSION
  5
D946
330
17
100
AcDbEntity
  8
SUNPOU
100
AcDbDimension
  2
*D56
 10
27539.70454005909
 20
4556.16379692493
 30
0.0
 11
27539.70454005909
 21
4292.163796924935
 31
0.0
 70
   160
 71
     5
 42
79.99999999999909
  3
1-40
100
AcDbAlignedDimension
 13
26899.70454075908
 23
4636.16379692493
 33
0.0
 14
26719.70454075908
 24
4556.16379692493
 34
0.0
 50
90.0
100
AcDbRotatedDimension
  0
TEXT
  5
D947
330
17
100
AcDbEntity
  8
SUNPOU
100
AcDbText
 10
35018.009078031
 20
4730.175288532984
 30
0.0
 40
120.0
  1
14500
 41
0.8
100
AcDbText
  0
TEXT
  5
D948
330
17
100
AcDbEntity
  8
SUNPOU
100
AcDbText
 10
34065.45625269345
 20
4293.453277647173
 30
0.0
 40
160.0
  1
S=1/10
 41
0.8
 72
     1
 11
34374.78958602678
 21
4293.453277647173
 31
0.0
100
AcDbText
  0
LINE
  5
D949
330
17
100
AcDbEntity
  8
HASEN
100
AcDbLine
 10
29983.29287243254
 20
57.55090711083176
 30
0.0
 11
29903.29287243254
 21
77.55090711083176
 31
0.0
  0
LINE
  5
D94A
330
17
100
AcDbEntity
  8
SEIHIN
100
AcDbLine
 10
29983.29287243254
 20
-117.4490928891682
 30
0.0
 11
29983.29287243254
 21
-32.44909288916824
 31
0.0
  0
LINE
  5
D94B
330
17
100
AcDbEntity
  8
HASEN
100
AcDbLine
 10
29891.29287243254
 20
2262.550907110833
 30
0.0
 11
29891.29287243254
 21
262.5509071108318
 31
0.0
  0
LINE
  5
D94C
330
17
100
AcDbEntity
  8
HASEN
100
AcDbLine
 10
29903.29287243254
 20
2447.550907110834
 30
0.0
 11
29903.29287243254
 21
77.55090711083176
 31
0.0
  0
LINE
  5
D94D
330
17
100
AcDbEntity
  8
SEIHIN
100
AcDbLine
 10
29983.29287243254
 20
2642.550907110831
 30
0.0
 11
29983.29287243254
 21
2522.550907110831
 31
0.0
  0
LINE
  5
D94E
330
17
100
AcDbEntity
  8
SEIHIN
100
AcDbLine
 10
28983.29287243254
 20
-117.4490928891682
 30
0.0
 11
28983.29287243254
 21
2512.550907110832
 31
0.0
  0
LINE
  5
D94F
330
17
100
AcDbEntity
  8
SEIHIN
100
AcDbLine
 10
28983.29287243254
 20
67.55090711083722
 30
0.0
 11
28903.29287243254
 21
87.5509071108354
 31
0.0
  0
LINE
  5
D950
330
17
100
AcDbEntity
  8
SEIHIN
100
AcDbLine
 10
28903.29287243254
 20
87.5509071108354
 30
0.0
 11
28903.29287243254
 21
2437.550907110831
 31
0.0
  0
LINE
  5
D951
330
17
100
AcDbEntity
  8
SEIHIN
100
AcDbLine
 10
28983.29287243254
 20
2457.550907110831
 30
0.0
 11
28903.29287243254
 21
2437.550907110831
 31
0.0
  0
LINE
  5
D952
330
17
100
AcDbEntity
  8
SEIHIN
100
AcDbLine
 10
28983.29287243254
 20
2642.550907110831
 30
0.0
 11
28983.29287243254
 21
2512.550907110831
 31
0.0
  0
LINE
  5
D953
330
17
100
AcDbEntity
  8
SEIHIN
100
AcDbLine
 10
21239.70454075908
 20
-117.4490928891682
 30
0.0
 11
21239.70454075908
 21
2642.55090711083
 31
0.0
  0
LINE
  5
D954
330
17
100
AcDbEntity
  8
SEIHIN
100
AcDbLine
 10
26739.70454075908
 20
4636.16379692493
 30
0.0
 11
26719.70454075908
 21
4556.16379692493
 31
0.0
  0
LINE
  5
D955
330
17
100
AcDbEntity
  8
HASEN
100
AcDbLine
 10
26584.70454075908
 20
5556.16379692493
 30
0.0
 11
26569.70454075908
 21
5544.16379692493
 31
0.0
  0
LINE
  5
D956
330
17
100
AcDbEntity
  8
HASEN
100
AcDbLine
 10
26749.70454075908
 20
5636.16379692493
 30
0.0
 11
26729.70454075907
 21
5556.163796924929
 31
0.0
  0
LINE
  5
D957
330
17
100
AcDbEntity
  8
SEIHIN
100
AcDbLine
 10
26899.70454075908
 20
5636.16379692493
 30
0.0
 11
26899.70454075908
 21
4636.16379692493
 31
0.0
  0
LINE
  5
D958
330
17
100
AcDbEntity
  8
HASEN
100
AcDbLine
 10
26569.70454075908
 20
5544.16379692493
 30
0.0
 11
26569.70454075908
 21
4556.16379692493
 31
0.0
  0
LINE
  5
D959
330
17
100
AcDbEntity
  8
HASEN
100
AcDbLine
 10
26269.70454075908
 20
5544.163796924929
 30
0.0
 11
26269.70454075908
 21
4556.16379692493
 31
0.0
  0
LINE
  5
D95A
330
17
100
AcDbEntity
  8
HASEN
100
AcDbLine
 10
26569.70454075908
 20
5544.16379692493
 30
0.0
 11
22689.70454075908
 21
5544.163796924931
 31
0.0
  0
LINE
  5
D95B
330
17
100
AcDbEntity
  8
SEIHIN
100
AcDbLine
 10
26899.70454075908
 20
5636.16379692493
 30
0.0
 11
21239.70454075908
 21
5636.16379692493
 31
0.0
  0
LINE
  5
D95C
330
17
100
AcDbEntity
  8
HASEN
100
AcDbLine
 10
21569.70454075907
 20
5544.163796924931
 30
0.0
 11
22689.70454075908
 21
5544.163796924931
 31
0.0
  0
LINE
  5
D95D
330
17
100
AcDbEntity
  8
HASEN
100
AcDbLine
 10
21409.70454075909
 20
5556.16379692493
 30
0.0
 11
26729.70454075907
 21
5556.163796924929
 31
0.0
  0
LINE
  5
D95E
330
17
100
AcDbEntity
  8
HASEN
100
AcDbLine
 10
21869.70454075908
 20
5544.163796924931
 30
0.0
 11
21869.70454075908
 21
4556.163796924932
 31
0.0
  0
LINE
  5
D95F
330
17
100
AcDbEntity
  8
SEIHIN
100
AcDbLine
 10
22689.70454075908
 20
4556.163796924932
 30
0.0
 11
26719.70454075908
 21
4556.16379692493
 31
0.0
  0
LINE
  5
D960
330
17
100
AcDbEntity
  8
SEIHIN
100
AcDbLine
 10
22689.70454075908
 20
4556.163796924932
 30
0.0
 11
21419.70454075907
 21
4556.163796924932
 31
0.0
  0
LINE
  5
D961
330
17
100
AcDbEntity
  8
SEIHIN
100
AcDbLine
 10
21239.70454075908
 20
5636.163796924931
 30
0.0
 11
21239.70454075908
 21
4636.163796924933
 31
0.0
  0
LINE
  5
D962
330
17
100
AcDbEntity
  8
HASEN
100
AcDbLine
 10
21569.70454075907
 20
5544.163796924931
 30
0.0
 11
21569.70454075908
 21
4556.163796924932
 31
0.0
  0
TEXT
  5
D964
330
17
100
AcDbEntity
  8
SUNPOU
100
AcDbText
 10
35480.95611031532
 20
4731.830369435207
 30
0.0
 40
120.0
  1
kg
 41
0.8
100
AcDbText
  0
TEXT
  5
D965
330
17
100
AcDbEntity
  8
SUNPOU
100
AcDbText
 10
34531.66760323294
 20
4731.830369435207
 30
0.0
 40
120.0
  1
W  =
 41
0.8
100
AcDbText
  0
TEXT
  5
D966
330
17
100
AcDbEntity
  8
SUNPOU
100
AcDbText
 10
34661.92697951545
 20
4941.647871266512
 30
0.0
 40
66.66666666666666
  1
0
 41
0.8
100
AcDbText
  0
TEXT
  5
D967
330
17
100
AcDbEntity
  8
SUNPOU
100
AcDbText
 10
34549.46675690047
 20
4939.353666321713
 30
0.0
 40
120.0
  1
K  =
 41
0.8
100
AcDbText
  0
TEXT
  5
D968
330
17
100
AcDbEntity
  8
SUNPOU
100
AcDbText
 10
35047.84314858569
 20
4939.353666321713
 30
0.0
 40
120.0
  1
0.50
 41
0.8
100
AcDbText
  0
TEXT
  5
D969
330
17
100
AcDbEntity
  8
SUNPOU
100
AcDbText
 10
35913.27436407262
 20
5198.180174970412
 30
0.0
 40
47.99999999999999
  1
3
 41
0.8
 72
     2
 11
35938.87436407262
 21
5222.180174970412
 31
0.0
100
AcDbText
 73
     2
  0
TEXT
  5
D96A
330
17
100
AcDbEntity
  8
SUNPOU
100
AcDbText
 10
35480.95611031532
 20
5135.018473723665
 30
0.0
 40
120.0
  1
kN/m
 41
0.8
100
AcDbText
  0
TEXT
  5
D96B
330
17
100
AcDbEntity
  8
SUNPOU
100
AcDbText
 10
34531.66760323294
 20
5135.018473723665
 30
0.0
 40
120.0
  1
γ  =
 41
0.8
100
AcDbText
  0
TEXT
  5
D96C
330
17
100
AcDbEntity
  8
SUNPOU
100
AcDbText
 10
35047.84314858569
 20
5135.018473723665
 30
0.0
 40
120.0
  1
18.0
 41
0.8
100
AcDbText
  0
TEXT
  5
D96D
330
17
100
AcDbEntity
  8
SUNPOU
100
AcDbText
 10
35012.24484125065
 20
5330.683281125617
 30
0.0
 40
120.0
  1
24.5
 41
0.8
100
AcDbText
  0
TEXT
  5
D96E
330
17
100
AcDbEntity
  8
SUNPOU
100
AcDbText
 10
35480.95611031532
 20
5330.683281125617
 30
0.0
 40
120.0
  1
kN/m
 41
0.8
100
AcDbText
  0
TEXT
  5
D96F
330
17
100
AcDbEntity
  8
SUNPOU
100
AcDbText
 10
34644.12782584793
 20
5332.977486070415
 30
0.0
 40
66.66666666666666
  1
c
 41
0.8
100
AcDbText
  0
TEXT
  5
D970
330
17
100
AcDbEntity
  8
SUNPOU
100
AcDbText
 10
35877.01784900767
 20
5990.656878083904
 30
0.0
 40
47.99999999999999
  1
2
 41
0.8
 72
     2
 11
35902.61784900766
 21
6014.656878083904
 31
0.0
100
AcDbText
 73
     2
  0
TEXT
  5
D971
330
17
100
AcDbEntity
  8
SUNPOU
100
AcDbText
 10
35433.22390542532
 20
5925.901138855736
 30
0.0
 40
120.0
  1
N/mm
 41
0.8
100
AcDbText
  0
TEXT
  5
D972
330
17
100
AcDbEntity
  8
SUNPOU
100
AcDbText
 10
35047.57544247039
 20
5925.901138855736
 30
0.0
 40
120.0
  1
160
 41
0.8
100
AcDbText
  0
TEXT
  5
D973
330
17
100
AcDbEntity
  8
SUNPOU
100
AcDbText
 10
34507.66760323294
 20
5925.901138855736
 30
0.0
 40
120.0
  1
σ   = 
 41
0.8
100
AcDbText
  0
TEXT
  5
D974
330
17
100
AcDbEntity
  8
SUNPOU
100
AcDbText
 10
34620.3956209579
 20
5925.901138855736
 30
0.0
 40
66.66666666666666
  1
sa
 41
0.8
100
AcDbText
  0
TEXT
  5
D975
330
17
100
AcDbEntity
  8
SUNPOU
100
AcDbText
 10
35433.22390542532
 20
6757.469205525911
 30
0.0
 40
120.0
  1
N/mm
 41
0.8
100
AcDbText
  0
TEXT
  5
D976
330
17
100
AcDbEntity
  8
SUNPOU
100
AcDbText
 10
35077.24069858291
 20
6757.469205525911
 30
0.0
 40
120.0
  1
40
 41
0.8
100
AcDbText
  0
TEXT
  5
D977
330
17
100
AcDbEntity
  8
SUNPOU
100
AcDbText
 10
34620.3956209579
 20
6757.469205525911
 30
0.0
 40
66.66666666666666
  1
ck
 41
0.8
100
AcDbText
  0
TEXT
  5
D978
330
17
100
AcDbEntity
  8
SUNPOU
100
AcDbText
 10
32165.66350322093
 20
4743.285101930764
 30
0.0
 40
120.0
  1
製品参考質量
100
AcDbText
  0
LINE
  5
D979
330
17
100
AcDbEntity
  8
SUNPOU
100
AcDbLine
 10
32069.70454075908
 20
4636.618435264097
 30
0.0
 11
36069.70454075908
 21
4636.618435264097
 31
0.0
  0
LINE
  5
D97B
330
17
100
AcDbEntity
  8
SUNPOU
100
AcDbLine
 10
33213.85071801666
 20
1091.371951281674
 30
0.0
 11
33766.13828020717
 21
1091.371951281671
 31
0.0
  0
TEXT
  5
D97C
330
17
100
AcDbEntity
  8
SUNPOU
100
AcDbText
 10
33216.8381943468
 20
1110.121951281671
 30
0.0
 40
160.0
  1
側　壁
 72
     1
 11
33483.50486101347
 21
1110.121951281671
 31
0.0
100
AcDbText
  0
TEXT
  5
D97D
330
17
100
AcDbEntity
  8
SUNPOU
100
AcDbText
 10
33255.37187086456
 20
3987.508149203416
 30
0.0
 40
160.0
  1
頂・底版
 72
     1
 11
33618.03853753123
 21
3987.508149203416
 31
0.0
100
AcDbText
  0
LINE
  5
D97E
330
17
100
AcDbEntity
  8
SUNPOU
100
AcDbLine
 10
33236.45008860584
 20
3952.515315144391
 30
0.0
 11
33997.93299108606
 21
3952.515315144389
 31
0.0
  0
LINE
  5
D983
330
17
100
AcDbEntity
  8
SUNPOU
100
AcDbLine
 10
32690.98336484883
 20
4262.098614641802
 30
0.0
 11
34747.86484998259
 21
4262.098614641802
 31
0.0
  0
TEXT
  5
D984
330
17
100
AcDbEntity
  8
SUNPOU
100
AcDbText
 10
32743.31229730279
 20
4291.171191933458
 30
0.0
 40
200.0
  1
継手詳細図
 72
     1
 11
33309.97896396946
 21
4291.171191933458
 31
0.0
100
AcDbText
  0
LINE
  5
D985
330
17
100
AcDbEntity
  8
SUNPOU
100
AcDbLine
 10
34700.96713224396
 20
3262.688219002996
 30
0.0
 11
34700.96713224396
 21
2692.688219002993
 31
0.0
  0
LINE
  5
D986
330
17
100
AcDbEntity
  8
SUNPOU
100
AcDbLine
 10
34670.96713224396
 20
2587.688219002996
 30
0.0
 11
34730.96713224396
 21
2677.688219002996
 31
0.0
  0
LINE
  5
D987
330
17
100
AcDbEntity
  8
SUNPOU
100
AcDbLine
 10
34701.65523790707
 20
2572.688219002996
 30
0.0
 11
34671.65523790707
 21
2587.688219002996
 31
0.0
  0
LINE
  5
D988
330
17
100
AcDbEntity
  8
SUNPOU
100
AcDbLine
 10
34730.96713224396
 20
2677.688219002996
 30
0.0
 11
34700.96713224396
 21
2692.688219002996
 31
0.0
  0
LINE
  5
D989
330
17
100
AcDbEntity
  8
SUNPOU
100
AcDbLine
 10
34701.65523790707
 20
2572.688219002993
 30
0.0
 11
34701.65523790707
 21
1972.688219002996
 31
0.0
  0
LINE
  5
D98A
330
17
100
AcDbEntity
  8
SUNPOU
100
AcDbLine
 10
32701.65523790707
 20
2572.688219002993
 30
0.0
 11
32701.65523790707
 21
1972.688219002996
 31
0.0
  0
LINE
  5
D98B
330
17
100
AcDbEntity
  8
SUNPOU
100
AcDbLine
 10
32671.65523790707
 20
2587.688219002996
 30
0.0
 11
32731.65523790707
 21
2677.688219002996
 31
0.0
  0
LINE
  5
D98C
330
17
100
AcDbEntity
  8
SUNPOU
100
AcDbLine
 10
32701.65523790707
 20
2572.688219002996
 30
0.0
 11
32671.65523790707
 21
2587.688219002996
 31
0.0
  0
LINE
  5
D98D
330
17
100
AcDbEntity
  8
SUNPOU
100
AcDbLine
 10
32731.65523790707
 20
2677.688219002996
 30
0.0
 11
32701.65523790707
 21
2692.688219002996
 31
0.0
  0
LINE
  5
D98E
330
17
100
AcDbEntity
  8
SUNPOU
100
AcDbLine
 10
32701.65523790707
 20
3262.688219002996
 30
0.0
 11
32701.65523790707
 21
2692.688219002993
 31
0.0
  0
LINE
  5
D98F
330
17
100
AcDbEntity
  8
SEIHIN
100
AcDbLine
 10
33968.48373395314
 20
2047.688219002996
 30
0.0
 11
34701.65523790707
 21
2047.688219002996
 31
0.0
  0
LINE
  5
D990
330
17
100
AcDbEntity
  8
SEIHIN
100
AcDbLine
 10
33974.48373395314
 20
2077.688219002996
 30
0.0
 11
33968.48373395314
 21
2047.688219002996
 31
0.0
  0
LINE
  5
D991
330
17
100
AcDbEntity
  8
SEIHIN
100
AcDbLine
 10
33938.48373395314
 20
2092.688219002996
 30
0.0
 11
33974.48373395314
 21
2077.688219002996
 31
0.0
  0
LINE
  5
D992
330
17
100
AcDbEntity
  8
SEIHIN
100
AcDbLine
 10
33938.48373395314
 20
2164.688219002996
 30
0.0
 11
33938.48373395314
 21
2092.688219002996
 31
0.0
  0
LINE
  5
D993
330
17
100
AcDbEntity
  8
SEIHIN
100
AcDbLine
 10
33947.48373395314
 20
2173.688219002996
 30
0.0
 11
33938.48373395314
 21
2164.688219002996
 31
0.0
  0
LINE
  5
D994
330
17
100
AcDbEntity
  8
SEIHIN
100
AcDbLine
 10
33947.48373395314
 20
2239.688219002996
 30
0.0
 11
33947.48373395314
 21
2173.688219002996
 31
0.0
  0
LINE
  5
D995
330
17
100
AcDbEntity
  8
SEIHIN
100
AcDbLine
 10
33938.48373395314
 20
2248.688219002996
 30
0.0
 11
33947.48373395314
 21
2239.688219002996
 31
0.0
  0
LINE
  5
D996
330
17
100
AcDbEntity
  8
SEIHIN
100
AcDbLine
 10
33938.48373395314
 20
2602.688219002996
 30
0.0
 11
33938.48373395314
 21
2248.688219002996
 31
0.0
  0
LINE
  5
D997
330
17
100
AcDbEntity
  8
SEIHIN
100
AcDbLine
 10
33698.48373395314
 20
2662.688219002996
 30
0.0
 11
33938.48373395314
 21
2602.688219002996
 31
0.0
  0
LINE
  5
D998
330
17
100
AcDbEntity
  8
SEIHIN
100
AcDbLine
 10
33698.48373395314
 20
3187.688219002996
 30
0.0
 11
33698.48373395314
 21
2662.688219002996
 31
0.0
  0
LINE
  5
D999
330
17
100
AcDbEntity
  8
SEIHIN
100
AcDbLine
 10
33698.48373395314
 20
3187.688219002996
 30
0.0
 11
34701.65523790707
 21
3187.688219002996
 31
0.0
  0
LINE
  5
D99A
330
17
100
AcDbEntity
  8
SEIHIN
100
AcDbLine
 10
33701.65523790707
 20
2047.688219002996
 30
0.0
 11
32701.65523790707
 21
2047.688219002996
 31
0.0
  0
LINE
  5
D99B
330
17
100
AcDbEntity
  8
SEIHIN
100
AcDbLine
 10
33701.65523790707
 20
2572.688219002996
 30
0.0
 11
33701.65523790707
 21
2047.688219002996
 31
0.0
  0
LINE
  5
D99C
330
17
100
AcDbEntity
  8
SEIHIN
100
AcDbLine
 10
33461.65523790707
 20
2632.688219002996
 30
0.0
 11
33701.65523790707
 21
2572.688219002996
 31
0.0
  0
LINE
  5
D99D
330
17
100
AcDbEntity
  8
SEIHIN
100
AcDbLine
 10
33461.65523790707
 20
3187.688219002996
 30
0.0
 11
33461.65523790707
 21
2632.688219002996
 31
0.0
  0
LINE
  5
D99E
330
17
100
AcDbEntity
  8
SEIHIN
100
AcDbLine
 10
32701.65523790707
 20
3187.688219002996
 30
0.0
 11
33461.65523790707
 21
3187.688219002996
 31
0.0
  0
TEXT
  5
D99F
330
17
100
AcDbEntity
  8
SUNPOU
100
AcDbText
 10
22162.83642040114
 20
-1993.54571740507
 30
0.0
 40
119.9999997
  1
パッキン溝及び吊り孔等の加工を行なってもよい。
100
AcDbText
  0
TEXT
  5
D9A0
330
17
100
AcDbEntity
  8
SUNPOU
100
AcDbText
 10
21518.30471446032
 20
-1809.013582486079
 30
0.0
 40
119.9999997
  1
（備考） 寸法や強度に影響を及ぼさない範囲で、端面の面取り、
100
AcDbText
  0
LINE
  5
D9A1
330
17
100
AcDbEntity
  8
SUNPOU
100
AcDbLine
 10
21239.70454075908
 20
6179.359056643707
 30
0.0
 11
22499.19641244731
 21
6179.359056643707
 31
0.0
  0
TEXT
  5
D9A2
330
17
100
AcDbEntity
  8
SUNPOU
100
AcDbText
 10
21302.78381135319
 20
6209.359056643707
 30
0.0
 40
199.9999995
  1
平　面　図
 72
     1
 11
21869.45047660319
 21
6209.359056643707
 31
0.0
100
AcDbText
  0
TEXT
  5
D9A3
330
17
100
AcDbEntity
  8
SUNPOU
100
AcDbText
 10
28852.30946626691
 20
3618.541336777713
 30
0.0
 40
200.0
  1
側　面　図
 72
     1
 11
29418.97613293358
 21
3618.541336777713
 31
0.0
100
AcDbText
  0
TEXT
  5
D9A4
330
17
100
AcDbEntity
  8
SUNPOU
100
AcDbText
 10
21302.78381135319
 20
3618.541336777713
 30
0.0
 40
199.9999995
  1
正　面　図
 72
     1
 11
21869.45047660319
 21
3618.541336777713
 31
0.0
100
AcDbText
  0
LINE
  5
D9A5
330
17
100
AcDbEntity
  8
SUNPOU
100
AcDbLine
 10
23606.30912249281
 20
3093.71570621916
 30
0.0
 11
24533.09995902535
 21
3093.71570621916
 31
0.0
  0
TEXT
  5
D9A6
330
17
100
AcDbEntity
  8
SUNPOU
100
AcDbText
 10
24123.27203943048
 20
3123.71570621916
 30
0.0
 40
159.9999996
  1
差口
 72
     1
 11
24288.60537235048
 21
3123.71570621916
 31
0.0
100
AcDbText
  0
TEXT
  5
D9A7
330
17
100
AcDbEntity
  8
SUNPOU
100
AcDbText
 10
23672.50350140949
 20
3123.71570621916
 30
0.0
 40
159.9999996
  1
受口
 72
     1
 11
23837.83683432949
 21
3123.71570621916
 31
0.0
100
AcDbText
  0
DIMENSION
  5
D9A8
330
17
100
AcDbEntity
  8
SUNPOU
100
AcDbDimension
  2
*D57
 10
26061.84108547509
 20
2262.55090711083
 30
0.0
 11
25979.84108547509
 21
2112.550907110834
 31
0.0
 70
    32
 71
     5
 42
300.0
  3
STANDARD
100
AcDbAlignedDimension
 13
26569.70454075908
 23
1962.55090711083
 33
0.0
 14
26269.70454075908
 24
2262.55090711083
 34
0.0
 50
90.0
100
AcDbRotatedDimension
1001
ACAD
1000
DSTYLE
1002
{
1070
    40
1040
40.0
1070
    41
1040
2.0
1070
    42
1040
2.0
1070
    43
1040
7.0
1070
    44
1040
1.0
1070
    73
1070
     0
1070
    74
1070
     0
1070
    77
1070
     1
1070
    78
1070
     8
1070
   140
1040
2.5
1070
   141
1040
0.0
1070
   145
1040
1.0
1070
   147
1040
0.8
1070
   172
1070
     1
1070
   174
1070
     1
1070
   177
1070
   256
1070
   271
1070
     0
1070
   272
1070
     0
1070
   275
1070
     1
1070
   279
1070
     2
1070
   284
1070
     8
1070
   285
1070
     8
1070
   286
1070
     8
1070
   289
1070
     0
1002
}
  0
DIMENSION
  5
D9A9
330
17
100
AcDbEntity
  8
SUNPOU
100
AcDbDimension
  2
*D58
 10
26569.70454075908
 20
1754.687451826841
 30
0.0
 11
26419.70454075908
 21
1836.687451826841
 31
0.0
 70
    32
  1
<>
 71
     5
 42
300.0
  3
STANDARD
100
AcDbAlignedDimension
 13
26269.70454075908
 23
2262.55090711083
 33
0.0
 14
26569.70454075908
 24
1962.55090711083
 34
0.0
100
AcDbRotatedDimension
1001
ACAD
1000
DSTYLE
1002
{
1070
    40
1040
40.0
1070
    41
1040
2.0
1070
    42
1040
2.0
1070
    43
1040
7.0
1070
    44
1040
1.0
1070
    73
1070
     0
1070
    74
1070
     0
1070
    77
1070
     1
1070
    78
1070
     8
1070
   140
1040
2.5
1070
   141
1040
0.0
1070
   145
1040
1.0
1070
   147
1040
0.8
1070
   172
1070
     1
1070
   174
1070
     1
1070
   177
1070
   256
1070
   271
1070
     0
1070
   272
1070
     0
1070
   275
1070
     1
1070
   279
1070
     2
1070
   284
1070
     8
1070
   285
1070
     8
1070
   286
1070
     8
1070
   289
1070
     0
1002
}
  0
LINE
  5
D9AA
330
17
100
AcDbEntity
  8
SEIHIN
100
AcDbLine
 10
26899.70454075908
 20
4636.16379692493
 30
0.0
 11
21239.70454075908
 21
4636.163796924933
 31
0.0
  0
LINE
  5
D9AB
330
17
100
AcDbEntity
  8
HASEN
100
AcDbLine
 10
28903.29287243254
 20
1962.550907110831
 30
0.0
 11
29891.29287243253
 21
1962.550907110831
 31
0.0
  0
LINE
  5
D9AC
330
17
100
AcDbEntity
  8
HASEN
100
AcDbLine
 10
28903.29287243254
 20
2262.550907110832
 30
0.0
 11
29891.29287243254
 21
2262.550907110831
 31
0.0
  0
LINE
  5
D9AD
330
17
100
AcDbEntity
  8
SEIHIN
100
AcDbLine
 10
29983.29287243254
 20
-117.4490928891682
 30
0.0
 11
29983.29287243254
 21
2522.550907110831
 31
0.0
  0
LINE
  5
D9AE
330
17
100
AcDbEntity
  8
SEIHIN
100
AcDbLine
 10
28983.29287243254
 20
-117.4490928891682
 30
0.0
 11
29983.29287243254
 21
-117.4490928891682
 31
0.0
  0
LINE
  5
D9AF
330
17
100
AcDbEntity
  8
SEIHIN
100
AcDbLine
 10
28983.29287243254
 20
1807.550907110831
 30
0.0
 11
28983.29287243254
 21
302.5509071108318
 31
0.0
  0
LINE
  5
D9B0
330
17
100
AcDbEntity
  8
SEIHIN
100
AcDbLine
 10
28983.29287243254
 20
2642.550907110831
 30
0.0
 11
29983.29287243254
 21
2642.550907110831
 31
0.0
  0
LINE
  5
D9B1
330
17
100
AcDbEntity
  8
1HASEN
 48
0.5
100
AcDbLine
 10
24069.70454075908
 20
3093.71570621916
 30
0.0
 11
24069.70454075908
 21
-465.7504380052633
 31
0.0
  0
LINE
  5
D9B2
330
17
100
AcDbEntity
  8
SEIHIN
100
AcDbLine
 10
26569.70454075908
 20
1962.55090711083
 30
0.0
 11
26569.70454075908
 21
562.5509071108299
 31
0.0
  0
LINE
  5
D9B3
330
17
100
AcDbEntity
  8
SEIHIN
100
AcDbLine
 10
21569.70454075908
 20
562.5509071108299
 30
0.0
 11
21569.70454075908
 21
1962.550907110832
 31
0.0
  0
LINE
  5
D9B4
330
17
100
AcDbEntity
  8
SEIHIN
100
AcDbLine
 10
26269.70454075908
 20
262.5509071108299
 30
0.0
 11
21869.70454075908
 21
262.5509071108299
 31
0.0
  0
LINE
  5
D9B5
330
17
100
AcDbEntity
  8
SEIHIN
100
AcDbLine
 10
21869.70454075908
 20
2262.550907110831
 30
0.0
 11
26269.70454075908
 21
2262.55090711083
 31
0.0
  0
LINE
  5
D9B6
330
17
100
AcDbEntity
  8
SEIHIN
100
AcDbLine
 10
26899.70454075908
 20
-117.4490928891682
 30
0.0
 11
21239.70454075908
 21
-117.4490928891682
 31
0.0
  0
LINE
  5
D9B7
330
17
100
AcDbEntity
  8
SEIHIN
100
AcDbLine
 10
26899.70454075908
 20
2642.55090711083
 30
0.0
 11
26899.70454075908
 21
-117.4490928891682
 31
0.0
  0
LINE
  5
D9B8
330
17
100
AcDbEntity
  8
SEIHIN
100
AcDbLine
 10
21239.70454075908
 20
2642.55090711083
 30
0.0
 11
26899.70454075908
 21
2642.55090711083
 31
0.0
  0
TEXT
  5
D9B9
330
17
100
AcDbEntity
  8
SUNPOU
100
AcDbText
 10
35913.27436407262
 20
5393.844982372362
 30
0.0
 40
47.99999999999999
  1
3
 41
0.8
 72
     2
 11
35938.87436407262
 21
5417.844982372362
 31
0.0
100
AcDbText
 73
     2
  0
TEXT
  5
D9BA
330
17
100
AcDbEntity
  8
SUNPOU
100
AcDbText
 10
35867.75789894552
 20
6820.630906772658
 30
0.0
 40
47.99999999999999
  1
2
 41
0.8
 72
     2
 11
35893.35789894552
 21
6844.630906772658
 31
0.0
100
AcDbText
 73
     2
  0
TEXT
  5
D9BB
330
17
100
AcDbEntity
  8
SUNPOU
100
AcDbText
 10
34531.66760323294
 20
5330.683281125617
 30
0.0
 40
120.0
  1
γ  =
 41
0.8
100
AcDbText
  0
TEXT
  5
D9BC
330
17
100
AcDbEntity
  8
SUNPOU
100
AcDbText
 10
34547.66760323294
 20
5530.683281125615
 30
0.0
 40
120.0
  1
H = 0.5～1.5  m
 41
0.8
100
AcDbText
  0
TEXT
  5
D9BD
330
17
100
AcDbEntity
  8
SUNPOU
100
AcDbText
 10
34547.66760323294
 20
5730.683281125615
 30
0.0
 40
120.0
  1
T - 25
 41
0.8
100
AcDbText
  0
TEXT
  5
D9BE
330
17
100
AcDbEntity
  8
SUNPOU
100
AcDbText
 10
34507.66760323294
 20
6757.469205525911
 30
0.0
 40
120.0
  1
σ   = 
 41
0.8
100
AcDbText
  0
TEXT
  5
D9BF
330
17
100
AcDbEntity
  8
SUNPOU
100
AcDbText
 10
32165.66350322093
 20
4943.285101930764
 30
0.0
 40
120.0
  1
土圧係数
100
AcDbText
  0
TEXT
  5
D9C0
330
17
100
AcDbEntity
  8
SUNPOU
100
AcDbText
 10
32165.66350322093
 20
5143.285101930764
 30
0.0
 40
120.0
  1
土の単位体積重量
100
AcDbText
  0
TEXT
  5
D9C1
330
17
100
AcDbEntity
  8
SUNPOU
100
AcDbText
 10
32165.66350322093
 20
5343.285101930764
 30
0.0
 40
120.0
  1
鉄筋コンクリートの単位体積重量
100
AcDbText
  0
TEXT
  5
D9C2
330
17
100
AcDbEntity
  8
SUNPOU
100
AcDbText
 10
32165.66350322093
 20
5543.285101930762
 30
0.0
 40
120.0
  1
土被り
100
AcDbText
  0
TEXT
  5
D9C3
330
17
100
AcDbEntity
  8
SUNPOU
100
AcDbText
 10
32165.66350322093
 20
5743.285101930762
 30
0.0
 40
120.0
  1
活荷重
100
AcDbText
  0
TEXT
  5
D9C4
330
17
100
AcDbEntity
  8
SUNPOU
100
AcDbText
 10
32306.33294649853
 20
5943.285101930762
 30
0.0
 40
120.0
  1
許容引張応力度
100
AcDbText
  0
TEXT
  5
D9C5
330
17
100
AcDbEntity
  8
SUNPOU
100
AcDbText
 10
32165.66350322093
 20
6143.285101930762
 30
0.0
 40
120.0
  1
鉄　　筋
100
AcDbText
  0
TEXT
  5
D9C6
330
17
100
AcDbEntity
  8
SUNPOU
100
AcDbText
 10
32306.33294649853
 20
6570.071026331058
 30
0.0
 40
120.0
  1
PC鋼棒(C種1号)
100
AcDbText
  0
TEXT
  5
D9C7
330
17
100
AcDbEntity
  8
SUNPOU
100
AcDbText
 10
32306.33294649853
 20
6770.071026331058
 30
0.0
 40
120.0
  1
設計基準強度
100
AcDbText
  0
TEXT
  5
D9C8
330
17
100
AcDbEntity
  8
SUNPOU
100
AcDbText
 10
32165.66350322093
 20
6970.071026331058
 30
0.0
 40
120.0
  1
コンクリート
100
AcDbText
  0
TEXT
  5
D9C9
330
17
100
AcDbEntity
  8
SUNPOU
100
AcDbText
 10
32164.63336183931
 20
7269.869895448667
 30
0.0
 40
160.0
  1
設計条件
 11
32164.63336183931
 21
7248.536562115334
 31
0.0
100
AcDbText
 73
     1
  0
LINE
  5
D9CA
330
17
100
AcDbEntity
  8
SUNPOU
100
AcDbLine
 10
34389.70454075908
 20
4636.618435264097
 30
0.0
 11
34389.70454075908
 21
7143.404359664391
 31
0.0
  0
LINE
  5
D9CB
330
17
100
AcDbEntity
  8
SUNPOU
100
AcDbLine
 10
32069.70454075908
 20
4636.618435264097
 30
0.0
 11
32069.70454075908
 21
7143.404359664391
 31
0.0
  0
LINE
  5
D9CC
330
17
100
AcDbEntity
  8
SUNPOU
100
AcDbLine
 10
36069.70454075908
 20
4636.618435264097
 30
0.0
 11
36069.70454075908
 21
7143.404359664391
 31
0.0
  0
LINE
  5
D9CD
330
17
100
AcDbEntity
  8
SUNPOU
100
AcDbLine
 10
32069.70454075908
 20
7143.404359664391
 30
0.0
 11
36069.70454075908
 21
7143.404359664391
 31
0.0
  0
DIMENSION
  5
EA67
330
17
100
AcDbEntity
  8
SUNPOU
100
AcDbDimension
  2
*D59
 10
28511.00752042768
 20
22.55090711083189
 30
0.0
 11
28511.00752042768
 21
-413.4490928891637
 31
0.0
 70
   160
 71
     5
 42
140.0
  3
1-40
100
AcDbAlignedDimension
 13
28983.29287243254
 23
-117.4490928891682
 33
0.0
 14
28983.29287243254
 24
22.55090711083176
 34
0.0
 50
90.0
100
AcDbRotatedDimension
1001
ACAD
1000
DSTYLE
1002
{
1070
   344
1005
D4A3
1070
   173
1070
     1
1070
   343
1005
0
1002
}
  0
LINE
  5
F5AC
330
17
100
AcDbEntity
  8
SUNPOU
100
AcDbLine
 10
30169.96914385058
 20
-240.1441775409185
 30
0.0
 11
31657.21760584891
 21
-240.1441775409185
 31
0.0
  0
LINE
  5
F77A
330
17
100
AcDbEntity
  8
SUNPOU
100
AcDbLine
 10
33636.43181996758
 20
-1367.511804343103
 30
0.0
 11
33160.09173424989
 21
-1367.511804343103
 31
0.0
  0
LINE
  5
1024C
330
17
100
AcDbEntity
  8
SUNPOU
100
AcDbLine
 10
26719.70454075908
 20
87.5509071108354
 30
0.0
 11
26739.70454075908
 21
67.5509071108354
 31
0.0
  0
LINE
  5
103D3
330
17
100
AcDbEntity
  8
SUNPOU
100
AcDbLine
 10
32559.22464750014
 20
706.0512114379644
 30
0.0
 11
32909.22464750014
 21
706.0512114379644
 31
0.0
  0
TEXT
  5
103D4
330
17
100
AcDbEntity
  8
SUNPOU
100
AcDbText
 10
32589.55798083348
 20
741.0512114379644
 30
0.0
 40
140.0
  1
差口
 72
     1
 11
32734.22464750014
 21
741.0512114379644
 31
0.0
100
AcDbText
  0
TEXT
  5
103D5
330
17
100
AcDbEntity
  8
SUNPOU
100
AcDbText
 10
34581.21618791222
 20
741.0512114379653
 30
0.0
 40
140.0
  1
受口
 72
     1
 11
34725.88285457889
 21
741.0512114379653
 31
0.0
100
AcDbText
  0
LINE
  5
103D6
330
17
100
AcDbEntity
  8
SUNPOU
100
AcDbLine
 10
34550.88285457889
 20
706.0512114379653
 30
0.0
 11
34900.88285457889
 21
706.0512114379653
 31
0.0
  0
TEXT
  5
103D7
330
17
100
AcDbEntity
  8
SUNPOU
100
AcDbText
 10
34911.84331320937
 20
512.2321655037676
 30
0.0
 40
140.0
  1
外側
 72
     1
 11
35061.17664654271
 21
512.2321655037676
 31
0.0
100
AcDbText
  0
LINE
  5
103D8
330
17
100
AcDbEntity
  8
SUNPOU
100
AcDbLine
 10
34902.50997987605
 20
477.2321655037676
 30
0.0
 11
35229.17664654271
 21
477.2321655037676
 31
0.0
  0
LINE
  5
103D9
330
17
100
AcDbEntity
  8
SUNPOU
100
AcDbLine
 10
34888.50997987605
 20
-889.8888379114896
 30
0.0
 11
35215.17664654271
 21
-889.8888379114896
 31
0.0
  0
TEXT
  5
103DA
330
17
100
AcDbEntity
  8
SUNPOU
100
AcDbText
 10
34897.84331320938
 20
-854.8888379114896
 30
0.0
 40
140.0
  1
内側
 72
     1
 11
35051.84331320938
 21
-854.8888379114896
 31
0.0
100
AcDbText
  0
TEXT
  5
103DB
330
17
100
AcDbEntity
  8
SUNPOU
100
AcDbText
 10
32589.55798083348
 20
3589.804275144918
 30
0.0
 40
140.0
  1
差口
 72
     1
 11
32734.22464750014
 21
3589.804275144918
 31
0.0
100
AcDbText
  0
LINE
  5
103DC
330
17
100
AcDbEntity
  8
SUNPOU
100
AcDbLine
 10
32559.22464750014
 20
3554.804275144918
 30
0.0
 11
32909.22464750014
 21
3554.804275144918
 31
0.0
  0
LINE
  5
103DD
330
17
100
AcDbEntity
  8
SUNPOU
100
AcDbLine
 10
34902.50997987605
 20
3325.985229210722
 30
0.0
 11
35229.17664654271
 21
3325.985229210722
 31
0.0
  0
TEXT
  5
103DE
330
17
100
AcDbEntity
  8
SUNPOU
100
AcDbText
 10
34911.84331320937
 20
3360.985229210722
 30
0.0
 40
140.0
  1
外側
 72
     1
 11
35061.17664654271
 21
3360.985229210722
 31
0.0
100
AcDbText
  0
LINE
  5
103DF
330
17
100
AcDbEntity
  8
SUNPOU
100
AcDbLine
 10
34550.88285457889
 20
3554.804275144919
 30
0.0
 11
34900.88285457889
 21
3554.804275144919
 31
0.0
  0
TEXT
  5
103E0
330
17
100
AcDbEntity
  8
SUNPOU
100
AcDbText
 10
34581.21618791222
 20
3589.804275144919
 30
0.0
 40
140.0
  1
受口
 72
     1
 11
34725.88285457889
 21
3589.804275144919
 31
0.0
100
AcDbText
  0
TEXT
  5
103E1
330
17
100
AcDbEntity
  8
SUNPOU
100
AcDbText
 10
34897.84331320938
 20
1830.40275429496
 30
0.0
 40
140.0
  1
内側
 72
     1
 11
35051.84331320938
 21
1830.40275429496
 31
0.0
100
AcDbText
  0
LINE
  5
103E2
330
17
100
AcDbEntity
  8
SUNPOU
100
AcDbLine
 10
34888.50997987605
 20
1795.40275429496
 30
0.0
 11
35215.17664654271
 21
1795.40275429496
 31
0.0
  0
ENDSEC
  0
SECTION
  2
OBJECTS
  0
DICTIONARY
  5
C
330
0
100
AcDbDictionary
281
     1
  3
ACAD_COLOR
350
C879
  3
ACAD_GROUP
350
D
  3
ACAD_LAYOUT
350
12F3
  3
ACAD_MATERIAL
350
C878
  3
ACAD_MLEADERSTYLE
350
103F8
  3
ACAD_MLINESTYLE
350
1A
  3
ACAD_PLOTSETTINGS
350
12F4
  3
ACAD_PLOTSTYLENAME
350
12F1
  3
ACAD_TABLESTYLE
350
103EC
  3
ACDBHEADERROUNDTRIPXREC
350
103F9
  3
AcDbVariableDictionary
350
182D
  0
DICTIONARY
  5
A2D8
330
2
100
AcDbDictionary
280
     1
281
     1
  3
ACAD_LAYERFILTERS
360
A2D9
  0
DICTIONARY
  5
C879
102
{ACAD_REACTORS
330
C
102
}
330
C
100
AcDbDictionary
281
     1
  0
DICTIONARY
  5
D
102
{ACAD_REACTORS
330
C
102
}
330
C
100
AcDbDictionary
281
     1
  0
DICTIONARY
  5
12F3
102
{ACAD_REACTORS
330
C
102
}
330
C
100
AcDbDictionary
281
     1
  3
Model
350
12F5
  3
ﾚｲｱｳﾄ1
350
12F6
  0
DICTIONARY
  5
C878
102
{ACAD_REACTORS
330
C
102
}
330
C
100
AcDbDictionary
281
     1
  0
DICTIONARY
  5
103F8
102
{ACAD_REACTORS
330
C
102
}
330
C
100
AcDbDictionary
281
     1
  0
DICTIONARY
  5
1A
102
{ACAD_REACTORS
330
C
102
}
330
C
100
AcDbDictionary
281
     1
  3
STANDARD
350
1B
  0
DICTIONARY
  5
12F4
102
{ACAD_REACTORS
330
C
102
}
330
C
100
AcDbDictionary
281
     1
  0
ACDBDICTIONARYWDFLT
  5
12F1
102
{ACAD_REACTORS
330
C
102
}
330
C
100
AcDbDictionary
281
     1
  3
Normal
350
12F2
100
AcDbDictionaryWithDefault
340
12F2
  0
DICTIONARY
  5
103EC
102
{ACAD_REACTORS
330
C
102
}
330
C
100
AcDbDictionary
281
     1
  0
DICTIONARY
  5
103F9
102
{ACAD_REACTORS
330
C
102
}
330
C
100
AcDbDictionary
281
     1
  3
COLORDICT
350
103FA
  3
MATERIALDICT
350
103FB
  0
DICTIONARY
  5
182D
102
{ACAD_REACTORS
330
C
102
}
330
C
100
AcDbDictionary
281
     1
  3
CTABLESTYLE
350
103F7
  3
DIMASSOC
350
182E
  3
PROJECTNAME
350
EA3A
  0
DICTIONARY
  5
A2D9
102
{ACAD_REACTORS
330
A2D8
102
}
330
A2D8
100
AcDbDictionary
280
     1
281
     1
  0
LAYOUT
  5
12F5
102
{ACAD_REACTORS
330
12F3
102
}
330
12F3
100
AcDbPlotSettings
  1

  2
\\Print\EPSON EPL-1220 Advanced
  4
A4
  6

 40
5.873749732971191
 41
5.873747825622559
 42
5.873748779296875
 43
5.873748779296875
 44
209.9733276367188
 45
297.0106506347656
 46
0.0
 47
2.07
 48
20869.70454075908
 49
-3323.836203075067
140
36469.70454075908
141
7676.163796924931
142
1.0
143
55.49226379118308
 70
 11956
 72
     1
 73
     1
 74
     4
  7
acad.ctb
 75
     0
147
0.0180205299204046
148
-20869.70454075908
149
3323.836203075067
100
AcDbLayout
  1
Model
 70
     1
 71
     0
 10
0.0
 20
0.0
 11
12.0
 21
9.0
 12
0.0
 22
0.0
 32
0.0
 14
0.0
 24
0.0
 34
0.0
 15
0.0
 25
0.0
 35
0.0
146
0.0
 13
0.0
 23
0.0
 33
0.0
 16
1.0
 26
0.0
 36
0.0
 17
0.0
 27
1.0
 37
0.0
 76
     0
330
17
331
103F1
  0
LAYOUT
  5
12F6
102
{ACAD_REACTORS
330
12F3
102
}
330
12F3
100
AcDbPlotSettings
  1

  2
C:\PROGRAM FILES\MDT6\plotters\RICOH SP9II RPDL.pc3
  4

  6

 40
0.0
 41
0.0
 42
0.0
 43
0.0
 44
0.0
 45
0.0
 46
0.0
 47
0.0
 48
0.0
 49
0.0
140
0.0
141
0.0
142
1.0
143
1.0
 70
   688
 72
     0
 73
     0
 74
     5
  7
acad.ctb
 75
    16
147
1.0
148
0.0
149
0.0
100
AcDbLayout
  1
ﾚｲｱｳﾄ1
 70
     0
 71
     1
 10
0.0
 20
0.0
 11
12.0
 21
9.0
 12
0.0
 22
0.0
 32
0.0
 14
1.000000000000000E+20
 24
1.000000000000000E+20
 34
1.000000000000000E+20
 15
-1.000000000000000E+20
 25
-1.000000000000000E+20
 35
-1.000000000000000E+20
146
0.0
 13
0.0
 23
0.0
 33
0.0
 16
1.0
 26
0.0
 36
0.0
 17
0.0
 27
1.0
 37
0.0
 76
     0
330
14
  0
MLINESTYLE
  5
1B
102
{ACAD_REACTORS
330
1A
102
}
330
1A
100
AcDbMlineStyle
  2
STANDARD
 70
     0
  3

 62
   256
 51
90.0
 52
90.0
 71
     2
 49
0.5
 62
   256
  6
BYLAYER
 49
-0.5
 62
   256
  6
BYLAYER
  0
ACDBPLACEHOLDER
  5
12F2
102
{ACAD_REACTORS
330
12F1
102
}
330
12F1
  0
XRECORD
  5
103FA
102
{ACAD_REACTORS
330
103F9
102
}
330
103F9
100
AcDbXrecord
280
     1
340
C879
  0
XRECORD
  5
103FB
102
{ACAD_REACTORS
330
103F9
102
}
330
103F9
100
AcDbXrecord
280
     1
340
C878
  0
DICTIONARYVAR
  5
103F7
102
{ACAD_REACTORS
330
182D
102
}
330
182D
100
DictionaryVariables
280
     0
  1
Standard
  0
DICTIONARYVAR
  5
182E
102
{ACAD_REACTORS
330
182D
102
}
330
182D
100
DictionaryVariables
280
     0
  1
1
  0
DICTIONARYVAR
  5
EA3A
102
{ACAD_REACTORS
330
182D
102
}
330
182D
100
DictionaryVariables
280
     0
  1

  0
ENDSEC
  0
EOF
