  0
SECTION
  2
HEADER
  9
$ACADVER
  1
AC1018
  9
$ACADMAINTVER
 70
     0
  9
$DWGCODEPAGE
  3
ANSI_932
  9
$LASTSAVEDBY
  1
shinwa
  9
$INSBASE
 10
0.0
 20
0.0
 30
0.0
  9
$EXTMIN
 10
-11693.28674213953
 20
0.0
 30
0.0
  9
$EXTMAX
 10
-203.2867421395349
 20
8310.0
 30
0.0
  9
$LIMMIN
 10
0.0
 20
0.0
  9
$LIMMAX
 10
12600.0
 20
8910.0
  9
$ORTHOMODE
 70
     1
  9
$REGENMODE
 70
     1
  9
$FILLMODE
 70
     1
  9
$QTEXTMODE
 70
     0
  9
$MIRRTEXT
 70
     0
  9
$LTSCALE
 40
300.0
  9
$ATTMODE
 70
     1
  9
$TEXTSIZE
 40
75.0
  9
$TRACEWID
 40
0.05
  9
$TEXTSTYLE
  7
STANDARD
  9
$CLAYER
  8
SUNPOU
  9
$CELTYPE
  6
BYLAYER
  9
$CECOLOR
 62
   256
  9
$CELTSCALE
 40
1.0
  9
$DISPSILH
 70
     0
  9
$DIMSCALE
 40
30.0
  9
$DIMASZ
 40
1.7
  9
$DIMEXO
 40
2.0
  9
$DIMDLI
 40
7.0
  9
$DIMRND
 40
0.0
  9
$DIMDLE
 40
0.0
  9
$DIMEXE
 40
0.5
  9
$DIMTP
 40
0.0
  9
$DIMTM
 40
0.0
  9
$DIMTXT
 40
2.5
  9
$DIMCEN
 40
0.0
  9
$DIMTSZ
 40
0.0
  9
$DIMTOL
 70
     0
  9
$DIMLIM
 70
     0
  9
$DIMTIH
 70
     0
  9
$DIMTOH
 70
     0
  9
$DIMSE1
 70
     0
  9
$DIMSE2
 70
     0
  9
$DIMTAD
 70
     1
  9
$DIMZIN
 70
     8
  9
$DIMBLK
  1

  9
$DIMASO
 70
     1
  9
$DIMSHO
 70
     1
  9
$DIMPOST
  1

  9
$DIMAPOST
  1

  9
$DIMALT
 70
     0
  9
$DIMALTD
 70
     2
  9
$DIMALTF
 40
25.4
  9
$DIMLFAC
 40
1.0
  9
$DIMTOFL
 70
     0
  9
$DIMTVP
 40
1.0
  9
$DIMTIX
 70
     1
  9
$DIMSOXD
 70
     0
  9
$DIMSAH
 70
     0
  9
$DIMBLK1
  1

  9
$DIMBLK2
  1

  9
$DIMSTYLE
  2
A3-30
  9
$DIMCLRD
 70
     0
  9
$DIMCLRE
 70
     0
  9
$DIMCLRT
 70
     0
  9
$DIMTFAC
 40
1.0
  9
$DIMGAP
 40
0.7
  9
$DIMJUST
 70
     0
  9
$DIMSD1
 70
     0
  9
$DIMSD2
 70
     0
  9
$DIMTOLJ
 70
     1
  9
$DIMTZIN
 70
     8
  9
$DIMALTZ
 70
     8
  9
$DIMALTTZ
 70
     8
  9
$DIMUPT
 70
     0
  9
$DIMDEC
 70
     0
  9
$DIMTDEC
 70
     0
  9
$DIMALTU
 70
     2
  9
$DIMALTTD
 70
     2
  9
$DIMTXSTY
  7
STANDARD
  9
$DIMAUNIT
 70
     0
  9
$DIMADEC
 70
     4
  9
$DIMALTRND
 40
0.0
  9
$DIMAZIN
 70
     0
  9
$DIMDSEP
 70
    46
  9
$DIMATFIT
 70
     3
  9
$DIMFRAC
 70
     0
  9
$DIMLDRBLK
  1

  9
$DIMLUNIT
 70
     2
  9
$DIMLWD
 70
    -2
  9
$DIMLWE
 70
    -2
  9
$DIMTMOVE
 70
     2
  9
$LUNITS
 70
     2
  9
$LUPREC
 70
     4
  9
$SKETCHINC
 40
0.1
  9
$FILLETRAD
 40
0.0
  9
$AUNITS
 70
     0
  9
$AUPREC
 70
     6
  9
$MENU
  1
acad
  9
$ELEVATION
 40
0.0
  9
$PELEVATION
 40
0.0
  9
$THICKNESS
 40
0.0
  9
$LIMCHECK
 70
     0
  9
$CHAMFERA
 40
0.0
  9
$CHAMFERB
 40
0.0
  9
$CHAMFERC
 40
0.0
  9
$CHAMFERD
 40
0.0
  9
$SKPOLY
 70
     0
  9
$TDCREATE
 40
2450014.659421296
  9
$TDUCREATE
 40
2450014.284421296
  9
$TDUPDATE
 40
2457494.384570162
  9
$TDUUPDATE
 40
2457494.009570162
  9
$TDINDWG
 40
0.6265798148
  9
$TDUSRTIMER
 40
0.6265798148
  9
$USRTIMER
 70
     1
  9
$ANGBASE
 50
0.0
  9
$ANGDIR
 70
     0
  9
$PDMODE
 70
     0
  9
$PDSIZE
 40
0.0
  9
$PLINEWID
 40
0.0
  9
$SPLFRAME
 70
     0
  9
$SPLINETYPE
 70
     6
  9
$SPLINESEGS
 70
     8
  9
$HANDSEED
  5
1F4BD
  9
$SURFTAB1
 70
     6
  9
$SURFTAB2
 70
     6
  9
$SURFTYPE
 70
     6
  9
$SURFU
 70
     6
  9
$SURFV
 70
     6
  9
$UCSBASE
  2

  9
$UCSNAME
  2

  9
$UCSORG
 10
0.0
 20
0.0
 30
0.0
  9
$UCSXDIR
 10
1.0
 20
0.0
 30
0.0
  9
$UCSYDIR
 10
0.0
 20
1.0
 30
0.0
  9
$UCSORTHOREF
  2

  9
$UCSORTHOVIEW
 70
     0
  9
$UCSORGTOP
 10
0.0
 20
0.0
 30
0.0
  9
$UCSORGBOTTOM
 10
0.0
 20
0.0
 30
0.0
  9
$UCSORGLEFT
 10
0.0
 20
0.0
 30
0.0
  9
$UCSORGRIGHT
 10
0.0
 20
0.0
 30
0.0
  9
$UCSORGFRONT
 10
0.0
 20
0.0
 30
0.0
  9
$UCSORGBACK
 10
0.0
 20
0.0
 30
0.0
  9
$PUCSBASE
  2

  9
$PUCSNAME
  2

  9
$PUCSORG
 10
0.0
 20
0.0
 30
0.0
  9
$PUCSXDIR
 10
1.0
 20
0.0
 30
0.0
  9
$PUCSYDIR
 10
0.0
 20
1.0
 30
0.0
  9
$PUCSORTHOREF
  2

  9
$PUCSORTHOVIEW
 70
     0
  9
$PUCSORGTOP
 10
0.0
 20
0.0
 30
0.0
  9
$PUCSORGBOTTOM
 10
0.0
 20
0.0
 30
0.0
  9
$PUCSORGLEFT
 10
0.0
 20
0.0
 30
0.0
  9
$PUCSORGRIGHT
 10
0.0
 20
0.0
 30
0.0
  9
$PUCSORGFRONT
 10
0.0
 20
0.0
 30
0.0
  9
$PUCSORGBACK
 10
0.0
 20
0.0
 30
0.0
  9
$USERI1
 70
     0
  9
$USERI2
 70
     0
  9
$USERI3
 70
     0
  9
$USERI4
 70
     0
  9
$USERI5
 70
     0
  9
$USERR1
 40
0.0
  9
$USERR2
 40
0.0
  9
$USERR3
 40
0.0
  9
$USERR4
 40
0.0
  9
$USERR5
 40
0.0
  9
$WORLDVIEW
 70
     1
  9
$SHADEDGE
 70
     3
  9
$SHADEDIF
 70
    70
  9
$TILEMODE
 70
     1
  9
$MAXACTVP
 70
    48
  9
$PINSBASE
 10
0.0
 20
0.0
 30
0.0
  9
$PLIMCHECK
 70
     0
  9
$PEXTMIN
 10
1.000000000000000E+20
 20
1.000000000000000E+20
 30
1.000000000000000E+20
  9
$PEXTMAX
 10
-1.000000000000000E+20
 20
-1.000000000000000E+20
 30
-1.000000000000000E+20
  9
$PLIMMIN
 10
0.0
 20
0.0
  9
$PLIMMAX
 10
12.0
 20
9.0
  9
$UNITMODE
 70
     0
  9
$VISRETAIN
 70
     0
  9
$PLINEGEN
 70
     0
  9
$PSLTSCALE
 70
     0
  9
$TREEDEPTH
 70
  3020
  9
$CMLSTYLE
  2
STANDARD
  9
$CMLJUST
 70
     0
  9
$CMLSCALE
 40
1.0
  9
$PROXYGRAPHICS
 70
     1
  9
$MEASUREMENT
 70
     0
  9
$CELWEIGHT
370
    -1
  9
$ENDCAPS
280
     0
  9
$JOINSTYLE
280
     0
  9
$LWDISPLAY
290
     0
  9
$INSUNITS
 70
     0
  9
$HYPERLINKBASE
  1

  9
$STYLESHEET
  1
acad.ctb
  9
$XEDIT
290
     1
  9
$CEPSNTYPE
380
     0
  9
$PSTYLEMODE
290
     1
  9
$FINGERPRINTGUID
  2
{9E4B692F-34DC-11D6-9351-0080AD72C8A3}
  9
$VERSIONGUID
  2
{04115349-8D86-4F28-997A-4E6CF5B2E653}
  9
$EXTNAMES
290
     1
  9
$PSVPSCALE
 40
0.0
  9
$OLESTARTUP
290
     0
  9
$SORTENTS
280
   127
  9
$INDEXCTL
280
     0
  9
$HIDETEXT
280
     0
  9
$XCLIPFRAME
290
     0
  9
$HALOGAP
280
     0
  9
$OBSCOLOR
 70
   257
  9
$OBSLTYPE
280
     0
  9
$INTERSECTIONDISPLAY
280
     0
  9
$INTERSECTIONCOLOR
 70
   257
  9
$DIMASSOC
280
     1
  9
$PROJECTNAME
  1

  0
ENDSEC
  0
SECTION
  2
CLASSES
  0
CLASS
  1
ACDBDICTIONARYWDFLT
  2
AcDbDictionaryWithDefault
  3
ObjectDBX Classes
 90
        0
 91
        4
280
     0
281
     0
  0
CLASS
  1
ACDBPLACEHOLDER
  2
AcDbPlaceHolder
  3
ObjectDBX Classes
 90
        0
 91
        1
280
     0
281
     0
  0
CLASS
  1
LAYOUT
  2
AcDbLayout
  3
ObjectDBX Classes
 90
        0
 91
        1
280
     0
281
     0
  0
CLASS
  1
DICTIONARYVAR
  2
AcDbDictionaryVar
  3
ObjectDBX Classes
 90
        0
 91
        4
280
     0
281
     0
  0
CLASS
  1
DUMMY
  2
AcDbLongTransaction
  3
DUMMY
 90
        0
 91
        1
280
     0
281
     0
  0
CLASS
  1
LWPOLYLINE
  2
AcDbPolyline
  3
AutoCAD 2000
 90
        0
 91
        1
280
     0
281
     1
  0
CLASS
  1
HATCH
  2
AcDbHatch
  3
AutoCAD 2000
 90
        0
 91
        1
280
     0
281
     1
  0
CLASS
  1
XRECORD
  2
AcDbXrecord
  3
AutoCAD 2000
 90
        0
 91
        1
280
     0
281
     0
  0
CLASS
  1
DUMMY
  2
AcDbLongTransaction
  3
DUMMY
 90
        0
 91
        1
280
     0
281
     0
  0
CLASS
  1
LWPOLYLINE
  2
AcDbPolyline
  3
AutoCAD 2000
 90
        0
 91
        1
280
     0
281
     1
  0
CLASS
  1
HATCH
  2
AcDbHatch
  3
AutoCAD 2000
 90
        0
 91
        1
280
     0
281
     1
  0
CLASS
  1
XRECORD
  2
AcDbXrecord
  3
AutoCAD 2000
 90
        0
 91
        1
280
     0
281
     0
  0
CLASS
  1
DUMMY
  2
AcDbLongTransaction
  3
DUMMY
 90
        0
 91
        1
280
     0
281
     0
  0
CLASS
  1
LWPOLYLINE
  2
AcDbPolyline
  3
AutoCAD 2000
 90
        0
 91
        1
280
     0
281
     1
  0
CLASS
  1
HATCH
  2
AcDbHatch
  3
AutoCAD 2000
 90
        0
 91
        1
280
     0
281
     1
  0
CLASS
  1
XRECORD
  2
AcDbXrecord
  3
AutoCAD 2000
 90
        0
 91
        1
280
     0
281
     0
  0
CLASS
  1
TABLESTYLE
  2
AcDbTableStyle
  3
ObjectDBX Classes
 90
     4095
 91
        4
280
     0
281
     0
  0
CLASS
  1
SORTENTSTABLE
  2
AcDbSortentsTable
  3
ObjectDBX Classes
 90
        0
 91
        4
280
     0
281
     0
  0
CLASS
  1
ACAD_EVALUATION_GRAPH
  2
AcDbEvalGraph
  3
ObjectDBX Classes
 90
     1153
 91
        1
280
     1
281
     0
  0
CLASS
  1
ACAECUSTOBJ
  2
AcAeEditorObj
  3
AcAeEditorObj
 90
     1024
 91
        1
280
     1
281
     0
  0
CLASS
  1
ACDB_DYNAMICBLOCKPURGEPREVENTER_VERSION
  2
AcDbDynamicBlockPurgePreventer
  3
ObjectDBX Classes
 90
     1153
 91
        1
280
     1
281
     0
  0
CLASS
  1
MATERIAL
  2
AcDbMaterial
  3
ObjectDBX Classes
 90
     1153
 91
        4
280
     0
281
     0
  0
CLASS
  1
VISUALSTYLE
  2
AcDbVisualStyle
  3
ObjectDBX Classes
 90
     4095
 91
        4
280
     0
281
     0
  0
CLASS
  1
SCALE
  2
AcDbScale
  3
ObjectDBX Classes
 90
     1153
 91
        4
280
     0
281
     0
  0
CLASS
  1
MLEADERSTYLE
  2
AcDbMLeaderStyle
  3
ACDB_MLEADERSTYLE_CLASS
 90
     4095
 91
        4
280
     0
281
     0
  0
CLASS
  1
ACDBSECTIONVIEWSTYLE
  2
AcDbSectionViewStyle
  3
ObjectDBX Classes
 90
     1025
 91
        2
280
     1
281
     0
  0
CLASS
  1
ACDBDETAILVIEWSTYLE
  2
AcDbDetailViewStyle
  3
ObjectDBX Classes
 90
     1025
 91
        2
280
     1
281
     0
  0
CLASS
  1
CELLSTYLEMAP
  2
AcDbCellStyleMap
  3
ObjectDBX Classes
 90
     1152
 91
        4
280
     0
281
     0
  0
ENDSEC
  0
SECTION
  2
TABLES
  0
TABLE
  2
VPORT
  5
8
102
{ACAD_XDICTIONARY
360
1F481
102
}
330
0
100
AcDbSymbolTable
 70
     1
  0
VPORT
  5
1F3A5
330
8
100
AcDbSymbolTableRecord
100
AcDbViewportTableRecord
  2
*Active
 70
     0
 10
0.0
 20
0.0
 11
1.0
 21
1.0
 12
-5481.52300351156
 22
3981.93259316518
 13
0.0
 23
0.0
 14
30.0
 24
30.0
 15
300.0
 25
300.0
 16
0.0
 26
0.0
 36
1.0
 17
0.0
 27
0.0
 37
0.0
 40
14006.62324266019
 41
1.560747663551402
 42
50.0
 43
0.0
 44
0.0
 50
0.0
 51
0.0
 71
     0
 72
   100
 73
     1
 74
     1
 75
     0
 76
     0
 77
     0
 78
     0
281
     0
 65
     1
110
0.0
120
0.0
130
0.0
111
1.0
121
0.0
131
0.0
112
0.0
122
1.0
132
0.0
 79
     0
146
0.0
1001
ACAD_NAV_VCDISPLAY
1070
     3
  0
ENDTAB
  0
TABLE
  2
LTYPE
  5
5
330
0
100
AcDbSymbolTable
 70
     4
  0
LTYPE
  5
11
330
5
100
AcDbSymbolTableRecord
100
AcDbLinetypeTableRecord
  2
BYBLOCK
 70
     0
  3

 72
    65
 73
     0
 40
0.0
  0
LTYPE
  5
12
330
5
100
AcDbSymbolTableRecord
100
AcDbLinetypeTableRecord
  2
BYLAYER
 70
     0
  3

 72
    65
 73
     0
 40
0.0
  0
LTYPE
  5
13
330
5
100
AcDbSymbolTableRecord
100
AcDbLinetypeTableRecord
  2
CONTINUOUS
 70
     0
  3
Solid line
 72
    65
 73
     0
 40
0.0
  0
LTYPE
  5
1E
330
5
100
AcDbSymbolTableRecord
100
AcDbLinetypeTableRecord
  2
HIDDEN
 70
     0
  3
_ _ _ _ _ _ _ _ _ _ _ _ _ _ _ _ _ _ _ _ _ _ _
 72
    65
 73
     2
 40
0.375
 49
0.25
 74
     0
 49
-0.125
 74
     0
  0
LTYPE
  5
1F
330
5
100
AcDbSymbolTableRecord
100
AcDbLinetypeTableRecord
  2
CENTER
 70
     0
  3
____ _ ____ _ ____ _ ____ _ ____ _ ____ _ ____
 72
    65
 73
     4
 40
2.0
 49
1.25
 74
     0
 49
-0.25
 74
     0
 49
0.25
 74
     0
 49
-0.25
 74
     0
  0
LTYPE
  5
20
330
5
100
AcDbSymbolTableRecord
100
AcDbLinetypeTableRecord
  2
PHANTOM
 70
     0
  3
_____ _ _ _____ _ _ _____ _ _ _____ _ _ ____
 72
    65
 73
     6
 40
2.5
 49
1.25
 74
     0
 49
-0.25
 74
     0
 49
0.25
 74
     0
 49
-0.25
 74
     0
 49
0.25
 74
     0
 49
-0.25
 74
     0
  0
ENDTAB
  0
TABLE
  2
LAYER
  5
2
330
0
100
AcDbSymbolTable
 70
    10
  0
LAYER
  5
E
102
{ACAD_XDICTIONARY
360
1F42B
102
}
330
2
100
AcDbSymbolTableRecord
100
AcDbLayerTableRecord
  2
0
 70
     0
 62
     7
  6
CONTINUOUS
370
    -3
390
7A
  0
LAYER
  5
23
102
{ACAD_XDICTIONARY
360
1F42D
102
}
330
2
100
AcDbSymbolTableRecord
100
AcDbLayerTableRecord
  2
SUNPOU
 70
     0
 62
     1
  6
CONTINUOUS
370
    -3
390
7A
  0
LAYER
  5
24
102
{ACAD_XDICTIONARY
360
1F42F
102
}
330
2
100
AcDbSymbolTableRecord
100
AcDbLayerTableRecord
  2
HAIKIN
 70
     0
 62
     2
  6
CONTINUOUS
370
    -3
390
7A
  0
LAYER
  5
25
102
{ACAD_XDICTIONARY
360
1F431
102
}
330
2
100
AcDbSymbolTableRecord
100
AcDbLayerTableRecord
  2
SEIHIN
 70
     0
 62
     3
  6
CONTINUOUS
370
    -3
390
7A
  0
LAYER
  5
26
102
{ACAD_XDICTIONARY
360
1F433
102
}
330
2
100
AcDbSymbolTableRecord
100
AcDbLayerTableRecord
  2
HASEN
 70
     0
 62
     4
  6
HIDDEN
370
    -3
390
7A
  0
LAYER
  5
27
102
{ACAD_XDICTIONARY
360
1F435
102
}
330
2
100
AcDbSymbolTableRecord
100
AcDbLayerTableRecord
  2
1HASEN
 70
     0
 62
     5
  6
CENTER
370
    -3
390
7A
  0
LAYER
  5
28
102
{ACAD_XDICTIONARY
360
1F437
102
}
330
2
100
AcDbSymbolTableRecord
100
AcDbLayerTableRecord
  2
2HASEN
 70
     0
 62
     6
  6
PHANTOM
370
    -3
390
7A
  0
LAYER
  5
29
102
{ACAD_XDICTIONARY
360
1F439
102
}
330
2
100
AcDbSymbolTableRecord
100
AcDbLayerTableRecord
  2
HOJO
 70
     0
 62
     7
  6
CONTINUOUS
370
    -3
390
7A
  0
LAYER
  5
2A
102
{ACAD_XDICTIONARY
360
1F43B
102
}
330
2
100
AcDbSymbolTableRecord
100
AcDbLayerTableRecord
  2
TEN
 70
     0
 62
     7
  6
CONTINUOUS
370
    -3
390
7A
  0
LAYER
  5
70
330
2
100
AcDbSymbolTableRecord
100
AcDbLayerTableRecord
  2
DEFPOINTS
 70
     0
 62
     7
  6
CONTINUOUS
290
     0
370
    -3
390
7A
  0
ENDTAB
  0
TABLE
  2
STYLE
  5
3
330
0
100
AcDbSymbolTable
 70
     4
  0
STYLE
  5
F
330
3
100
AcDbSymbolTableRecord
100
AcDbTextStyleTableRecord
  2
STANDARD
 70
     0
 40
0.0
 41
0.8
 50
0.0
 71
     0
 42
75.0
  3
TXT.shx
  4
BIGFONT.shx
  0
STYLE
  5
D62
330
3
100
AcDbSymbolTableRecord
100
AcDbTextStyleTableRecord
  2
MS ゴシック
 70
     0
 40
0.0
 41
1.0
 50
0.0
 71
     0
 42
90.0
  3

  4

1001
ACAD
1000
MS Gothic
1071
    32817
  0
STYLE
  5
17DF
330
3
100
AcDbSymbolTableRecord
100
AcDbTextStyleTableRecord
  2
STYLE1
 70
     0
 40
0.0
 41
1.0
 50
0.0
 71
     0
 42
75.0
  3

  4

1001
ACAD
1000
MS Mincho
1071
    32785
  0
STYLE
  5
17E0
330
3
100
AcDbSymbolTableRecord
100
AcDbTextStyleTableRecord
  2
STYLE2
 70
     0
 40
0.0
 41
1.0
 50
0.0
 71
     0
 42
60.0
  3
txt.shx
  4
bigfont.shx
  0
ENDTAB
  0
TABLE
  2
VIEW
  5
6
330
0
100
AcDbSymbolTable
 70
     0
  0
ENDTAB
  0
TABLE
  2
UCS
  5
7
330
0
100
AcDbSymbolTable
 70
     0
  0
ENDTAB
  0
TABLE
  2
APPID
  5
9
330
0
100
AcDbSymbolTable
 70
    19
  0
APPID
  5
10
330
9
100
AcDbSymbolTableRecord
100
AcDbRegAppTableRecord
  2
ACAD
 70
     0
  0
APPID
  5
9B0
330
9
100
AcDbSymbolTableRecord
100
AcDbRegAppTableRecord
  2
ACAD_DSTYLE_DIMTEXT_FILL
 70
     0
  0
APPID
  5
9B1
330
9
100
AcDbSymbolTableRecord
100
AcDbRegAppTableRecord
  2
ACAD_DSTYLE_DIMEXT_LENGTH
 70
     0
  0
APPID
  5
9B2
330
9
100
AcDbSymbolTableRecord
100
AcDbRegAppTableRecord
  2
ACAD_DSTYLE_DIMEXT_ENABLED
 70
     0
  0
APPID
  5
9B3
330
9
100
AcDbSymbolTableRecord
100
AcDbRegAppTableRecord
  2
ACAD_DSTYLE_DIM_LINETYPE
 70
     0
  0
APPID
  5
9B4
330
9
100
AcDbSymbolTableRecord
100
AcDbRegAppTableRecord
  2
ACAD_DSTYLE_DIM_EXT1_LINETYPE
 70
     0
  0
APPID
  5
9B5
330
9
100
AcDbSymbolTableRecord
100
AcDbRegAppTableRecord
  2
ACAD_DSTYLE_DIM_EXT2_LINETYPE
 70
     0
  0
APPID
  5
A71
330
9
100
AcDbSymbolTableRecord
100
AcDbRegAppTableRecord
  2
ACAD_DSTYLE_DIMJOGGED_JOGANGLE_SYMBOL
 70
     0
  0
APPID
  5
C55
330
9
100
AcDbSymbolTableRecord
100
AcDbRegAppTableRecord
  2
ACAD_DSTYLE_DIMARC_LENGTH_SYMBOL
 70
     0
  0
APPID
  5
2D96
330
9
100
AcDbSymbolTableRecord
100
AcDbRegAppTableRecord
  2
ACAD_EXEMPT_FROM_CAD_STANDARDS
 70
     0
  0
APPID
  5
3600
330
9
100
AcDbSymbolTableRecord
100
AcDbRegAppTableRecord
  2
ACAUTHENVIRON
 70
     0
  0
APPID
  5
3604
330
9
100
AcDbSymbolTableRecord
100
AcDbRegAppTableRecord
  2
AcDbDynamicBlockTrueName
 70
     0
  0
APPID
  5
3605
330
9
100
AcDbSymbolTableRecord
100
AcDbRegAppTableRecord
  2
AcDbDynamicBlockGUID
 70
     0
  0
APPID
  5
3607
330
9
100
AcDbSymbolTableRecord
100
AcDbRegAppTableRecord
  2
AcDbBlockRepETag
 70
     0
  0
APPID
  5
B417
330
9
100
AcDbSymbolTableRecord
100
AcDbRegAppTableRecord
  2
DCO15
 70
     0
  0
APPID
  5
D9FD
330
9
100
AcDbSymbolTableRecord
100
AcDbRegAppTableRecord
  2
ACAD_PSEXT
 70
     0
  0
APPID
  5
1F418
330
9
100
AcDbSymbolTableRecord
100
AcDbRegAppTableRecord
  2
AcadAnnoMonitorAlertIconDisabled
 70
     0
  0
APPID
  5
1F43D
330
9
100
AcDbSymbolTableRecord
100
AcDbRegAppTableRecord
  2
ACAD_NAV_VCDISPLAY
 70
     0
  0
APPID
  5
1F471
330
9
100
AcDbSymbolTableRecord
100
AcDbRegAppTableRecord
  2
ACAD_MLEADERVER
 70
     0
  0
ENDTAB
  0
TABLE
  2
DIMSTYLE
  5
A
330
0
100
AcDbSymbolTable
 70
     2
100
AcDbDimStyleTable
  0
DIMSTYLE
105
61
330
A
100
AcDbSymbolTableRecord
100
AcDbDimStyleTableRecord
  2
STANDARD
 70
     0
178
     0
340
F
  0
DIMSTYLE
105
C5A
102
{ACAD_REACTORS
330
1488A
330
148C7
330
148D4
330
148EA
330
14921
330
1A8D6
330
1A8E3
330
1A959
330
1A967
330
1A974
330
1A981
330
1A98F
330
1A99C
330
1F0E6
330
1F0E7
330
1F0E8
330
1F0E9
330
1F357
330
1F358
330
1F359
102
}
330
A
100
AcDbSymbolTableRecord
100
AcDbDimStyleTableRecord
  2
A3-30
 70
     0
 40
30.0
 41
1.7
 42
2.0
 43
7.0
 44
0.5
 73
     0
 74
     0
 77
     1
 78
     8
140
2.5
141
0.0
145
1.0
147
0.7
174
     1
178
     0
179
     4
271
     0
272
     0
279
     2
284
     8
285
     8
286
     8
340
F
1001
ACAD_DSTYLE_DIMJOGGED_JOGANGLE_SYMBOL
1070
   384
1040
0.7853981633974483
  0
ENDTAB
  0
TABLE
  2
BLOCK_RECORD
  5
1
330
0
100
AcDbSymbolTable
 70
   249
  0
BLOCK_RECORD
  5
17
102
{ACAD_XDICTIONARY
360
90E
102
}
330
1
100
AcDbSymbolTableRecord
100
AcDbBlockTableRecord
  2
*MODEL_SPACE
340
7D
  0
BLOCK_RECORD
  5
14
330
1
100
AcDbSymbolTableRecord
100
AcDbBlockTableRecord
  2
*PAPER_SPACE
340
7E
  0
BLOCK_RECORD
  5
1C
330
1
100
AcDbSymbolTableRecord
100
AcDbBlockTableRecord
  2
BORDER
340
0
  0
BLOCK_RECORD
  5
1D
330
1
100
AcDbSymbolTableRecord
100
AcDbBlockTableRecord
  2
SA3
340
0
102
{BLKREFS
331
326B
102
}
  0
BLOCK_RECORD
  5
82
330
1
100
AcDbSymbolTableRecord
100
AcDbBlockTableRecord
  2
*D2
340
0
  0
BLOCK_RECORD
  5
8E
330
1
100
AcDbSymbolTableRecord
100
AcDbBlockTableRecord
  2
*D3
340
0
  0
BLOCK_RECORD
  5
9C
330
1
100
AcDbSymbolTableRecord
100
AcDbBlockTableRecord
  2
*D4
340
0
  0
BLOCK_RECORD
  5
AA
330
1
100
AcDbSymbolTableRecord
100
AcDbBlockTableRecord
  2
*D5
340
0
  0
BLOCK_RECORD
  5
B6
330
1
100
AcDbSymbolTableRecord
100
AcDbBlockTableRecord
  2
*D6
340
0
  0
BLOCK_RECORD
  5
C3
330
1
100
AcDbSymbolTableRecord
100
AcDbBlockTableRecord
  2
A$C79F54BAC
340
0
  0
BLOCK_RECORD
  5
160D
330
1
100
AcDbSymbolTableRecord
100
AcDbBlockTableRecord
  2
A$C540D0B4B
340
0
1001
AcDbDynamicBlockGUID
1000
{D740E343-D791-41EE-84B2-458EDE68DA36}
1001
AcDbBlockRepETag
1070
     1
1071
        6
  0
BLOCK_RECORD
  5
36EC
330
1
100
AcDbSymbolTableRecord
100
AcDbBlockTableRecord
  2
_None
340
0
  0
BLOCK_RECORD
  5
93C7
330
1
100
AcDbSymbolTableRecord
100
AcDbBlockTableRecord
  2
A$C6A272EC5
340
0
  0
BLOCK_RECORD
  5
1045E
330
1
100
AcDbSymbolTableRecord
100
AcDbBlockTableRecord
  2
A$C343A096A
340
0
102
{BLKREFS
331
10465
102
}
1001
AcDbDynamicBlockGUID
1000
{0C187902-C6AA-4DA5-977A-9BBB08C5A8A3}
1001
AcDbBlockRepETag
1070
     1
1071
        2
  0
BLOCK_RECORD
  5
10463
330
1
100
AcDbSymbolTableRecord
100
AcDbBlockTableRecord
  2
A$C11632978
340
0
  0
BLOCK_RECORD
  5
14890
330
1
100
AcDbSymbolTableRecord
100
AcDbBlockTableRecord
  2
*D17
340
0
  0
BLOCK_RECORD
  5
148C8
330
1
100
AcDbSymbolTableRecord
100
AcDbBlockTableRecord
  2
*D19
340
0
  0
BLOCK_RECORD
  5
148D5
330
1
100
AcDbSymbolTableRecord
100
AcDbBlockTableRecord
  2
*D20
340
0
  0
BLOCK_RECORD
  5
148EB
330
1
100
AcDbSymbolTableRecord
100
AcDbBlockTableRecord
  2
*D21
340
0
  0
BLOCK_RECORD
  5
14922
330
1
100
AcDbSymbolTableRecord
100
AcDbBlockTableRecord
  2
*D25
340
0
  0
BLOCK_RECORD
  5
1A8D7
330
1
100
AcDbSymbolTableRecord
100
AcDbBlockTableRecord
  2
*D46
340
0
  0
BLOCK_RECORD
  5
1A8E4
330
1
100
AcDbSymbolTableRecord
100
AcDbBlockTableRecord
  2
*D47
340
0
  0
BLOCK_RECORD
  5
1A95A
330
1
100
AcDbSymbolTableRecord
100
AcDbBlockTableRecord
  2
*D49
340
0
  0
BLOCK_RECORD
  5
1A968
330
1
100
AcDbSymbolTableRecord
100
AcDbBlockTableRecord
  2
*D50
340
0
  0
BLOCK_RECORD
  5
1A975
330
1
100
AcDbSymbolTableRecord
100
AcDbBlockTableRecord
  2
*D51
340
0
  0
BLOCK_RECORD
  5
1A982
330
1
100
AcDbSymbolTableRecord
100
AcDbBlockTableRecord
  2
*D52
340
0
  0
BLOCK_RECORD
  5
1A990
330
1
100
AcDbSymbolTableRecord
100
AcDbBlockTableRecord
  2
*D53
340
0
  0
BLOCK_RECORD
  5
1A99D
330
1
100
AcDbSymbolTableRecord
100
AcDbBlockTableRecord
  2
*D54
340
0
  0
BLOCK_RECORD
  5
1F0EA
330
1
100
AcDbSymbolTableRecord
100
AcDbBlockTableRecord
  2
*D229
340
0
  0
BLOCK_RECORD
  5
1F0F6
330
1
100
AcDbSymbolTableRecord
100
AcDbBlockTableRecord
  2
*D230
340
0
  0
BLOCK_RECORD
  5
1F102
330
1
100
AcDbSymbolTableRecord
100
AcDbBlockTableRecord
  2
*D231
340
0
  0
BLOCK_RECORD
  5
1F10E
330
1
100
AcDbSymbolTableRecord
100
AcDbBlockTableRecord
  2
*D232
340
0
  0
BLOCK_RECORD
  5
1F35A
330
1
100
AcDbSymbolTableRecord
100
AcDbBlockTableRecord
  2
*D246
340
0
  0
BLOCK_RECORD
  5
1F366
330
1
100
AcDbSymbolTableRecord
100
AcDbBlockTableRecord
  2
*D247
340
0
  0
BLOCK_RECORD
  5
1F372
330
1
100
AcDbSymbolTableRecord
100
AcDbBlockTableRecord
  2
*D248
340
0
  0
ENDTAB
  0
ENDSEC
  0
SECTION
  2
BLOCKS
  0
BLOCK
  5
2D
330
17
100
AcDbEntity
  8
0
100
AcDbBlockBegin
  2
*MODEL_SPACE
 70
     0
 10
0.0
 20
0.0
 30
0.0
  3
*MODEL_SPACE
  1

  0
ENDBLK
  5
2E
330
17
100
AcDbEntity
  8
0
100
AcDbBlockEnd
  0
BLOCK
  5
2B
330
14
100
AcDbEntity
 67
     1
  8
0
100
AcDbBlockBegin
  2
*PAPER_SPACE
 70
     0
 10
0.0
 20
0.0
 30
0.0
  3
*PAPER_SPACE
  1

  0
ENDBLK
  5
2C
330
14
100
AcDbEntity
 67
     1
  8
0
100
AcDbBlockEnd
  0
BLOCK
  5
2F
330
1C
100
AcDbEntity
  8
0
100
AcDbBlockBegin
  2
BORDER
 70
     0
 10
0.0
 20
0.0
 30
0.0
  3
BORDER
  1

  0
LINE
  5
30
330
1C
100
AcDbEntity
  8
0
100
AcDbLine
 10
0.0
 20
0.0
 30
0.0
 11
1.00000000000004
 21
0.0
 31
0.0
  0
LINE
  5
31
330
1C
100
AcDbEntity
  8
0
100
AcDbLine
 10
1.00000000000004
 20
0.0
 30
0.0
 11
1.00000000000004
 21
1.00000000000004
 31
0.0
  0
LINE
  5
32
330
1C
100
AcDbEntity
  8
0
100
AcDbLine
 10
1.00000000000004
 20
1.00000000000004
 30
0.0
 11
0.0
 21
1.00000000000004
 31
0.0
  0
LINE
  5
33
330
1C
100
AcDbEntity
  8
0
100
AcDbLine
 10
0.0
 20
1.00000000000004
 30
0.0
 11
0.0
 21
0.0
 31
0.0
  0
ENDBLK
  5
34
330
1C
100
AcDbEntity
  8
0
100
AcDbBlockEnd
  0
BLOCK
  5
35
330
1D
100
AcDbEntity
  8
HAIKIN
100
AcDbBlockBegin
  2
SA3
 70
     0
 10
0.0
 20
0.0
 30
0.0
  3
SA3
  1

  0
TEXT
  5
36
330
1D
100
AcDbEntity
  8
SUNPOU
100
AcDbText
 10
340.0
 20
0.0
 30
0.0
 40
2.5
  1
新和コンクリート工業株式会社
100
AcDbText
  0
TEXT
  5
39
330
1D
100
AcDbEntity
  8
SUNPOU
100
AcDbText
 10
361.4166666666667
 20
6.25
 30
0.0
 40
2.5
  1
製図
 72
     4
 11
364.0
 21
7.5
 31
0.0
100
AcDbText
  0
TEXT
  5
3A
330
1D
100
AcDbEntity
  8
SUNPOU
100
AcDbText
 10
361.3333333333333
 20
11.25
 30
0.0
 40
2.5
  1
設計
 72
     4
 11
364.0
 21
12.5
 31
0.0
100
AcDbText
  0
TEXT
  5
3B
330
1D
100
AcDbEntity
  8
SUNPOU
100
AcDbText
 10
339.0833333333333
 20
6.250000000000014
 30
0.0
 40
2.5
  1
認
 72
     4
 11
340.25
 21
7.500000000000014
 31
0.0
100
AcDbText
  0
TEXT
  5
3C
330
1D
100
AcDbEntity
  8
SUNPOU
100
AcDbText
 10
339.0833333333333
 20
11.33333333333336
 30
0.0
 40
2.5
  1
承
 72
     4
 11
340.25
 21
12.50000000000003
 31
0.0
100
AcDbText
  0
TEXT
  5
3D
330
1D
100
AcDbEntity
  8
SUNPOU
100
AcDbText
 10
312.75
 20
11.75000000000001
 30
0.0
 40
2.5
  1
図　面　番　号
 72
     4
 11
323.0
 21
13.00000000000001
 31
0.0
100
AcDbText
  0
TEXT
  5
3E
330
1D
100
AcDbEntity
  8
SUNPOU
100
AcDbText
 10
362.0
 20
17.0
 30
0.0
 40
2.5
  1
１／
100
AcDbText
  0
TEXT
  5
3F
330
1D
100
AcDbEntity
  8
SUNPOU
100
AcDbText
 10
347.3333333333333
 20
16.25000000000001
 30
0.0
 40
2.5
  1
縮　　尺
 72
     4
 11
353.0
 21
17.50000000000001
 31
0.0
100
AcDbText
  0
TEXT
  5
40
330
1D
100
AcDbEntity
  8
SUNPOU
100
AcDbText
 10
347.3333333333333
 20
21.25
 30
0.0
 40
2.5
  1
鉄 筋 量
 72
     4
 11
353.0
 21
22.5
 31
0.0
100
AcDbText
  0
TEXT
  5
41
330
1D
100
AcDbEntity
  8
SUNPOU
100
AcDbText
 10
347.3333333333333
 20
26.25
 30
0.0
 40
2.5
  1
製 造 数
 72
     4
 11
353.0
 21
27.5
 31
0.0
100
AcDbText
  0
TEXT
  5
42
330
1D
100
AcDbEntity
  8
SUNPOU
100
AcDbText
 10
377.0
 20
21.0
 30
0.0
 40
2.5
  1
ｋｇ
 72
     2
 11
382.0
 21
21.0
 31
0.0
100
AcDbText
  0
TEXT
  5
43
330
1D
100
AcDbEntity
  8
SUNPOU
100
AcDbText
 10
339.5
 20
21.0
 30
0.0
 40
2.5
  1
ｋｇ
 72
     2
 11
344.5
 21
21.0
 31
0.0
100
AcDbText
  0
TEXT
  5
44
330
1D
100
AcDbEntity
  8
SUNPOU
100
AcDbText
 10
310.0
 20
16.25000000000001
 30
0.0
 40
2.5
  1
年 月 日
 72
     4
 11
315.5
 21
17.50000000000001
 31
0.0
100
AcDbText
  0
TEXT
  5
45
330
1D
100
AcDbEntity
  8
SUNPOU
100
AcDbText
 10
309.8333333333333
 20
21.25
 30
0.0
 40
2.5
  1
製品質量
 72
     4
 11
315.5
 21
22.5
 31
0.0
100
AcDbText
  0
TEXT
  5
46
330
1D
100
AcDbEntity
  8
SUNPOU
100
AcDbText
 10
309.9166666666667
 20
26.25
 30
0.0
 40
2.5
  1
業 者 名
 72
     4
 11
315.5
 21
27.5
 31
0.0
100
AcDbText
  0
TEXT
  5
47
330
1D
100
AcDbEntity
  8
SUNPOU
100
AcDbText
 10
309.8333333333333
 20
32.5
 30
0.0
 40
2.5
  1
名　　称
 72
     4
 11
315.5
 21
33.75
 31
0.0
100
AcDbText
  0
LINE
  5
48
330
1D
100
AcDbEntity
  8
SUNPOU
100
AcDbLine
 10
338.0
 20
11.00000000000001
 30
0.0
 11
308.0
 21
11.00000000000001
 31
0.0
  0
LINE
  5
49
330
1D
100
AcDbEntity
  8
SUNPOU
100
AcDbLine
 10
367.5
 20
4.999999999999986
 30
0.0
 11
367.5
 21
14.99999999999999
 31
0.0
  0
LINE
  5
4A
330
1D
100
AcDbEntity
  8
SUNPOU
100
AcDbLine
 10
360.5
 20
4.999999999999986
 30
0.0
 11
360.5
 21
14.99999999999999
 31
0.0
  0
LINE
  5
4B
330
1D
100
AcDbEntity
  8
SUNPOU
100
AcDbLine
 10
342.5
 20
4.999999999999995
 30
0.0
 11
342.5
 21
15.0
 31
0.0
  0
LINE
  5
4C
330
1D
100
AcDbEntity
  8
SUNPOU
100
AcDbLine
 10
338.0
 20
4.999999999999995
 30
0.0
 11
338.0
 21
15.0
 31
0.0
  0
LINE
  5
4D
330
1D
100
AcDbEntity
  8
SUNPOU
100
AcDbLine
 10
323.0
 20
15.00000000000001
 30
0.0
 11
323.0
 21
37.5
 31
0.0
  0
LINE
  5
4E
330
1D
100
AcDbEntity
  8
SUNPOU
100
AcDbLine
 10
360.5
 20
15.00000000000001
 30
0.0
 11
360.5
 21
30.0
 31
0.0
  0
LINE
  5
4F
330
1D
100
AcDbEntity
  8
SUNPOU
100
AcDbLine
 10
345.5
 20
15.00000000000001
 30
0.0
 11
345.5
 21
30.0
 31
0.0
  0
LINE
  5
50
330
1D
100
AcDbEntity
  8
SUNPOU
100
AcDbLine
 10
383.0
 20
30.0
 30
0.0
 11
308.0
 21
30.0
 31
0.0
  0
LINE
  5
51
330
1D
100
AcDbEntity
  8
SUNPOU
100
AcDbLine
 10
383.0
 20
25.0
 30
0.0
 11
308.0
 21
25.0
 31
0.0
  0
LINE
  5
52
330
1D
100
AcDbEntity
  8
SUNPOU
100
AcDbLine
 10
383.0
 20
20.0
 30
0.0
 11
308.0
 21
20.0
 31
0.0
  0
LINE
  5
53
330
1D
100
AcDbEntity
  8
SUNPOU
100
AcDbLine
 10
383.0
 20
14.99999999999999
 30
0.0
 11
308.0
 21
15.00000000000004
 31
0.0
  0
LINE
  5
54
330
1D
100
AcDbEntity
  8
HAIKIN
100
AcDbLine
 10
308.0
 20
37.5
 30
0.0
 11
383.0
 21
37.5
 31
0.0
  0
LINE
  5
55
330
1D
100
AcDbEntity
  8
HAIKIN
100
AcDbLine
 10
308.0
 20
5.000000000000009
 30
0.0
 11
308.0
 21
37.5
 31
0.0
  0
LINE
  5
56
330
1D
100
AcDbEntity
  8
SUNPOU
100
AcDbLine
 10
0.000000000000016
 20
277.0
 30
0.0
 11
0.000000000000016
 21
272.0
 31
0.0
  0
LINE
  5
57
330
1D
100
AcDbEntity
  8
SUNPOU
100
AcDbLine
 10
25.00000000000001
 20
277.0
 30
0.0
 11
0.000000000000016
 21
277.0
 31
0.0
  0
LINE
  5
58
330
1D
100
AcDbEntity
  8
SUNPOU
100
AcDbLine
 10
25.00000000000001
 20
272.0
 30
0.0
 11
25.00000000000001
 21
277.0
 31
0.0
  0
LINE
  5
59
330
1D
100
AcDbEntity
  8
HAIKIN
100
AcDbLine
 10
0.0000000000000004
 20
5.0
 30
0.0
 11
383.0
 21
5.0
 31
0.0
  0
LINE
  5
5A
330
1D
100
AcDbEntity
  8
HAIKIN
100
AcDbLine
 10
0.0000000000000158
 20
272.0
 30
0.0
 11
383.0
 21
272.0
 31
0.0
  0
LINE
  5
5B
330
1D
100
AcDbEntity
  8
HAIKIN
100
AcDbLine
 10
383.0
 20
272.0
 30
0.0
 11
383.0
 21
5.0
 31
0.0
  0
TEXT
  5
5C
330
1D
100
AcDbEntity
  8
SUNPOU
100
AcDbText
 10
3.700000000000017
 20
273.0
 30
0.0
 40
3.0
  1
Ｈ－２－共
 72
     4
 11
12.50000000000002
 21
274.5
 31
0.0
100
AcDbText
  0
LINE
  5
5D
330
1D
100
AcDbEntity
  8
HAIKIN
100
AcDbLine
 10
0.0000000000000004
 20
5.0
 30
0.0
 11
0.0000000000000158
 21
272.0
 31
0.0
  0
ENDBLK
  5
5E
330
1D
100
AcDbEntity
  8
HAIKIN
100
AcDbBlockEnd
  0
BLOCK
  5
8C
330
82
100
AcDbEntity
  8
0
100
AcDbBlockBegin
  2
*D2
 70
     1
 10
0.0
 20
0.0
 30
0.0
  3
*D2
  1

  0
LINE
  5
83
330
82
100
AcDbEntity
  8
SUNPOU
440
 16777216
370
    -2
100
AcDbLine
 10
14459.99999999999
 20
11910.0
 30
0.0
 11
15605.99999999999
 21
11910.0
 31
0.0
  0
LINE
  5
84
330
82
100
AcDbEntity
  8
SUNPOU
440
 16777216
370
    -2
100
AcDbLine
 10
14459.99999999999
 20
13710.0
 30
0.0
 11
15605.99999999999
 21
13710.0
 31
0.0
  0
LINE
  5
85
330
82
100
AcDbEntity
  8
SUNPOU
440
 16777216
370
    -2
100
AcDbLine
 10
15569.99999999999
 20
12000.0
 30
0.0
 11
15569.99999999999
 21
13620.0
 31
0.0
  0
MTEXT
  5
86
330
82
100
AcDbEntity
  8
SUNPOU
 62
     0
440
 16777216
100
AcDbMText
 10
15404.05869794343
 20
12806.25726232369
 30
0.0
 40
180.0
 41
0.0
 71
     5
 72
     1
  1
\A1;15@120=1800
 11
6.123031769111886E-17
 21
1.0
 31
0.0
 73
     1
 44
1.0
  0
SOLID
  5
87
330
82
100
AcDbEntity
  8
SUNPOU
440
 16777216
100
AcDbTrace
 10
15554.99999999999
 20
12000.0
 30
0.0
 11
15584.99999999999
 21
12000.0
 31
0.0
 12
15569.99999999999
 22
11910.0
 32
0.0
 13
15569.99999999999
 23
11910.0
 33
0.0
  0
SOLID
  5
88
330
82
100
AcDbEntity
  8
SUNPOU
440
 16777216
100
AcDbTrace
 10
15554.99999999999
 20
13620.0
 30
0.0
 11
15584.99999999999
 21
13620.0
 31
0.0
 12
15569.99999999999
 22
13710.0
 32
0.0
 13
15569.99999999999
 23
13710.0
 33
0.0
  0
POINT
  5
89
330
82
100
AcDbEntity
  8
DEFPOINTS
 62
     0
440
 16777216
100
AcDbPoint
 10
14369.99999999999
 20
11910.0
 30
0.0
  0
POINT
  5
8A
330
82
100
AcDbEntity
  8
DEFPOINTS
 62
     0
440
 16777216
100
AcDbPoint
 10
14369.99999999999
 20
13710.0
 30
0.0
  0
POINT
  5
8B
330
82
100
AcDbEntity
  8
DEFPOINTS
 62
     0
440
 16777216
100
AcDbPoint
 10
15569.99999999999
 20
13710.0
 30
0.0
  0
ENDBLK
  5
8D
330
82
100
AcDbEntity
  8
0
100
AcDbBlockEnd
  0
BLOCK
  5
9A
330
8E
100
AcDbEntity
  8
0
100
AcDbBlockBegin
  2
*D3
 70
     1
 10
0.0
 20
0.0
 30
0.0
  3
*D3
  1

  0
LINE
  5
8F
330
8E
100
AcDbEntity
  8
SUNPOU
440
 16777216
370
    -2
100
AcDbLine
 10
14333.74999999999
 20
11805.0
 30
0.0
 11
15605.99999999999
 21
11805.0
 31
0.0
  0
LINE
  5
90
330
8E
100
AcDbEntity
  8
SUNPOU
440
 16777216
370
    -2
100
AcDbLine
 10
14489.70588235293
 20
11910.0
 30
0.0
 11
15605.99999999999
 21
11910.0
 31
0.0
  0
LINE
  5
91
330
8E
100
AcDbEntity
  8
SUNPOU
440
 16777216
370
    -2
100
AcDbLine
 10
15569.99999999999
 20
11715.0
 30
0.0
 11
15569.99999999999
 21
11625.0
 31
0.0
  0
LINE
  5
92
330
8E
100
AcDbEntity
  8
SUNPOU
440
 16777216
370
    -2
100
AcDbLine
 10
15569.99999999999
 20
12000.0
 30
0.0
 11
15569.99999999999
 21
12090.0
 31
0.0
  0
MTEXT
  5
93
330
8E
100
AcDbEntity
  8
SUNPOU
 62
     0
440
 16777216
100
AcDbMText
 10
15730.33993097525
 20
11906.05735268755
 30
0.0
 40
180.0
 41
0.0
 71
     5
 72
     1
  1
\A1;105
 11
6.123031769111886E-17
 21
1.0
 31
0.0
 73
     1
 44
1.0
  0
LINE
  5
94
330
8E
100
AcDbEntity
  8
SUNPOU
440
 16777216
370
    -2
100
AcDbLine
 10
15569.99999999999
 20
11805.0
 30
0.0
 11
15569.99999999999
 21
11910.0
 31
0.0
  0
SOLID
  5
95
330
8E
100
AcDbEntity
  8
SUNPOU
440
 16777216
100
AcDbTrace
 10
15554.99999999999
 20
11715.0
 30
0.0
 11
15584.99999999999
 21
11715.0
 31
0.0
 12
15569.99999999999
 22
11805.0
 32
0.0
 13
15569.99999999999
 23
11805.0
 33
0.0
  0
SOLID
  5
96
330
8E
100
AcDbEntity
  8
SUNPOU
440
 16777216
100
AcDbTrace
 10
15554.99999999999
 20
12000.0
 30
0.0
 11
15584.99999999999
 21
12000.0
 31
0.0
 12
15569.99999999999
 22
11910.0
 32
0.0
 13
15569.99999999999
 23
11910.0
 33
0.0
  0
POINT
  5
97
330
8E
100
AcDbEntity
  8
DEFPOINTS
 62
     0
440
 16777216
100
AcDbPoint
 10
14243.74999999999
 20
11805.0
 30
0.0
  0
POINT
  5
98
330
8E
100
AcDbEntity
  8
DEFPOINTS
 62
     0
440
 16777216
100
AcDbPoint
 10
14399.70588235293
 20
11910.0
 30
0.0
  0
POINT
  5
99
330
8E
100
AcDbEntity
  8
DEFPOINTS
 62
     0
440
 16777216
100
AcDbPoint
 10
15569.99999999999
 20
11910.0
 30
0.0
  0
ENDBLK
  5
9B
330
8E
100
AcDbEntity
  8
0
100
AcDbBlockEnd
  0
BLOCK
  5
A8
330
9C
100
AcDbEntity
  8
0
100
AcDbBlockBegin
  2
*D4
 70
     1
 10
0.0
 20
0.0
 30
0.0
  3
*D4
  1

  0
LINE
  5
9D
330
9C
100
AcDbEntity
  8
SUNPOU
440
 16777216
370
    -2
100
AcDbLine
 10
14459.99999999999
 20
13710.0
 30
0.0
 11
15605.99999999999
 21
13710.0
 31
0.0
  0
LINE
  5
9E
330
9C
100
AcDbEntity
  8
SUNPOU
440
 16777216
370
    -2
100
AcDbLine
 10
14459.99999999999
 20
13770.0
 30
0.0
 11
15605.99999999999
 21
13770.0
 31
0.0
  0
LINE
  5
9F
330
9C
100
AcDbEntity
  8
SUNPOU
440
 16777216
370
    -2
100
AcDbLine
 10
15569.99999999999
 20
13620.0
 30
0.0
 11
15569.99999999999
 21
13530.0
 31
0.0
  0
LINE
  5
A0
330
9C
100
AcDbEntity
  8
SUNPOU
440
 16777216
370
    -2
100
AcDbLine
 10
15569.99999999999
 20
13860.0
 30
0.0
 11
15569.99999999999
 21
13950.0
 31
0.0
  0
MTEXT
  5
A1
330
9C
100
AcDbEntity
  8
SUNPOU
 62
     0
440
 16777216
100
AcDbMText
 10
15437.48050855183
 20
13968.0082924672
 30
0.0
 40
180.0
 41
0.0
 71
     5
 72
     1
  1
\A1;60
 11
6.123031769111886E-17
 21
1.0
 31
0.0
 73
     1
 44
1.0
  0
LINE
  5
A2
330
9C
100
AcDbEntity
  8
SUNPOU
440
 16777216
370
    -2
100
AcDbLine
 10
15569.99999999999
 20
13710.0
 30
0.0
 11
15569.99999999999
 21
13770.0
 31
0.0
  0
SOLID
  5
A3
330
9C
100
AcDbEntity
  8
SUNPOU
440
 16777216
100
AcDbTrace
 10
15554.99999999999
 20
13620.0
 30
0.0
 11
15584.99999999999
 21
13620.0
 31
0.0
 12
15569.99999999999
 22
13710.0
 32
0.0
 13
15569.99999999999
 23
13710.0
 33
0.0
  0
SOLID
  5
A4
330
9C
100
AcDbEntity
  8
SUNPOU
440
 16777216
100
AcDbTrace
 10
15554.99999999999
 20
13860.0
 30
0.0
 11
15584.99999999999
 21
13860.0
 31
0.0
 12
15569.99999999999
 22
13770.0
 32
0.0
 13
15569.99999999999
 23
13770.0
 33
0.0
  0
POINT
  5
A5
330
9C
100
AcDbEntity
  8
DEFPOINTS
 62
     0
440
 16777216
100
AcDbPoint
 10
14369.99999999999
 20
13710.0
 30
0.0
  0
POINT
  5
A6
330
9C
100
AcDbEntity
  8
DEFPOINTS
 62
     0
440
 16777216
100
AcDbPoint
 10
14369.99999999999
 20
13770.0
 30
0.0
  0
POINT
  5
A7
330
9C
100
AcDbEntity
  8
DEFPOINTS
 62
     0
440
 16777216
100
AcDbPoint
 10
15569.99999999999
 20
13770.0
 30
0.0
  0
ENDBLK
  5
A9
330
9C
100
AcDbEntity
  8
0
100
AcDbBlockEnd
  0
BLOCK
  5
B4
330
AA
100
AcDbEntity
  8
0
100
AcDbBlockBegin
  2
*D5
 70
     1
 10
0.0
 20
0.0
 30
0.0
  3
*D5
  1

  0
LINE
  5
AB
330
AA
100
AcDbEntity
  8
SUNPOU
440
 16777216
370
    -2
100
AcDbLine
 10
14324.99999999999
 20
11770.0
 30
0.0
 11
15905.99999999999
 21
11770.0
 31
0.0
  0
LINE
  5
AC
330
AA
100
AcDbEntity
  8
SUNPOU
440
 16777216
370
    -2
100
AcDbLine
 10
14594.99999999999
 20
13770.0
 30
0.0
 11
15905.99999999999
 21
13770.0
 31
0.0
  0
LINE
  5
AD
330
AA
100
AcDbEntity
  8
SUNPOU
440
 16777216
370
    -2
100
AcDbLine
 10
15869.99999999999
 20
11860.0
 30
0.0
 11
15869.99999999999
 21
13680.0
 31
0.0
  0
SOLID
  5
AE
330
AA
100
AcDbEntity
  8
SUNPOU
440
 16777216
100
AcDbTrace
 10
15854.99999999999
 20
11860.0
 30
0.0
 11
15884.99999999999
 21
11860.0
 31
0.0
 12
15869.99999999999
 22
11770.0
 32
0.0
 13
15869.99999999999
 23
11770.0
 33
0.0
  0
SOLID
  5
AF
330
AA
100
AcDbEntity
  8
SUNPOU
440
 16777216
100
AcDbTrace
 10
15854.99999999999
 20
13680.0
 30
0.0
 11
15884.99999999999
 21
13680.0
 31
0.0
 12
15869.99999999999
 22
13770.0
 32
0.0
 13
15869.99999999999
 23
13770.0
 33
0.0
  0
MTEXT
  5
B0
330
AA
100
AcDbEntity
  8
SUNPOU
 62
     0
440
 16777216
100
AcDbMText
 10
15731.99999999999
 20
12770.0
 30
0.0
 40
180.0
 41
0.0
 71
     5
 72
     1
  1
\A1;2000
 11
6.123031769111886E-17
 21
1.0
 31
0.0
 73
     1
 44
1.0
  0
POINT
  5
B1
330
AA
100
AcDbEntity
  8
DEFPOINTS
 62
     0
440
 16777216
100
AcDbPoint
 10
14234.99999999999
 20
11770.0
 30
0.0
  0
POINT
  5
B2
330
AA
100
AcDbEntity
  8
DEFPOINTS
 62
     0
440
 16777216
100
AcDbPoint
 10
14504.99999999999
 20
13770.0
 30
0.0
  0
POINT
  5
B3
330
AA
100
AcDbEntity
  8
DEFPOINTS
 62
     0
440
 16777216
100
AcDbPoint
 10
15869.99999999999
 20
13770.0
 30
0.0
  0
ENDBLK
  5
B5
330
AA
100
AcDbEntity
  8
0
100
AcDbBlockEnd
  0
BLOCK
  5
C1
330
B6
100
AcDbEntity
  8
0
100
AcDbBlockBegin
  2
*D6
 70
     1
 10
0.0
 20
0.0
 30
0.0
  3
*D6
  1

  0
LINE
  5
B7
330
B6
100
AcDbEntity
  8
SUNPOU
 62
     0
440
 16777216
370
    -2
100
AcDbLine
 10
14388.74999999999
 20
11805.0
 30
0.0
 11
15629.99999999999
 21
11805.0
 31
0.0
  0
LINE
  5
B8
330
B6
100
AcDbEntity
  8
SUNPOU
 62
     0
440
 16777216
370
    -2
100
AcDbLine
 10
14379.99999999999
 20
11770.0
 30
0.0
 11
15629.99999999999
 21
11770.0
 31
0.0
  0
LINE
  5
B9
330
B6
100
AcDbEntity
  8
SUNPOU
 62
     0
440
 16777216
370
    -2
100
AcDbLine
 10
15569.99999999999
 20
11895.0
 30
0.0
 11
15569.99999999999
 21
11985.0
 31
0.0
  0
LINE
  5
BA
330
B6
100
AcDbEntity
  8
SUNPOU
 62
     0
440
 16777216
370
    -2
100
AcDbLine
 10
15569.99999999999
 20
11680.0
 30
0.0
 11
15569.99999999999
 21
11590.0
 31
0.0
  0
MTEXT
  5
BB
330
B6
100
AcDbEntity
  8
SUNPOU
 62
     0
440
 16777216
100
AcDbMText
 10
15422.1488453184
 20
11572.59656658611
 30
0.0
 40
180.0
 41
0.0
 71
     5
 72
     1
  1
\A1;35
 11
6.123031769111886E-17
 21
1.0
 31
0.0
 73
     1
 44
1.0
  0
SOLID
  5
BC
330
B6
100
AcDbEntity
  8
SUNPOU
 62
     0
440
 16777216
100
AcDbTrace
 10
15554.99999999999
 20
11895.0
 30
0.0
 11
15584.99999999999
 21
11895.0
 31
0.0
 12
15569.99999999999
 22
11805.0
 32
0.0
 13
15569.99999999999
 23
11805.0
 33
0.0
  0
SOLID
  5
BD
330
B6
100
AcDbEntity
  8
SUNPOU
 62
     0
440
 16777216
100
AcDbTrace
 10
15554.99999999999
 20
11680.0
 30
0.0
 11
15584.99999999999
 21
11680.0
 31
0.0
 12
15569.99999999999
 22
11770.0
 32
0.0
 13
15569.99999999999
 23
11770.0
 33
0.0
  0
POINT
  5
BE
330
B6
100
AcDbEntity
  8
DEFPOINTS
 62
     0
440
 16777216
100
AcDbPoint
 10
14268.74999999999
 20
11805.0
 30
0.0
  0
POINT
  5
BF
330
B6
100
AcDbEntity
  8
DEFPOINTS
 62
     0
440
 16777216
100
AcDbPoint
 10
14259.99999999999
 20
11770.0
 30
0.0
  0
POINT
  5
C0
330
B6
100
AcDbEntity
  8
DEFPOINTS
 62
     0
440
 16777216
100
AcDbPoint
 10
15569.99999999999
 20
11770.0
 30
0.0
  0
ENDBLK
  5
C2
330
B6
100
AcDbEntity
  8
0
100
AcDbBlockEnd
  0
BLOCK
  5
169
330
C3
100
AcDbEntity
  8
0
100
AcDbBlockBegin
  2
A$C79F54BAC
 70
     0
 10
0.0
 20
0.0
 30
0.0
  3
A$C79F54BAC
  1

  0
DIMENSION
  5
C4
330
C3
100
AcDbEntity
  8
SUNPOU
100
AcDbDimension
  2
*D2
 10
4229.99998564875
 20
2257.403415746125
 30
0.0
 11
4064.058683592186
 21
1353.660678069813
 31
0.0
 12
-11340.00001435124
 22
-11452.59658425388
 32
0.0
 70
   128
  1
15@120=<>
 71
     5
 42
-1.0
  3
STANDARD
100
AcDbAlignedDimension
 13
3029.99998564875
 23
457.4034157461228
 33
0.0
 14
3029.99998564875
 24
2257.403415746125
 34
0.0
 50
90.0
100
AcDbRotatedDimension
1001
ACAD
1000
DSTYLE
1002
{
1070
   287
1070
     5
1070
   287
1070
     5
1070
   287
1070
     5
1070
   287
1070
     5
1070
   287
1070
     5
1070
   287
1070
     5
1070
   287
1070
     5
1070
   287
1070
     5
1070
    40
1040
60.0
1070
    41
1040
1.5
1070
    42
1040
1.5
1070
    43
1040
7.0
1070
    44
1040
0.6
1070
    73
1070
     0
1070
    74
1070
     0
1070
    77
1070
     1
1070
    78
1070
     8
1070
   140
1040
3.0
1070
   141
1040
0.0
1070
   145
1040
1.0
1070
   147
1040
0.8
1070
   172
1070
     1
1070
   176
1070
   256
1070
   177
1070
   256
1070
   271
1070
     0
1070
   275
1070
     1
1070
   279
1070
     2
1070
   284
1070
     8
1070
   285
1070
     8
1070
   286
1070
     8
1002
}
  0
DIMENSION
  5
C5
330
C3
100
AcDbEntity
  8
SUNPOU
100
AcDbDimension
  2
*D3
 10
4229.99998564875
 20
457.4034157461228
 30
0.0
 11
4390.339916624003
 21
453.4607684336734
 31
0.0
 12
-11340.00001435124
 22
-11452.59658425388
 32
0.0
 70
   128
 71
     5
 42
-1.0
  3
STANDARD
100
AcDbAlignedDimension
 13
2903.74998564875
 23
352.4034157461247
 33
0.0
 14
3059.705868001689
 24
457.4034157461228
 34
0.0
 50
90.0
100
AcDbRotatedDimension
1001
ACAD
1000
DSTYLE
1002
{
1070
   287
1070
     5
1070
   287
1070
     5
1070
   287
1070
     5
1070
   287
1070
     5
1070
   287
1070
     5
1070
   287
1070
     5
1070
   287
1070
     5
1070
   287
1070
     5
1070
    40
1040
60.0
1070
    41
1040
1.5
1070
    42
1040
1.5
1070
    43
1040
7.0
1070
    44
1040
0.6
1070
    73
1070
     0
1070
    74
1070
     0
1070
    77
1070
     1
1070
    78
1070
     8
1070
   140
1040
3.0
1070
   141
1040
0.0
1070
   145
1040
1.0
1070
   147
1040
0.8
1070
   172
1070
     1
1070
   176
1070
   256
1070
   177
1070
   256
1070
   271
1070
     0
1070
   275
1070
     1
1070
   279
1070
     2
1070
   284
1070
     8
1070
   285
1070
     8
1070
   286
1070
     8
1002
}
  0
DIMENSION
  5
C6
330
C3
100
AcDbEntity
  8
SUNPOU
100
AcDbDimension
  2
*D4
 10
4229.99998564875
 20
2317.403415746121
 30
0.0
 11
4097.480494200581
 21
2515.411708213323
 31
0.0
 12
-11340.00001435124
 22
-11452.59658425388
 32
0.0
 70
   128
 71
     5
 42
-1.0
  3
STANDARD
100
AcDbAlignedDimension
 13
3029.99998564875
 23
2257.403415746125
 33
0.0
 14
3029.99998564875
 24
2317.403415746121
 34
0.0
 50
90.0
100
AcDbRotatedDimension
1001
ACAD
1000
DSTYLE
1002
{
1070
   287
1070
     5
1070
   287
1070
     5
1070
   287
1070
     5
1070
   287
1070
     5
1070
   287
1070
     5
1070
   287
1070
     5
1070
   287
1070
     5
1070
   287
1070
     5
1070
    40
1040
60.0
1070
    41
1040
1.5
1070
    42
1040
1.5
1070
    43
1040
7.0
1070
    44
1040
0.6
1070
    73
1070
     0
1070
    74
1070
     0
1070
    77
1070
     1
1070
    78
1070
     8
1070
   140
1040
3.0
1070
   141
1040
0.0
1070
   145
1040
1.0
1070
   147
1040
0.8
1070
   172
1070
     1
1070
   176
1070
   256
1070
   177
1070
   256
1070
   271
1070
     0
1070
   275
1070
     1
1070
   279
1070
     2
1070
   284
1070
     8
1070
   285
1070
     8
1070
   286
1070
     8
1002
}
  0
DIMENSION
  5
C7
330
C3
100
AcDbEntity
  8
SUNPOU
100
AcDbDimension
  2
*D5
 10
4529.99998564875
 20
2317.403415746123
 30
0.0
 11
4391.999985648747
 21
1317.403415746123
 31
0.0
 12
-11340.00001435124
 22
-11452.59658425388
 32
0.0
 71
     5
 42
-1.0
  3
STANDARD
100
AcDbAlignedDimension
 13
2894.99998564875
 23
317.403415746121
 33
0.0
 14
3164.99998564875
 24
2317.403415746123
 34
0.0
 50
90.0
100
AcDbRotatedDimension
1001
ACAD
1000
DSTYLE
1002
{
1070
   287
1070
     5
1070
   287
1070
     5
1070
   287
1070
     5
1070
   287
1070
     5
1070
   287
1070
     5
1070
   287
1070
     5
1070
   287
1070
     5
1070
   287
1070
     5
1070
    40
1040
60.0
1070
    41
1040
1.5
1070
    42
1040
1.5
1070
    43
1040
7.0
1070
    44
1040
0.6
1070
    73
1070
     0
1070
    74
1070
     0
1070
    77
1070
     1
1070
    78
1070
     8
1070
   140
1040
3.0
1070
   141
1040
0.0
1070
   145
1040
1.0
1070
   147
1040
0.8
1070
   172
1070
     1
1070
   176
1070
   256
1070
   177
1070
   256
1070
   271
1070
     0
1070
   275
1070
     1
1070
   279
1070
     2
1070
   284
1070
     8
1070
   285
1070
     8
1070
   286
1070
     8
1002
}
  0
DIMENSION
  5
C8
330
C3
100
AcDbEntity
  8
SUNPOU
100
AcDbDimension
  2
*D6
 10
4229.99998564875
 20
317.403415746121
 30
0.0
 11
4082.14883096716
 21
119.9999823322287
 31
0.0
 12
-11340.00001435124
 22
-11452.59658425388
 32
0.0
 70
   128
 71
     5
 42
-1.0
  3
STANDARD
100
AcDbAlignedDimension
 13
2928.74998564875
 23
352.4034157461247
 33
0.0
 14
2919.99998564875
 24
317.403415746121
 34
0.0
 50
90.0
100
AcDbRotatedDimension
1001
ACAD
1000
DSTYLE
1002
{
1070
   287
1070
     5
1070
   287
1070
     5
1070
   287
1070
     5
1070
   287
1070
     5
1070
   287
1070
     5
1070
   287
1070
     5
1070
   287
1070
     5
1070
   287
1070
     5
1070
    40
1040
60.0
1070
    41
1040
1.5
1070
    42
1040
2.0
1070
    43
1040
3.75
1070
    44
1040
1.0
1070
    73
1070
     0
1070
    74
1070
     0
1070
    77
1070
     1
1070
    78
1070
     8
1070
   140
1040
3.0
1070
   141
1040
2.5
1070
   143
1040
0.0394
1070
   147
1040
1.0
1070
   171
1070
     4
1070
   271
1070
     0
1070
   273
1070
     8
1070
   274
1070
     4
1070
   279
1070
     2
1002
}
  0
LINE
  5
C9
330
C3
100
AcDbEntity
  8
SUNPOU
100
AcDbLine
 10
1679.999985648763
 20
3227.403415746123
 30
0.0
 11
899.9999856487611
 21
3227.403415746123
 31
0.0
1001
ACAD
1000
DSTYLE
1002
{
1070
    78
1070
     8
1070
   284
1070
     8
1070
   140
1040
3.0
1070
   145
1040
1.0
1070
    74
1070
     0
1070
   172
1070
     1
1070
    73
1070
     0
1070
    77
1070
     1
1070
    40
1040
60.0
1070
   147
1040
0.8
1070
   287
1070
     5
1070
    42
1040
1.5
1070
    44
1040
0.6
1070
    43
1040
7.0
1070
   271
1070
     0
1070
   177
1070
   256
1070
   176
1070
   256
1070
   141
1040
0.0
1070
   275
1070
     1
1070
    41
1040
1.5
1070
   285
1070
     8
1070
   286
1070
     8
1002
}
  0
SOLID
  5
CA
330
C3
100
AcDbEntity
  8
SUNPOU
100
AcDbTrace
 10
1216.999985648774
 20
1372.403415746125
 30
0.0
 11
1306.999985648774
 21
1357.403415746123
 31
0.0
 12
1216.999985648774
 22
1342.403415746125
 32
0.0
 13
1216.999985648774
 23
1342.403415746125
 33
0.0
1001
ACAD
1000
DSTYLE
1002
{
1070
    78
1070
     8
1070
   284
1070
     8
1070
   140
1040
3.0
1070
   145
1040
1.0
1070
    74
1070
     0
1070
   172
1070
     1
1070
    73
1070
     0
1070
    77
1070
     1
1070
    40
1040
60.0
1070
   147
1040
0.8
1070
   287
1070
     5
1070
    42
1040
1.5
1070
    44
1040
0.6
1070
    43
1040
7.0
1070
   271
1070
     0
1070
   177
1070
   256
1070
   176
1070
   256
1070
   141
1040
0.0
1070
   275
1070
     1
1070
    41
1040
1.5
1070
   285
1070
     8
1070
   286
1070
     8
1002
}
  0
LINE
  5
CB
330
C3
100
AcDbEntity
  8
SUNPOU
100
AcDbLine
 10
329.9999856487375
 20
1357.403415746123
 30
0.0
 11
1426.999985648756
 21
1357.403415746126
 31
0.0
1001
ACAD
1000
DSTYLE
1002
{
1070
    78
1070
     8
1070
   284
1070
     8
1070
   140
1040
3.0
1070
   145
1040
1.0
1070
    74
1070
     0
1070
   172
1070
     1
1070
    73
1070
     0
1070
    77
1070
     1
1070
    40
1040
60.0
1070
   147
1040
0.8
1070
   287
1070
     5
1070
    42
1040
1.5
1070
    44
1040
0.6
1070
    43
1040
7.0
1070
   271
1070
     0
1070
   177
1070
   256
1070
   176
1070
   256
1070
   141
1040
0.0
1070
   275
1070
     1
1070
    41
1040
1.5
1070
   285
1070
     8
1070
   286
1070
     8
1002
}
  0
LINE
  5
CC
330
C3
100
AcDbEntity
  8
HAIKIN
100
AcDbLine
 10
1979.999985648756
 20
2052.403415746123
 30
0.0
 11
964.9999856487557
 21
2052.403415746117
 31
0.0
  0
LINE
  5
CD
330
C3
100
AcDbEntity
  8
HAIKIN
100
AcDbLine
 10
1979.999985648765
 20
1992.403415746121
 30
0.0
 11
964.9999856487557
 21
1992.403415746117
 31
0.0
  0
LINE
  5
CE
330
C3
100
AcDbEntity
  8
HAIKIN
100
AcDbLine
 10
1979.999985648765
 20
1932.403415746121
 30
0.0
 11
964.9999856487557
 21
1932.403415746117
 31
0.0
  0
LINE
  5
CF
330
C3
100
AcDbEntity
  8
HAIKIN
100
AcDbLine
 10
1979.999985648765
 20
847.4034157461283
 30
0.0
 11
964.9999856487557
 21
847.4034157461247
 31
0.0
  0
LINE
  5
D0
330
C3
100
AcDbEntity
  8
HAIKIN
100
AcDbLine
 10
1979.999985648765
 20
787.4034157461283
 30
0.0
 11
964.9999856487557
 21
787.4034157461247
 31
0.0
  0
LINE
  5
D1
330
C3
100
AcDbEntity
  8
HAIKIN
100
AcDbLine
 10
1979.999985648758
 20
727.4034157461283
 30
0.0
 11
964.9999856487557
 21
727.4034157461247
 31
0.0
  0
LINE
  5
D2
330
C3
100
AcDbEntity
  8
SUNPOU
100
AcDbLine
 10
964.9999856487557
 20
1897.403415746125
 30
0.0
 11
1486.999985648752
 21
1897.403415746121
 31
0.0
  0
LINE
  5
D3
330
C3
100
AcDbEntity
  8
SUNPOU
100
AcDbLine
 10
964.9999856487557
 20
1657.403415746125
 30
0.0
 11
1486.999985648752
 21
1657.403415746121
 31
0.0
  0
LINE
  5
D4
330
C3
100
AcDbEntity
  8
SUNPOU
100
AcDbLine
 10
964.9999856487557
 20
1777.403415746125
 30
0.0
 11
1486.999985648752
 21
1777.403415746123
 31
0.0
  0
LINE
  5
D5
330
C3
100
AcDbEntity
  8
SUNPOU
100
AcDbLine
 10
964.9999856487557
 20
457.4034157461247
 30
0.0
 11
1979.999985648759
 21
457.403415746121
 31
0.0
  0
LINE
  5
D6
330
C3
100
AcDbEntity
  8
SUNPOU
100
AcDbLine
 10
964.9999856487557
 20
817.4034157461247
 30
0.0
 11
1979.999985648759
 21
817.403415746121
 31
0.0
  0
LINE
  5
D7
330
C3
100
AcDbEntity
  8
SUNPOU
100
AcDbLine
 10
964.9999856487557
 20
697.4034157461247
 30
0.0
 11
1979.999985648759
 21
697.403415746121
 31
0.0
  0
LINE
  5
D8
330
C3
100
AcDbEntity
  8
SUNPOU
100
AcDbLine
 10
964.9999856487557
 20
577.4034157461247
 30
0.0
 11
1979.999985648759
 21
577.403415746121
 31
0.0
  0
LINE
  5
D9
330
C3
100
AcDbEntity
  8
SUNPOU
100
AcDbLine
 10
964.9999856487557
 20
937.4034157461247
 30
0.0
 11
1486.999985648752
 21
937.403415746121
 31
0.0
  0
LINE
  5
DA
330
C3
100
AcDbEntity
  8
SUNPOU
100
AcDbLine
 10
964.9999856487557
 20
1057.403415746125
 30
0.0
 11
1486.999985648752
 21
1057.403415746119
 31
0.0
  0
LINE
  5
DB
330
C3
100
AcDbEntity
  8
SUNPOU
100
AcDbLine
 10
964.9999856487557
 20
1177.403415746125
 30
0.0
 11
1486.999985648752
 21
1177.403415746117
 31
0.0
  0
LINE
  5
DC
330
C3
100
AcDbEntity
  8
SUNPOU
100
AcDbLine
 10
964.9999856487557
 20
1297.403415746125
 30
0.0
 11
1486.999985648752
 21
1297.403415746121
 31
0.0
  0
LINE
  5
DD
330
C3
100
AcDbEntity
  8
SUNPOU
100
AcDbLine
 10
964.9999856487557
 20
1417.403415746125
 30
0.0
 11
1486.999985648752
 21
1417.403415746119
 31
0.0
  0
LINE
  5
DE
330
C3
100
AcDbEntity
  8
SUNPOU
100
AcDbLine
 10
964.9999856487557
 20
1537.403415746125
 30
0.0
 11
1486.999985648752
 21
1537.403415746121
 31
0.0
  0
LINE
  5
DF
330
C3
100
AcDbEntity
  8
SUNPOU
100
AcDbLine
 10
964.9999856487557
 20
2017.403415746125
 30
0.0
 11
1979.999985648759
 21
2017.403415746121
 31
0.0
  0
LINE
  5
E0
330
C3
100
AcDbEntity
  8
SUNPOU
100
AcDbLine
 10
964.9999856487557
 20
2137.403415746125
 30
0.0
 11
1979.999985648759
 21
2137.403415746121
 31
0.0
  0
LINE
  5
E1
330
C3
100
AcDbEntity
  8
SUNPOU
100
AcDbLine
 10
964.9999856487557
 20
2257.403415746125
 30
0.0
 11
1979.999985648759
 21
2257.403415746121
 31
0.0
  0
LINE
  5
E2
330
C3
100
AcDbEntity
  8
SUNPOU
100
AcDbLine
 10
964.9999856487557
 20
2362.403415746125
 30
0.0
 11
1979.999985648759
 21
2362.403415746121
 31
0.0
  0
TEXT
  5
E3
330
C3
100
AcDbEntity
  8
HAIKIN
 62
     3
100
AcDbText
 10
1009.999985648752
 20
4617.403415746125
 30
0.0
 40
240.0
  1
頂　版
 72
     1
 11
1409.999985648752
 21
4617.403415746125
 31
0.0
100
AcDbText
  0
TEXT
  5
E4
330
C3
100
AcDbEntity
  8
SUNPOU
100
AcDbText
 10
1019.999985648756
 20
4105.403415746121
 30
0.0
 40
210.0
  1
外　側
 11
1019.999985648756
 21
4077.403415746121
 31
0.0
100
AcDbText
 73
     1
  0
LINE
  5
E5
330
C3
100
AcDbEntity
  8
SUNPOU
100
AcDbLine
 10
1019.999985648752
 20
317.4034157461247
 30
0.0
 11
1979.999985648759
 21
317.403415746121
 31
0.0
  0
LINE
  5
E6
330
C3
100
AcDbEntity
  8
SUNPOU
100
AcDbLine
 10
929.999985648752
 20
397.403415746121
 30
0.0
 11
1979.999985648759
 21
397.403415746121
 31
0.0
  0
LINE
  5
E7
330
C3
100
AcDbEntity
  8
SUNPOU
100
AcDbLine
 10
929.999985648752
 20
2397.403415746123
 30
0.0
 11
1979.999985648759
 21
2397.403415746121
 31
0.0
  0
LINE
  5
E8
330
C3
100
AcDbEntity
  8
SUNPOU
100
AcDbLine
 10
1019.999985648756
 20
4077.403415746121
 30
0.0
 11
2939.999985648754
 21
4077.403415746121
 31
0.0
  0
LINE
  5
E9
330
C3
100
AcDbEntity
  8
HAIKIN
 62
     3
100
AcDbLine
 10
1889.999985648752
 20
4887.403415746125
 30
0.0
 11
929.999985648752
 21
4887.403415746125
 31
0.0
  0
LINE
  5
EA
330
C3
100
AcDbEntity
  8
HAIKIN
 62
     3
100
AcDbLine
 10
1889.999985648752
 20
4587.403415746125
 30
0.0
 11
929.999985648752
 21
4587.403415746125
 31
0.0
  0
TEXT
  5
EB
330
C3
100
AcDbEntity
  8
SUNPOU
100
AcDbText
 10
762.4999856487557
 20
2907.403415746125
 30
0.0
 40
150.0
  1
D13
 41
0.8
 11
762.4999856487557
 21
2982.403415746125
 31
0.0
100
AcDbText
 73
     2
  0
TEXT
  5
EC
330
C3
100
AcDbEntity
  8
SUNPOU
100
AcDbText
 10
457.4999856487557
 20
2907.403415746125
 30
0.0
 40
150.0
  1
H1
 41
0.8
 72
     4
 11
537.4999856487557
 21
2982.403415746125
 31
0.0
100
AcDbText
  0
CIRCLE
  5
ED
330
C3
100
AcDbEntity
  8
SUNPOU
100
AcDbCircle
 10
537.4999856487557
 20
2982.403415746125
 30
0.0
 40
165.0
  0
TEXT
  5
EE
330
C3
100
AcDbEntity
  8
SUNPOU
100
AcDbText
 10
239.9999856487393
 20
1437.403415746128
 30
0.0
 40
150.0
  1
H2
 50
90.0
 41
0.8
 72
     4
 11
164.9999856487393
 21
1537.403415746128
 31
0.0
100
AcDbText
  0
LINE
  5
EF
330
C3
100
AcDbEntity
  8
SUNPOU
100
AcDbLine
 10
1137.499985648754
 20
727.4034157461247
 30
0.0
 11
1137.499985648756
 21
2817.403415746125
 31
0.0
1001
ACAD
1000
DSTYLE
1002
{
1070
    78
1070
     8
1070
   284
1070
     8
1070
   140
1040
3.0
1070
   145
1040
1.0
1070
    74
1070
     0
1070
   172
1070
     1
1070
    73
1070
     0
1070
    77
1070
     1
1070
    40
1040
60.0
1070
   147
1040
0.8
1070
   287
1070
     5
1070
    42
1040
1.5
1070
    44
1040
0.6
1070
    43
1040
7.0
1070
   271
1070
     0
1070
   177
1070
   256
1070
   176
1070
   256
1070
   141
1040
0.0
1070
   275
1070
     1
1070
    41
1040
1.5
1070
   285
1070
     8
1070
   286
1070
     8
1002
}
  0
LINE
  5
F0
330
C3
100
AcDbEntity
  8
SUNPOU
100
AcDbLine
 10
1044.999985648752
 20
2362.403415746125
 30
0.0
 11
1044.999985648756
 21
457.4034157461265
 31
0.0
  0
LINE
  5
F1
330
C3
100
AcDbEntity
  8
SUNPOU
100
AcDbLine
 10
1229.999985648759
 20
2362.403415746123
 30
0.0
 11
1229.999985648763
 21
457.4034157461228
 31
0.0
  0
LINE
  5
F2
330
C3
100
AcDbEntity
  8
SUNPOU
100
AcDbLine
 10
329.9999856487393
 20
2137.403415746126
 30
0.0
 11
329.9999856487393
 21
1357.403415746128
 31
0.0
1001
ACAD
1000
DSTYLE
1002
{
1070
    78
1070
     8
1070
   284
1070
     8
1070
   140
1040
3.0
1070
   145
1040
1.0
1070
    74
1070
     0
1070
   172
1070
     1
1070
    73
1070
     0
1070
    77
1070
     1
1070
    40
1040
60.0
1070
   147
1040
0.8
1070
   287
1070
     5
1070
    42
1040
1.5
1070
    44
1040
0.6
1070
    43
1040
7.0
1070
   271
1070
     0
1070
   177
1070
   256
1070
   176
1070
   256
1070
   141
1040
0.0
1070
   275
1070
     1
1070
    41
1040
1.5
1070
   285
1070
     8
1070
   286
1070
     8
1002
}
  0
CIRCLE
  5
F3
330
C3
100
AcDbEntity
  8
SUNPOU
100
AcDbCircle
 10
164.9999856487393
 20
1537.403415746128
 30
0.0
 40
165.0
  0
LINE
  5
F4
330
C3
100
AcDbEntity
  8
SUNPOU
100
AcDbLine
 10
929.999985648752
 20
2397.403415746126
 30
0.0
 11
929.999985648752
 21
397.4034157461247
 31
0.0
  0
LINE
  5
F5
330
C3
100
AcDbEntity
  8
SUNPOU
100
AcDbLine
 10
999.999985648752
 20
397.4034157461247
 30
0.0
 11
1019.999985648752
 21
317.4034157461301
 31
0.0
  0
SOLID
  5
F6
330
C3
100
AcDbEntity
  8
SUNPOU
100
AcDbTrace
 10
1152.499985648758
 20
937.4034157461138
 30
0.0
 11
1137.499985648758
 21
847.4034157461138
 31
0.0
 12
1122.499985648756
 22
937.4034157461138
 32
0.0
 13
1122.499985648756
 23
937.4034157461138
 33
0.0
1001
ACAD
1000
DSTYLE
1002
{
1070
    78
1070
     8
1070
   284
1070
     8
1070
   140
1040
3.0
1070
   145
1040
1.0
1070
    74
1070
     0
1070
   172
1070
     1
1070
    73
1070
     0
1070
    77
1070
     1
1070
    40
1040
60.0
1070
   147
1040
0.8
1070
   287
1070
     5
1070
    42
1040
1.5
1070
    44
1040
0.6
1070
    43
1040
7.0
1070
   271
1070
     0
1070
   177
1070
   256
1070
   176
1070
   256
1070
   141
1040
0.0
1070
   275
1070
     1
1070
    41
1040
1.5
1070
   285
1070
     8
1070
   286
1070
     8
1002
}
  0
SOLID
  5
F7
330
C3
100
AcDbEntity
  8
SUNPOU
100
AcDbTrace
 10
1152.499985648758
 20
817.4034157461356
 30
0.0
 11
1137.499985648758
 21
727.4034157461356
 31
0.0
 12
1122.499985648756
 22
817.4034157461356
 32
0.0
 13
1122.499985648756
 23
817.4034157461356
 33
0.0
1001
ACAD
1000
DSTYLE
1002
{
1070
    78
1070
     8
1070
   284
1070
     8
1070
   140
1040
3.0
1070
   145
1040
1.0
1070
    74
1070
     0
1070
   172
1070
     1
1070
    73
1070
     0
1070
    77
1070
     1
1070
    40
1040
60.0
1070
   147
1040
0.8
1070
   287
1070
     5
1070
    42
1040
1.5
1070
    44
1040
0.6
1070
    43
1040
7.0
1070
   271
1070
     0
1070
   177
1070
   256
1070
   176
1070
   256
1070
   141
1040
0.0
1070
   275
1070
     1
1070
    41
1040
1.5
1070
   285
1070
     8
1070
   286
1070
     8
1002
}
  0
SOLID
  5
F8
330
C3
100
AcDbEntity
  8
SUNPOU
100
AcDbTrace
 10
1152.499985648754
 20
877.4034157461301
 30
0.0
 11
1137.499985648754
 21
787.4034157461301
 31
0.0
 12
1122.499985648752
 22
877.4034157461301
 32
0.0
 13
1122.499985648752
 23
877.4034157461301
 33
0.0
1001
ACAD
1000
DSTYLE
1002
{
1070
    78
1070
     8
1070
   284
1070
     8
1070
   140
1040
3.0
1070
   145
1040
1.0
1070
    74
1070
     0
1070
   172
1070
     1
1070
    73
1070
     0
1070
    77
1070
     1
1070
    40
1040
60.0
1070
   147
1040
0.8
1070
   287
1070
     5
1070
    42
1040
1.5
1070
    44
1040
0.6
1070
    43
1040
7.0
1070
   271
1070
     0
1070
   177
1070
   256
1070
   176
1070
   256
1070
   141
1040
0.0
1070
   275
1070
     1
1070
    41
1040
1.5
1070
   285
1070
     8
1070
   286
1070
     8
1002
}
  0
TEXT
  5
F9
330
C3
100
AcDbEntity
  8
SUNPOU
100
AcDbText
 10
239.9999856487393
 20
1762.40341574613
 30
0.0
 40
150.0
  1
D13
 50
90.0
 41
0.8
 11
164.9999856487393
 21
1762.40341574613
 31
0.0
100
AcDbText
 73
     2
  0
SOLID
  5
FA
330
C3
100
AcDbEntity
  8
SUNPOU
100
AcDbTrace
 10
1152.499985648756
 20
2022.403415746117
 30
0.0
 11
1137.499985648756
 21
1932.403415746117
 31
0.0
 12
1122.499985648756
 22
2022.403415746117
 32
0.0
 13
1122.499985648756
 23
2022.403415746117
 33
0.0
1001
ACAD
1000
DSTYLE
1002
{
1070
    78
1070
     8
1070
   284
1070
     8
1070
   140
1040
3.0
1070
   145
1040
1.0
1070
    74
1070
     0
1070
   172
1070
     1
1070
    73
1070
     0
1070
    77
1070
     1
1070
    40
1040
60.0
1070
   147
1040
0.8
1070
   287
1070
     5
1070
    42
1040
1.5
1070
    44
1040
0.6
1070
    43
1040
7.0
1070
   271
1070
     0
1070
   177
1070
   256
1070
   176
1070
   256
1070
   141
1040
0.0
1070
   275
1070
     1
1070
    41
1040
1.5
1070
   285
1070
     8
1070
   286
1070
     8
1002
}
  0
SOLID
  5
FB
330
C3
100
AcDbEntity
  8
SUNPOU
100
AcDbTrace
 10
1152.499985648756
 20
2082.403415746117
 30
0.0
 11
1137.499985648756
 21
1992.403415746117
 31
0.0
 12
1122.499985648756
 22
2082.403415746117
 32
0.0
 13
1122.499985648756
 23
2082.403415746117
 33
0.0
1001
ACAD
1000
DSTYLE
1002
{
1070
    78
1070
     8
1070
   284
1070
     8
1070
   140
1040
3.0
1070
   145
1040
1.0
1070
    74
1070
     0
1070
   172
1070
     1
1070
    73
1070
     0
1070
    77
1070
     1
1070
    40
1040
60.0
1070
   147
1040
0.8
1070
   287
1070
     5
1070
    42
1040
1.5
1070
    44
1040
0.6
1070
    43
1040
7.0
1070
   271
1070
     0
1070
   177
1070
   256
1070
   176
1070
   256
1070
   141
1040
0.0
1070
   275
1070
     1
1070
    41
1040
1.5
1070
   285
1070
     8
1070
   286
1070
     8
1002
}
  0
SOLID
  5
FC
330
C3
100
AcDbEntity
  8
SUNPOU
100
AcDbTrace
 10
1152.499985648756
 20
2142.403415746119
 30
0.0
 11
1137.499985648756
 21
2052.403415746119
 31
0.0
 12
1122.499985648756
 22
2142.403415746119
 32
0.0
 13
1122.499985648756
 23
2142.403415746119
 33
0.0
1001
ACAD
1000
DSTYLE
1002
{
1070
    78
1070
     8
1070
   284
1070
     8
1070
   140
1040
3.0
1070
   145
1040
1.0
1070
    74
1070
     0
1070
   172
1070
     1
1070
    73
1070
     0
1070
    77
1070
     1
1070
    40
1040
60.0
1070
   147
1040
0.8
1070
   287
1070
     5
1070
    42
1040
1.5
1070
    44
1040
0.6
1070
    43
1040
7.0
1070
   271
1070
     0
1070
   177
1070
   256
1070
   176
1070
   256
1070
   141
1040
0.0
1070
   275
1070
     1
1070
    41
1040
1.5
1070
   285
1070
     8
1070
   286
1070
     8
1002
}
  0
LINE
  5
FD
330
C3
100
AcDbEntity
  8
SUNPOU
100
AcDbLine
 10
1137.499985648756
 20
2817.403415746125
 30
0.0
 11
357.4999856487557
 21
2817.403415746125
 31
0.0
1001
ACAD
1000
DSTYLE
1002
{
1070
    78
1070
     8
1070
   284
1070
     8
1070
   140
1040
3.0
1070
   145
1040
1.0
1070
    74
1070
     0
1070
   172
1070
     1
1070
    73
1070
     0
1070
    77
1070
     1
1070
    40
1040
60.0
1070
   147
1040
0.8
1070
   287
1070
     5
1070
    42
1040
1.5
1070
    44
1040
0.6
1070
    43
1040
7.0
1070
   271
1070
     0
1070
   177
1070
   256
1070
   176
1070
   256
1070
   141
1040
0.0
1070
   275
1070
     1
1070
    41
1040
1.5
1070
   285
1070
     8
1070
   286
1070
     8
1002
}
  0
TEXT
  5
FE
330
C3
100
AcDbEntity
  8
SUNPOU
100
AcDbText
 10
979.9999856487611
 20
3317.403415746123
 30
0.0
 40
150.0
  1
H3
 41
0.8
 72
     4
 11
1079.999985648761
 21
3392.403415746123
 31
0.0
100
AcDbText
  0
CIRCLE
  5
FF
330
C3
100
AcDbEntity
  8
SUNPOU
100
AcDbCircle
 10
1079.999985648761
 20
3392.403415746123
 30
0.0
 40
165.0
  0
LINE
  5
100
330
C3
100
AcDbEntity
  8
HAIKIN
 62
     3
100
AcDbLine
 10
929.999985648752
 20
4587.403415746125
 30
0.0
 11
929.999985648752
 21
4887.403415746125
 31
0.0
  0
TEXT
  5
101
330
C3
100
AcDbEntity
  8
SUNPOU
100
AcDbText
 10
3194.999985648759
 20
2907.403415746125
 30
0.0
 40
150.0
  1
D13
 41
0.8
 11
3194.999985648759
 21
2982.403415746125
 31
0.0
100
AcDbText
 73
     2
  0
TEXT
  5
102
330
C3
100
AcDbEntity
  8
SUNPOU
100
AcDbText
 10
2889.999985648759
 20
2907.403415746125
 30
0.0
 40
150.0
  1
H1
 41
0.8
 72
     4
 11
2969.999985648759
 21
2982.403415746125
 31
0.0
100
AcDbText
  0
LINE
  5
103
330
C3
100
AcDbEntity
  8
SUNPOU
100
AcDbLine
 10
1679.999985648761
 20
1890.403415746132
 30
0.0
 11
1679.999985648763
 21
3227.403415746123
 31
0.0
1001
ACAD
1000
DSTYLE
1002
{
1070
    78
1070
     8
1070
   284
1070
     8
1070
   140
1040
3.0
1070
   145
1040
1.0
1070
    74
1070
     0
1070
   172
1070
     1
1070
    73
1070
     0
1070
    77
1070
     1
1070
    40
1040
60.0
1070
   147
1040
0.8
1070
   287
1070
     5
1070
    42
1040
1.5
1070
    44
1040
0.6
1070
    43
1040
7.0
1070
   271
1070
     0
1070
   177
1070
   256
1070
   176
1070
   256
1070
   141
1040
0.0
1070
   275
1070
     1
1070
    41
1040
1.5
1070
   285
1070
     8
1070
   286
1070
     8
1002
}
  0
LINE
  5
104
330
C3
100
AcDbEntity
  8
SUNPOU
100
AcDbLine
 10
2279.999985648761
 20
1827.403415746126
 30
0.0
 11
2279.999985648759
 21
3227.403415746123
 31
0.0
1001
ACAD
1000
DSTYLE
1002
{
1070
    78
1070
     8
1070
   284
1070
     8
1070
   140
1040
3.0
1070
   145
1040
1.0
1070
    74
1070
     0
1070
   172
1070
     1
1070
    73
1070
     0
1070
    77
1070
     1
1070
    40
1040
60.0
1070
   147
1040
0.8
1070
   287
1070
     5
1070
    42
1040
1.5
1070
    44
1040
0.6
1070
    43
1040
7.0
1070
   271
1070
     0
1070
   177
1070
   256
1070
   176
1070
   256
1070
   141
1040
0.0
1070
   275
1070
     1
1070
    41
1040
1.5
1070
   285
1070
     8
1070
   286
1070
     8
1002
}
  0
CIRCLE
  5
105
330
C3
100
AcDbEntity
  8
SUNPOU
100
AcDbCircle
 10
2969.999985648759
 20
2982.403415746125
 30
0.0
 40
165.0
  0
LINE
  5
106
330
C3
100
AcDbEntity
  8
1HASEN
100
AcDbLine
 10
1979.999985648754
 20
4077.403415746121
 30
0.0
 11
1979.999985648759
 21
17.40341574611921
 31
0.0
  0
TEXT
  5
107
330
C3
100
AcDbEntity
  8
SUNPOU
100
AcDbText
 10
3359.999985648745
 20
1762.403415746126
 30
0.0
 40
150.0
  1
D13
 50
90.0
 41
0.8
 11
3284.999985648745
 21
1762.403415746126
 31
0.0
100
AcDbText
 73
     2
  0
TEXT
  5
108
330
C3
100
AcDbEntity
  8
SUNPOU
100
AcDbText
 10
3359.999985648745
 20
1437.403415746125
 30
0.0
 40
150.0
  1
H2
 50
90.0
 41
0.8
 72
     4
 11
3284.999985648745
 21
1537.403415746125
 31
0.0
100
AcDbText
  0
LINE
  5
109
330
C3
100
AcDbEntity
  8
SUNPOU
100
AcDbLine
 10
2789.999985648759
 20
2817.403415746125
 30
0.0
 11
3569.999985648759
 21
2817.403415746125
 31
0.0
1001
ACAD
1000
DSTYLE
1002
{
1070
    78
1070
     8
1070
   284
1070
     8
1070
   140
1040
3.0
1070
   145
1040
1.0
1070
    74
1070
     0
1070
   172
1070
     1
1070
    73
1070
     0
1070
    77
1070
     1
1070
    40
1040
60.0
1070
   147
1040
0.8
1070
   287
1070
     5
1070
    42
1040
1.5
1070
    44
1040
0.6
1070
    43
1040
7.0
1070
   271
1070
     0
1070
   177
1070
   256
1070
   176
1070
   256
1070
   141
1040
0.0
1070
   275
1070
     1
1070
    41
1040
1.5
1070
   285
1070
     8
1070
   286
1070
     8
1002
}
  0
LINE
  5
10A
330
C3
100
AcDbEntity
  8
SUNPOU
100
AcDbLine
 10
2429.999985648759
 20
1357.403415746125
 30
0.0
 11
3449.999985648745
 21
1357.403415746123
 31
0.0
1001
ACAD
1000
DSTYLE
1002
{
1070
    78
1070
     8
1070
   284
1070
     8
1070
   140
1040
3.0
1070
   145
1040
1.0
1070
    74
1070
     0
1070
   172
1070
     1
1070
    73
1070
     0
1070
    77
1070
     1
1070
    40
1040
60.0
1070
   147
1040
0.8
1070
   287
1070
     5
1070
    42
1040
1.5
1070
    44
1040
0.6
1070
    43
1040
7.0
1070
   271
1070
     0
1070
   177
1070
   256
1070
   176
1070
   256
1070
   141
1040
0.0
1070
   275
1070
     1
1070
    41
1040
1.5
1070
   285
1070
     8
1070
   286
1070
     8
1002
}
  0
CIRCLE
  5
10B
330
C3
100
AcDbEntity
  8
SUNPOU
100
AcDbCircle
 10
3284.999985648745
 20
1537.403415746125
 30
0.0
 40
165.0
  0
LINE
  5
10C
330
C3
100
AcDbEntity
  8
HAIKIN
100
AcDbLine
 10
1486.99998564875
 20
939.4034157461192
 30
0.0
 11
1486.99998564875
 21
1855.403415746132
 31
0.0
  0
LINE
  5
10D
330
C3
100
AcDbEntity
  8
HAIKIN
100
AcDbLine
 10
2409.999985648758
 20
1792.403415746126
 30
0.0
 11
2409.999985648759
 21
1002.403415746126
 31
0.0
  0
LINE
  5
10E
330
C3
100
AcDbEntity
  8
SUNPOU
100
AcDbLine
 10
2789.999985648759
 20
787.4034157461319
 30
0.0
 11
2789.999985648759
 21
2817.403415746125
 31
0.0
1001
ACAD
1000
DSTYLE
1002
{
1070
    78
1070
     8
1070
   284
1070
     8
1070
   140
1040
3.0
1070
   145
1040
1.0
1070
    74
1070
     0
1070
   172
1070
     1
1070
    73
1070
     0
1070
    77
1070
     1
1070
    40
1040
60.0
1070
   147
1040
0.8
1070
   287
1070
     5
1070
    42
1040
1.5
1070
    44
1040
0.6
1070
    43
1040
7.0
1070
   271
1070
     0
1070
   177
1070
   256
1070
   176
1070
   256
1070
   141
1040
0.0
1070
   275
1070
     1
1070
    41
1040
1.5
1070
   285
1070
     8
1070
   286
1070
     8
1002
}
  0
LINE
  5
10F
330
C3
100
AcDbEntity
  8
HAIKIN
100
AcDbLine
 10
2469.999985648758
 20
352.4034157461247
 30
0.0
 11
2469.999985648758
 21
2257.403415746121
 31
0.0
  0
LINE
  5
110
330
C3
100
AcDbEntity
  8
HAIKIN
100
AcDbLine
 10
2529.999985648759
 20
352.4034157461247
 30
0.0
 11
2529.999985648759
 21
2257.403415746121
 31
0.0
  0
LINE
  5
111
330
C3
100
AcDbEntity
  8
HAIKIN
100
AcDbLine
 10
2589.999985648761
 20
352.4034157461247
 30
0.0
 11
2589.999985648758
 21
2257.403415746121
 31
0.0
  0
LINE
  5
112
330
C3
100
AcDbEntity
  8
HAIKIN
100
AcDbLine
 10
1426.999985648754
 20
457.4034157461228
 30
0.0
 11
1426.999985648752
 21
2362.403415746123
 31
0.0
  0
LINE
  5
113
330
C3
100
AcDbEntity
  8
HAIKIN
100
AcDbLine
 10
1366.999985648756
 20
457.4034157461228
 30
0.0
 11
1366.999985648748
 21
2362.403415746123
 31
0.0
  0
LINE
  5
114
330
C3
100
AcDbEntity
  8
HAIKIN
100
AcDbLine
 10
1306.999985648754
 20
457.4034157461228
 30
0.0
 11
1306.999985648748
 21
2362.403415746123
 31
0.0
  0
LINE
  5
115
330
C3
100
AcDbEntity
  8
SUNPOU
100
AcDbLine
 10
2914.99998564875
 20
2257.403415746121
 30
0.0
 11
2914.99998564875
 21
352.4034157461265
 31
0.0
  0
LINE
  5
116
330
C3
100
AcDbEntity
  8
SUNPOU
100
AcDbLine
 10
2729.999985648759
 20
2257.403415746121
 30
0.0
 11
2729.999985648759
 21
352.4034157461228
 31
0.0
  0
LINE
  5
117
330
C3
100
AcDbEntity
  8
SUNPOU
100
AcDbLine
 10
2429.999985648759
 20
2257.403415746121
 30
0.0
 11
2429.999985648758
 21
352.403415746121
 31
0.0
  0
LINE
  5
118
330
C3
100
AcDbEntity
  8
SUNPOU
100
AcDbLine
 10
2379.999985648758
 20
1797.403415746126
 30
0.0
 11
2379.999985648758
 21
997.4034157461265
 31
0.0
  0
LINE
  5
119
330
C3
100
AcDbEntity
  8
SUNPOU
100
AcDbLine
 10
3029.99998564875
 20
2397.403415746121
 30
0.0
 11
3029.99998564875
 21
397.403415746121
 31
0.0
  0
LINE
  5
11A
330
C3
100
AcDbEntity
  8
SUNPOU
100
AcDbLine
 10
1516.999985648752
 20
934.403415746121
 30
0.0
 11
1516.999985648752
 21
1860.403415746126
 31
0.0
  0
LINE
  5
11B
330
C3
100
AcDbEntity
  8
SUNPOU
100
AcDbLine
 10
1579.999985648756
 20
1797.403415746126
 30
0.0
 11
1579.999985648758
 21
997.4034157461265
 31
0.0
  0
LINE
  5
11C
330
C3
100
AcDbEntity
  8
HAIKIN
100
AcDbLine
 10
2374.999985648759
 20
967.4034157461265
 30
0.0
 11
1979.999985648752
 21
967.4034157461265
 31
0.0
  0
LINE
  5
11D
330
C3
100
AcDbEntity
  8
HAIKIN
100
AcDbLine
 10
2994.999985648774
 20
787.4034157461319
 30
0.0
 11
1979.999985648759
 21
787.4034157461283
 31
0.0
  0
LINE
  5
11E
330
C3
100
AcDbEntity
  8
HAIKIN
100
AcDbLine
 10
2994.999985648774
 20
847.4034157461319
 30
0.0
 11
1979.999985648758
 21
847.4034157461283
 31
0.0
  0
LINE
  5
11F
330
C3
100
AcDbEntity
  8
HAIKIN
100
AcDbLine
 10
2994.999985648774
 20
907.4034157461319
 30
0.0
 11
1979.999985648759
 21
907.4034157461283
 31
0.0
  0
LINE
  5
120
330
C3
100
AcDbEntity
  8
SUNPOU
100
AcDbLine
 10
2914.99998564875
 20
352.4034157461265
 30
0.0
 11
1979.999985648759
 21
352.403415746121
 31
0.0
  0
LINE
  5
121
330
C3
100
AcDbEntity
  8
SUNPOU
100
AcDbLine
 10
2994.999985648774
 20
457.4034157461247
 30
0.0
 11
1979.999985648759
 21
457.403415746121
 31
0.0
  0
LINE
  5
122
330
C3
100
AcDbEntity
  8
SUNPOU
100
AcDbLine
 10
2994.999985648774
 20
937.4034157461247
 30
0.0
 11
1979.999985648759
 21
937.403415746121
 31
0.0
  0
LINE
  5
123
330
C3
100
AcDbEntity
  8
SUNPOU
100
AcDbLine
 10
2994.999985648774
 20
817.4034157461247
 30
0.0
 11
1979.999985648759
 21
817.403415746121
 31
0.0
  0
LINE
  5
124
330
C3
100
AcDbEntity
  8
SUNPOU
100
AcDbLine
 10
2994.999985648774
 20
697.4034157461247
 30
0.0
 11
1979.999985648759
 21
697.403415746121
 31
0.0
  0
LINE
  5
125
330
C3
100
AcDbEntity
  8
SUNPOU
100
AcDbLine
 10
2994.999985648774
 20
577.4034157461247
 30
0.0
 11
1979.999985648759
 21
577.403415746121
 31
0.0
  0
LINE
  5
126
330
C3
100
AcDbEntity
  8
SUNPOU
100
AcDbLine
 10
2939.99998564875
 20
317.4034157461247
 30
0.0
 11
1963.628976814191
 21
317.403415746121
 31
0.0
  0
LINE
  5
127
330
C3
100
AcDbEntity
  8
1HASEN
100
AcDbLine
 10
1379.999985648756
 20
1397.403415746126
 30
0.0
 11
2579.999985648758
 21
1397.403415746126
 31
0.0
  0
LINE
  5
128
330
C3
100
AcDbEntity
  8
SUNPOU
100
AcDbLine
 10
2379.999985648758
 20
997.4034157461265
 30
0.0
 11
1579.999985648758
 21
997.4034157461265
 31
0.0
  0
ARC
  5
129
330
C3
100
AcDbEntity
  8
HAIKIN
100
AcDbCircle
 10
1521.99998564875
 20
939.4034157461192
 30
0.0
 40
35.0
100
AcDbArc
 50
180.0
 51
270.0
  0
LINE
  5
12A
330
C3
100
AcDbEntity
  8
SUNPOU
100
AcDbLine
 10
2129.999985648758
 20
967.4034157461283
 30
0.0
 11
2129.999985648759
 21
352.4034157461192
 31
0.0
  0
LINE
  5
12B
330
C3
100
AcDbEntity
  8
HAIKIN
100
AcDbLine
 10
1521.99998564875
 20
904.4034157461192
 30
0.0
 11
1979.999985648758
 21
904.4034157461228
 31
0.0
  0
LINE
  5
12C
330
C3
100
AcDbEntity
  8
SUNPOU
100
AcDbLine
 10
1516.999985648752
 20
934.403415746121
 30
0.0
 11
1979.999985648758
 21
934.4034157461228
 31
0.0
  0
LINE
  5
12D
330
C3
100
AcDbEntity
  8
SUNPOU
100
AcDbLine
 10
1529.999985648765
 20
904.403415746121
 30
0.0
 11
1529.999985648767
 21
457.4034157461247
 31
0.0
  0
LINE
  5
12E
330
C3
100
AcDbEntity
  8
SUNPOU
100
AcDbLine
 10
1829.999985648759
 20
904.4034157461228
 30
0.0
 11
1829.999985648759
 21
457.4034157461192
 31
0.0
  0
SOLID
  5
12F
330
C3
100
AcDbEntity
  8
SUNPOU
100
AcDbTrace
 10
1276.999985648759
 20
1372.403415746128
 30
0.0
 11
1366.999985648759
 21
1357.403415746128
 31
0.0
 12
1276.999985648759
 22
1342.403415746128
 32
0.0
 13
1276.999985648759
 23
1342.403415746128
 33
0.0
1001
ACAD
1000
DSTYLE
1002
{
1070
    78
1070
     8
1070
   284
1070
     8
1070
   140
1040
3.0
1070
   145
1040
1.0
1070
    74
1070
     0
1070
   172
1070
     1
1070
    73
1070
     0
1070
    77
1070
     1
1070
    40
1040
60.0
1070
   147
1040
0.8
1070
   287
1070
     5
1070
    42
1040
1.5
1070
    44
1040
0.6
1070
    43
1040
7.0
1070
   271
1070
     0
1070
   177
1070
   256
1070
   176
1070
   256
1070
   141
1040
0.0
1070
   275
1070
     1
1070
    41
1040
1.5
1070
   285
1070
     8
1070
   286
1070
     8
1002
}
  0
SOLID
  5
130
330
C3
100
AcDbEntity
  8
SUNPOU
100
AcDbTrace
 10
1336.99998564877
 20
1372.403415746125
 30
0.0
 11
1426.99998564877
 21
1357.403415746123
 31
0.0
 12
1336.99998564877
 22
1342.403415746125
 32
0.0
 13
1336.99998564877
 23
1342.403415746125
 33
0.0
1001
ACAD
1000
DSTYLE
1002
{
1070
    78
1070
     8
1070
   284
1070
     8
1070
   140
1040
3.0
1070
   145
1040
1.0
1070
    74
1070
     0
1070
   172
1070
     1
1070
    73
1070
     0
1070
    77
1070
     1
1070
    40
1040
60.0
1070
   147
1040
0.8
1070
   287
1070
     5
1070
    42
1040
1.5
1070
    44
1040
0.6
1070
    43
1040
7.0
1070
   271
1070
     0
1070
   177
1070
   256
1070
   176
1070
   256
1070
   141
1040
0.0
1070
   275
1070
     1
1070
    41
1040
1.5
1070
   285
1070
     8
1070
   286
1070
     8
1002
}
  0
SOLID
  5
131
330
C3
100
AcDbEntity
  8
SUNPOU
100
AcDbTrace
 10
2804.999985648759
 20
997.4034157461319
 30
0.0
 11
2789.999985648759
 21
907.4034157461319
 31
0.0
 12
2774.999985648759
 22
997.4034157461319
 32
0.0
 13
2774.999985648759
 23
997.4034157461319
 33
0.0
1001
ACAD
1000
DSTYLE
1002
{
1070
    78
1070
     8
1070
   284
1070
     8
1070
   140
1040
3.0
1070
   145
1040
1.0
1070
    74
1070
     0
1070
   172
1070
     1
1070
    73
1070
     0
1070
    77
1070
     1
1070
    40
1040
60.0
1070
   147
1040
0.8
1070
   287
1070
     5
1070
    42
1040
1.5
1070
    44
1040
0.6
1070
    43
1040
7.0
1070
   271
1070
     0
1070
   177
1070
   256
1070
   176
1070
   256
1070
   141
1040
0.0
1070
   275
1070
     1
1070
    41
1040
1.5
1070
   285
1070
     8
1070
   286
1070
     8
1002
}
  0
LINE
  5
132
330
C3
100
AcDbEntity
  8
HASEN
100
AcDbLine
 10
2994.999985648772
 20
715.4034157461156
 30
0.0
 11
2644.497460331817
 21
715.4034157461119
 31
0.0
  0
LINE
  5
133
330
C3
100
AcDbEntity
  8
HASEN
100
AcDbLine
 10
2994.999985648772
 20
475.4034157461156
 30
0.0
 11
2644.497460331817
 21
475.4034157461119
 31
0.0
  0
LINE
  5
134
330
C3
100
AcDbEntity
  8
SUNPOU
100
AcDbLine
 10
3029.99998564875
 20
397.403415746121
 30
0.0
 11
2959.999985648748
 21
397.403415746121
 31
0.0
  0
LINE
  5
135
330
C3
100
AcDbEntity
  8
SUNPOU
100
AcDbLine
 10
2959.999985648748
 20
397.403415746121
 30
0.0
 11
2939.999985648748
 21
317.4034157461228
 31
0.0
  0
SOLID
  5
136
330
C3
100
AcDbEntity
  8
SUNPOU
100
AcDbTrace
 10
2804.999985648759
 20
937.4034157461319
 30
0.0
 11
2789.999985648759
 21
847.4034157461319
 31
0.0
 12
2774.999985648759
 22
937.4034157461319
 32
0.0
 13
2774.999985648759
 23
937.4034157461319
 33
0.0
1001
ACAD
1000
DSTYLE
1002
{
1070
    78
1070
     8
1070
   284
1070
     8
1070
   140
1040
3.0
1070
   145
1040
1.0
1070
    74
1070
     0
1070
   172
1070
     1
1070
    73
1070
     0
1070
    77
1070
     1
1070
    40
1040
60.0
1070
   147
1040
0.8
1070
   287
1070
     5
1070
    42
1040
1.5
1070
    44
1040
0.6
1070
    43
1040
7.0
1070
   271
1070
     0
1070
   177
1070
   256
1070
   176
1070
   256
1070
   141
1040
0.0
1070
   275
1070
     1
1070
    41
1040
1.5
1070
   285
1070
     8
1070
   286
1070
     8
1002
}
  0
SOLID
  5
137
330
C3
100
AcDbEntity
  8
SUNPOU
100
AcDbTrace
 10
2804.999985648759
 20
877.4034157461319
 30
0.0
 11
2789.999985648759
 21
787.4034157461319
 31
0.0
 12
2774.999985648759
 22
877.4034157461319
 32
0.0
 13
2774.999985648759
 23
877.4034157461319
 33
0.0
1001
ACAD
1000
DSTYLE
1002
{
1070
    78
1070
     8
1070
   284
1070
     8
1070
   140
1040
3.0
1070
   145
1040
1.0
1070
    74
1070
     0
1070
   172
1070
     1
1070
    73
1070
     0
1070
    77
1070
     1
1070
    40
1040
60.0
1070
   147
1040
0.8
1070
   287
1070
     5
1070
    42
1040
1.5
1070
    44
1040
0.6
1070
    43
1040
7.0
1070
   271
1070
     0
1070
   177
1070
   256
1070
   176
1070
   256
1070
   141
1040
0.0
1070
   275
1070
     1
1070
    41
1040
1.5
1070
   285
1070
     8
1070
   286
1070
     8
1002
}
  0
LINE
  5
138
330
C3
100
AcDbEntity
  8
SUNPOU
100
AcDbLine
 10
2994.999985648774
 20
1537.403415746125
 30
0.0
 11
2409.999985648759
 21
1537.403415746121
 31
0.0
  0
LINE
  5
139
330
C3
100
AcDbEntity
  8
SUNPOU
100
AcDbLine
 10
2994.999985648774
 20
1417.403415746125
 30
0.0
 11
2409.999985648759
 21
1417.403415746121
 31
0.0
  0
LINE
  5
13A
330
C3
100
AcDbEntity
  8
SUNPOU
100
AcDbLine
 10
2994.999985648774
 20
1297.403415746125
 30
0.0
 11
2409.999985648759
 21
1297.403415746125
 31
0.0
  0
LINE
  5
13B
330
C3
100
AcDbEntity
  8
SUNPOU
100
AcDbLine
 10
2994.999985648774
 20
1177.403415746125
 30
0.0
 11
2409.999985648759
 21
1177.403415746121
 31
0.0
  0
LINE
  5
13C
330
C3
100
AcDbEntity
  8
SUNPOU
100
AcDbLine
 10
2994.999985648774
 20
1057.403415746125
 30
0.0
 11
2409.999985648759
 21
1057.403415746121
 31
0.0
  0
LINE
  5
13D
330
C3
100
AcDbEntity
  8
HASEN
100
AcDbLine
 10
2994.999985648772
 20
955.4034157461156
 30
0.0
 11
2644.497460331817
 21
955.4034157461119
 31
0.0
  0
LINE
  5
13E
330
C3
100
AcDbEntity
  8
HASEN
100
AcDbLine
 10
2994.999985648772
 20
1195.403415746116
 30
0.0
 11
2644.497460331817
 21
1195.403415746112
 31
0.0
  0
LINE
  5
13F
330
C3
100
AcDbEntity
  8
HASEN
100
AcDbLine
 10
2994.999985648772
 20
1435.403415746116
 30
0.0
 11
2644.497460331817
 21
1435.403415746112
 31
0.0
  0
ARC
  5
140
330
C3
100
AcDbEntity
  8
HAIKIN
100
AcDbCircle
 10
2374.999985648759
 20
1002.403415746126
 30
0.0
 40
35.0
100
AcDbArc
 50
270.0
 51
0.0
  0
LINE
  5
141
330
C3
100
AcDbEntity
  8
HAIKIN
100
AcDbLine
 10
2374.999985648758
 20
1827.403415746126
 30
0.0
 11
1979.999985648752
 21
1827.403415746126
 31
0.0
  0
LINE
  5
142
330
C3
100
AcDbEntity
  8
HAIKIN
100
AcDbLine
 10
2994.999985648774
 20
1872.403415746125
 30
0.0
 11
1979.999985648759
 21
1872.403415746121
 31
0.0
  0
LINE
  5
143
330
C3
100
AcDbEntity
  8
HAIKIN
100
AcDbLine
 10
2994.999985648774
 20
1932.403415746125
 30
0.0
 11
1979.999985648758
 21
1932.403415746121
 31
0.0
  0
LINE
  5
144
330
C3
100
AcDbEntity
  8
HAIKIN
100
AcDbLine
 10
2994.999985648774
 20
1992.403415746125
 30
0.0
 11
1979.999985648758
 21
1992.403415746121
 31
0.0
  0
LINE
  5
145
330
C3
100
AcDbEntity
  8
SUNPOU
100
AcDbLine
 10
2994.999985648774
 20
2017.403415746125
 30
0.0
 11
1979.999985648759
 21
2017.403415746121
 31
0.0
  0
LINE
  5
146
330
C3
100
AcDbEntity
  8
SUNPOU
100
AcDbLine
 10
2994.999985648774
 20
2137.403415746125
 30
0.0
 11
1979.999985648759
 21
2137.403415746121
 31
0.0
  0
LINE
  5
147
330
C3
100
AcDbEntity
  8
SUNPOU
100
AcDbLine
 10
2994.999985648774
 20
2257.403415746125
 30
0.0
 11
1979.999985648759
 21
2257.403415746121
 31
0.0
  0
LINE
  5
148
330
C3
100
AcDbEntity
  8
SUNPOU
100
AcDbLine
 10
2994.999985648774
 20
1897.403415746125
 30
0.0
 11
1979.999985648759
 21
1897.403415746121
 31
0.0
  0
LINE
  5
149
330
C3
100
AcDbEntity
  8
SUNPOU
100
AcDbLine
 10
2949.999985648748
 20
2317.403415746123
 30
0.0
 11
1979.999985648759
 21
2317.403415746121
 31
0.0
  0
LINE
  5
14A
330
C3
100
AcDbEntity
  8
SUNPOU
100
AcDbLine
 10
2379.999985648758
 20
1797.403415746126
 30
0.0
 11
1579.999985648756
 21
1797.403415746126
 31
0.0
  0
LINE
  5
14B
330
C3
100
AcDbEntity
  8
SUNPOU
100
AcDbLine
 10
1829.999985648765
 20
2362.403415746123
 30
0.0
 11
1829.999985648759
 21
1890.403415746126
 31
0.0
  0
LINE
  5
14C
330
C3
100
AcDbEntity
  8
SUNPOU
100
AcDbLine
 10
1529.999985648763
 20
2362.403415746125
 30
0.0
 11
1529.999985648763
 21
1890.403415746128
 31
0.0
  0
LINE
  5
14D
330
C3
100
AcDbEntity
  8
HAIKIN
100
AcDbLine
 10
1979.999985648758
 20
1890.403415746128
 30
0.0
 11
1521.99998564875
 21
1890.403415746132
 31
0.0
  0
LINE
  5
14E
330
C3
100
AcDbEntity
  8
SUNPOU
100
AcDbLine
 10
1979.999985648758
 20
1860.403415746128
 30
0.0
 11
1516.999985648752
 21
1860.403415746126
 31
0.0
  0
ARC
  5
14F
330
C3
100
AcDbEntity
  8
HAIKIN
100
AcDbCircle
 10
1521.99998564875
 20
1855.403415746132
 30
0.0
 40
35.0
100
AcDbArc
 50
90.0
 51
180.0
  0
SOLID
  5
150
330
C3
100
AcDbEntity
  8
SUNPOU
100
AcDbTrace
 10
1694.999985648759
 20
1980.403415746141
 30
0.0
 11
1679.999985648759
 21
1890.403415746141
 31
0.0
 12
1664.999985648759
 22
1980.403415746141
 32
0.0
 13
1664.999985648759
 23
1980.403415746141
 33
0.0
1001
ACAD
1000
DSTYLE
1002
{
1070
    78
1070
     8
1070
   284
1070
     8
1070
   140
1040
3.0
1070
   145
1040
1.0
1070
    74
1070
     0
1070
   172
1070
     1
1070
    73
1070
     0
1070
    77
1070
     1
1070
    40
1040
60.0
1070
   147
1040
0.8
1070
   287
1070
     5
1070
    42
1040
1.5
1070
    44
1040
0.6
1070
    43
1040
7.0
1070
   271
1070
     0
1070
   177
1070
   256
1070
   176
1070
   256
1070
   141
1040
0.0
1070
   275
1070
     1
1070
    41
1040
1.5
1070
   285
1070
     8
1070
   286
1070
     8
1002
}
  0
LINE
  5
151
330
C3
100
AcDbEntity
  8
SUNPOU
100
AcDbLine
 10
2129.999985648759
 20
2257.403415746121
 30
0.0
 11
2129.999985648759
 21
1827.40341574613
 31
0.0
  0
LINE
  5
152
330
C3
100
AcDbEntity
  8
SUNPOU
100
AcDbLine
 10
2969.99998564875
 20
2397.403415746121
 30
0.0
 11
2949.99998564875
 21
2317.403415746125
 31
0.0
  0
LINE
  5
153
330
C3
100
AcDbEntity
  8
SUNPOU
100
AcDbLine
 10
2994.999985648774
 20
1777.403415746125
 30
0.0
 11
2409.999985648758
 21
1777.403415746119
 31
0.0
  0
LINE
  5
154
330
C3
100
AcDbEntity
  8
SUNPOU
100
AcDbLine
 10
2994.999985648774
 20
1657.403415746125
 30
0.0
 11
2409.999985648758
 21
1657.403415746121
 31
0.0
  0
LINE
  5
155
330
C3
100
AcDbEntity
  8
HASEN
100
AcDbLine
 10
2994.999985648772
 20
2155.403415746116
 30
0.0
 11
2644.497460331817
 21
2155.403415746112
 31
0.0
  0
LINE
  5
156
330
C3
100
AcDbEntity
  8
HASEN
100
AcDbLine
 10
2994.999985648772
 20
1915.403415746116
 30
0.0
 11
2644.497460331817
 21
1915.403415746112
 31
0.0
  0
LINE
  5
157
330
C3
100
AcDbEntity
  8
HASEN
100
AcDbLine
 10
2994.999985648772
 20
1675.403415746116
 30
0.0
 11
2644.497460331817
 21
1675.403415746112
 31
0.0
  0
ARC
  5
158
330
C3
100
AcDbEntity
  8
HAIKIN
100
AcDbCircle
 10
2374.999985648758
 20
1792.403415746126
 30
0.0
 40
35.0
100
AcDbArc
 50
0.0
 51
90.0
  0
SOLID
  5
159
330
C3
100
AcDbEntity
  8
SUNPOU
100
AcDbTrace
 10
2294.999985648761
 20
1917.403415746126
 30
0.0
 11
2279.999985648761
 21
1827.403415746126
 31
0.0
 12
2264.999985648761
 22
1917.403415746126
 32
0.0
 13
2264.999985648761
 23
1917.403415746126
 33
0.0
1001
ACAD
1000
DSTYLE
1002
{
1070
    78
1070
     8
1070
   284
1070
     8
1070
   140
1040
3.0
1070
   145
1040
1.0
1070
    74
1070
     0
1070
   172
1070
     1
1070
    73
1070
     0
1070
    77
1070
     1
1070
    40
1040
60.0
1070
   147
1040
0.8
1070
   287
1070
     5
1070
    42
1040
1.5
1070
    44
1040
0.6
1070
    43
1040
7.0
1070
   271
1070
     0
1070
   177
1070
   256
1070
   176
1070
   256
1070
   141
1040
0.0
1070
   275
1070
     1
1070
    41
1040
1.5
1070
   285
1070
     8
1070
   286
1070
     8
1002
}
  0
SOLID
  5
15A
330
C3
100
AcDbEntity
  8
SUNPOU
100
AcDbTrace
 10
2804.999985648759
 20
2022.403415746125
 30
0.0
 11
2789.999985648759
 21
1932.403415746125
 31
0.0
 12
2774.999985648759
 22
2022.403415746125
 32
0.0
 13
2774.999985648759
 23
2022.403415746125
 33
0.0
1001
ACAD
1000
DSTYLE
1002
{
1070
    78
1070
     8
1070
   284
1070
     8
1070
   140
1040
3.0
1070
   145
1040
1.0
1070
    74
1070
     0
1070
   172
1070
     1
1070
    73
1070
     0
1070
    77
1070
     1
1070
    40
1040
60.0
1070
   147
1040
0.8
1070
   287
1070
     5
1070
    42
1040
1.5
1070
    44
1040
0.6
1070
    43
1040
7.0
1070
   271
1070
     0
1070
   177
1070
   256
1070
   176
1070
   256
1070
   141
1040
0.0
1070
   275
1070
     1
1070
    41
1040
1.5
1070
   285
1070
     8
1070
   286
1070
     8
1002
}
  0
SOLID
  5
15B
330
C3
100
AcDbEntity
  8
SUNPOU
100
AcDbTrace
 10
2804.999985648759
 20
1962.403415746125
 30
0.0
 11
2789.999985648759
 21
1872.403415746125
 31
0.0
 12
2774.999985648759
 22
1962.403415746125
 32
0.0
 13
2774.999985648759
 23
1962.403415746125
 33
0.0
1001
ACAD
1000
DSTYLE
1002
{
1070
    78
1070
     8
1070
   284
1070
     8
1070
   140
1040
3.0
1070
   145
1040
1.0
1070
    74
1070
     0
1070
   172
1070
     1
1070
    73
1070
     0
1070
    77
1070
     1
1070
    40
1040
60.0
1070
   147
1040
0.8
1070
   287
1070
     5
1070
    42
1040
1.5
1070
    44
1040
0.6
1070
    43
1040
7.0
1070
   271
1070
     0
1070
   177
1070
   256
1070
   176
1070
   256
1070
   141
1040
0.0
1070
   275
1070
     1
1070
    41
1040
1.5
1070
   285
1070
     8
1070
   286
1070
     8
1002
}
  0
SOLID
  5
15C
330
C3
100
AcDbEntity
  8
SUNPOU
100
AcDbTrace
 10
2804.999985648759
 20
2082.403415746125
 30
0.0
 11
2789.999985648759
 21
1992.403415746125
 31
0.0
 12
2774.999985648759
 22
2082.403415746125
 32
0.0
 13
2774.999985648759
 23
2082.403415746125
 33
0.0
1001
ACAD
1000
DSTYLE
1002
{
1070
    78
1070
     8
1070
   284
1070
     8
1070
   140
1040
3.0
1070
   145
1040
1.0
1070
    74
1070
     0
1070
   172
1070
     1
1070
    73
1070
     0
1070
    77
1070
     1
1070
    40
1040
60.0
1070
   147
1040
0.8
1070
   287
1070
     5
1070
    42
1040
1.5
1070
    44
1040
0.6
1070
    43
1040
7.0
1070
   271
1070
     0
1070
   177
1070
   256
1070
   176
1070
   256
1070
   141
1040
0.0
1070
   275
1070
     1
1070
    41
1040
1.5
1070
   285
1070
     8
1070
   286
1070
     8
1002
}
  0
LINE
  5
15D
330
C3
100
AcDbEntity
  8
SUNPOU
100
AcDbLine
 10
2969.99998564875
 20
2397.403415746121
 30
0.0
 11
3029.99998564875
 21
2397.403415746121
 31
0.0
  0
LINE
  5
15E
330
C3
100
AcDbEntity
  8
SUNPOU
100
AcDbLine
 10
3449.999985648745
 20
1357.403415746123
 30
0.0
 11
3449.999985648745
 21
2102.632833953865
 31
0.0
1001
ACAD
1000
DSTYLE
1002
{
1070
    78
1070
     8
1070
   284
1070
     8
1070
   140
1040
3.0
1070
   145
1040
1.0
1070
    74
1070
     0
1070
   172
1070
     1
1070
    73
1070
     0
1070
    77
1070
     1
1070
    40
1040
60.0
1070
   147
1040
0.8
1070
   287
1070
     5
1070
    42
1040
1.5
1070
    44
1040
0.6
1070
    43
1040
7.0
1070
   271
1070
     0
1070
   177
1070
   256
1070
   176
1070
   256
1070
   141
1040
0.0
1070
   275
1070
     1
1070
    41
1040
1.5
1070
   285
1070
     8
1070
   286
1070
     8
1002
}
  0
TEXT
  5
15F
330
C3
100
AcDbEntity
  8
SUNPOU
100
AcDbText
 10
1304.999985648761
 20
3317.403415746123
 30
0.0
 40
150.0
  1
D10
 41
0.8
 11
1304.999985648761
 21
3392.403415746123
 31
0.0
100
AcDbText
 73
     2
  0
TEXT
  5
160
330
C3
100
AcDbEntity
  8
SUNPOU
100
AcDbText
 10
2684.999985648759
 20
3317.403415746123
 30
0.0
 40
150.0
  1
D10
 41
0.8
 11
2684.999985648759
 21
3392.403415746123
 31
0.0
100
AcDbText
 73
     2
  0
LINE
  5
161
330
C3
100
AcDbEntity
  8
SUNPOU
100
AcDbLine
 10
2279.999985648759
 20
3227.403415746123
 30
0.0
 11
3059.999985648759
 21
3227.403415746123
 31
0.0
1001
ACAD
1000
DSTYLE
1002
{
1070
    78
1070
     8
1070
   284
1070
     8
1070
   140
1040
3.0
1070
   145
1040
1.0
1070
    74
1070
     0
1070
   172
1070
     1
1070
    73
1070
     0
1070
    77
1070
     1
1070
    40
1040
60.0
1070
   147
1040
0.8
1070
   287
1070
     5
1070
    42
1040
1.5
1070
    44
1040
0.6
1070
    43
1040
7.0
1070
   271
1070
     0
1070
   177
1070
   256
1070
   176
1070
   256
1070
   141
1040
0.0
1070
   275
1070
     1
1070
    41
1040
1.5
1070
   285
1070
     8
1070
   286
1070
     8
1002
}
  0
TEXT
  5
162
330
C3
100
AcDbEntity
  8
SUNPOU
100
AcDbText
 10
2359.999985648759
 20
3317.403415746123
 30
0.0
 40
150.0
  1
H4
 41
0.8
 72
     4
 11
2459.999985648759
 21
3392.403415746123
 31
0.0
100
AcDbText
  0
CIRCLE
  5
163
330
C3
100
AcDbEntity
  8
SUNPOU
100
AcDbCircle
 10
2459.999985648759
 20
3392.403415746123
 30
0.0
 40
165.0
  0
TEXT
  5
164
330
C3
100
AcDbEntity
  8
SUNPOU
100
AcDbText
 10
2239.999985648754
 20
4105.403415746121
 30
0.0
 40
210.0
  1
内　側
 72
     2
 11
2939.999985648754
 21
4077.403415746121
 31
0.0
100
AcDbText
 73
     1
  0
LINE
  5
165
330
C3
100
AcDbEntity
  8
HAIKIN
 62
     3
100
AcDbLine
 10
1889.999985648752
 20
4587.403415746125
 30
0.0
 11
1889.999985648752
 21
4887.403415746125
 31
0.0
  0
SOLID
  5
166
330
C3
100
AcDbEntity
  8
SUNPOU
100
AcDbTrace
 10
2559.999985648748
 20
1342.403415746126
 30
0.0000000000000092
 11
2469.999985648748
 21
1357.403415746126
 31
0.0000000000000092
 12
2559.999985648748
 22
1372.403415746126
 32
0.0000000000000092
 13
2559.999985648748
 23
1372.403415746126
 33
0.0000000000000092
1001
ACAD
1000
DSTYLE
1002
{
1070
    78
1070
     8
1070
   284
1070
     8
1070
   140
1040
3.0
1070
   145
1040
1.0
1070
    74
1070
     0
1070
   172
1070
     1
1070
    73
1070
     0
1070
    77
1070
     1
1070
    40
1040
60.0
1070
   147
1040
0.8
1070
   287
1070
     5
1070
    42
1040
1.5
1070
    44
1040
0.6
1070
    43
1040
7.0
1070
   271
1070
     0
1070
   177
1070
   256
1070
   176
1070
   256
1070
   141
1040
0.0
1070
   275
1070
     1
1070
    41
1040
1.5
1070
   285
1070
     8
1070
   286
1070
     8
1002
}
  0
SOLID
  5
167
330
C3
100
AcDbEntity
  8
SUNPOU
100
AcDbTrace
 10
2679.99998564875
 20
1342.403415746126
 30
0.0000000000000092
 11
2589.99998564875
 21
1357.403415746126
 31
0.0000000000000092
 12
2679.99998564875
 22
1372.403415746126
 32
0.0000000000000092
 13
2679.99998564875
 23
1372.403415746126
 33
0.0000000000000092
1001
ACAD
1000
DSTYLE
1002
{
1070
    78
1070
     8
1070
   284
1070
     8
1070
   140
1040
3.0
1070
   145
1040
1.0
1070
    74
1070
     0
1070
   172
1070
     1
1070
    73
1070
     0
1070
    77
1070
     1
1070
    40
1040
60.0
1070
   147
1040
0.8
1070
   287
1070
     5
1070
    42
1040
1.5
1070
    44
1040
0.6
1070
    43
1040
7.0
1070
   271
1070
     0
1070
   177
1070
   256
1070
   176
1070
   256
1070
   141
1040
0.0
1070
   275
1070
     1
1070
    41
1040
1.5
1070
   285
1070
     8
1070
   286
1070
     8
1002
}
  0
SOLID
  5
168
330
C3
100
AcDbEntity
  8
SUNPOU
100
AcDbTrace
 10
2619.99998564875
 20
1342.403415746126
 30
0.0000000000000092
 11
2529.99998564875
 21
1357.403415746126
 31
0.0000000000000092
 12
2619.99998564875
 22
1372.403415746126
 32
0.0000000000000092
 13
2619.99998564875
 23
1372.403415746126
 33
0.0000000000000092
1001
ACAD
1000
DSTYLE
1002
{
1070
    78
1070
     8
1070
   284
1070
     8
1070
   140
1040
3.0
1070
   145
1040
1.0
1070
    74
1070
     0
1070
   172
1070
     1
1070
    73
1070
     0
1070
    77
1070
     1
1070
    40
1040
60.0
1070
   147
1040
0.8
1070
   287
1070
     5
1070
    42
1040
1.5
1070
    44
1040
0.6
1070
    43
1040
7.0
1070
   271
1070
     0
1070
   177
1070
   256
1070
   176
1070
   256
1070
   141
1040
0.0
1070
   275
1070
     1
1070
    41
1040
1.5
1070
   285
1070
     8
1070
   286
1070
     8
1002
}
  0
ENDBLK
  5
16A
330
C3
100
AcDbEntity
  8
0
100
AcDbBlockEnd
  0
BLOCK
  5
160E
330
160D
100
AcDbEntity
  8
0
100
AcDbBlockBegin
  2
A$C540D0B4B
 70
     0
 10
0.0
 20
0.0
 30
0.0
  3
A$C540D0B4B
  1

  0
LINE
  5
35FA
330
160D
100
AcDbEntity
  8
HASEN
100
AcDbLine
 10
126.9878621326841
 20
39.25879330439784
 30
0.0
 11
52.0602123243707
 21
35.96527023590079
 31
0.0
1001
AcDbBlockRepETag
1070
     1
1071
        0
1005
35FA
  0
LINE
  5
35FB
330
160D
100
AcDbEntity
  8
HASEN
100
AcDbLine
 10
52.0602123243707
 20
35.96527023590079
 30
0.0
 11
53.64110339724925
 21
-0.0000016720896383
 31
0.0
1001
AcDbBlockRepETag
1070
     1
1071
        1
1005
35FB
  0
LINE
  5
35FC
330
160D
100
AcDbEntity
  8
1HASEN
100
AcDbLine
 10
29.02794803807976
 20
16.93548220178547
 30
0.0
 11
152.5717992268309
 21
22.36598115513714
 31
0.0
1001
AcDbBlockRepETag
1070
     1
1071
        2
1005
35FC
  0
LINE
  5
35FD
330
160D
100
AcDbEntity
  8
HASEN
100
AcDbLine
 10
53.64110339724925
 20
-0.0000016720896383
 30
0.0
 11
128.5687532055629
 21
3.293521396407414
 31
0.0
1001
AcDbBlockRepETag
1070
     1
1071
        3
1005
35FD
  0
LINE
  5
35FE
330
160D
100
AcDbEntity
  8
HASEN
100
AcDbLine
 10
128.5687532055629
 20
3.293521396407414
 30
0.0
 11
127.7783076691235
 21
21.27615735040308
 31
0.0
1001
AcDbBlockRepETag
1070
     1
1071
        4
1005
35FE
  0
LINE
  5
35FF
330
160D
100
AcDbEntity
  8
HASEN
100
AcDbLine
 10
127.7783076691235
 20
21.27615735040308
 30
0.0
 11
126.9878621326841
 21
39.25879330439784
 31
0.0
1001
AcDbBlockRepETag
1070
     1
1071
        5
1005
35FF
  0
ENDBLK
  5
1615
330
160D
100
AcDbEntity
  8
0
100
AcDbBlockEnd
  0
BLOCK
  5
36ED
330
36EC
100
AcDbEntity
  8
0
100
AcDbBlockBegin
  2
_None
 70
     0
 10
0.0
 20
0.0
 30
0.0
  3
_None
  1

  0
ENDBLK
  5
36EE
330
36EC
100
AcDbEntity
  8
0
100
AcDbBlockEnd
  0
BLOCK
  5
93C8
330
93C7
100
AcDbEntity
  8
0
100
AcDbBlockBegin
  2
A$C6A272EC5
 70
     0
 10
0.0
 20
0.0
 30
0.0
  3
A$C6A272EC5
  1

  0
LINE
  5
93C9
330
93C7
100
AcDbEntity
  8
SUNPOU
100
AcDbLine
 10
-0.0000043508725867
 20
85.00000103674574
 30
0.0
 11
749.9999956491274
 21
85.00000103674574
 31
0.0
  0
TEXT
  5
93CA
330
93C7
100
AcDbEntity
  8
SUNPOU
100
AcDbText
 10
229.9999956491274
 20
-4.999998963254257
 30
0.0
 40
75.0
  1
Ｍ１６
100
AcDbText
  0
TEXT
  5
93CB
330
93C7
100
AcDbEntity
  8
SUNPOU
100
AcDbText
 10
29.99999564912741
 20
105.0000010367457
 30
0.0
 40
75.0
  1
連結用インサート
100
AcDbText
  0
ENDBLK
  5
93CC
330
93C7
100
AcDbEntity
  8
0
100
AcDbBlockEnd
  0
BLOCK
  5
1045F
330
1045E
100
AcDbEntity
  8
0
100
AcDbBlockBegin
  2
A$C343A096A
 70
     0
 10
0.0
 20
0.0
 30
0.0
  3
A$C343A096A
  1

  0
LINE
  5
132EF
330
1045E
100
AcDbEntity
  8
1HASEN
100
AcDbLine
 10
28.5976821242657
 20
17.99998916834647
 30
0.0
 11
153.1719656638306
 21
17.99998916834647
 31
0.0
1001
AcDbBlockRepETag
1070
     1
1071
        0
1005
132EF
  0
LWPOLYLINE
  5
132F0
330
1045E
100
AcDbEntity
  8
HOJO
100
AcDbPolyline
 90
        5
 70
     1
 43
0.0
 10
127.9016858064379
 20
17.99998916834647
 10
127.9016858064379
 20
35.99998916834647
 10
52.90168580643785
 20
35.99998916834647
 10
52.90168580643785
 20
-0.0000108316535261
 10
127.9016858064379
 20
-0.0000108316535261
1001
AcDbBlockRepETag
1070
     1
1071
        1
1005
132F0
  0
ENDBLK
  5
10462
330
1045E
100
AcDbEntity
  8
0
100
AcDbBlockEnd
  0
BLOCK
  5
10464
330
10463
100
AcDbEntity
  8
0
100
AcDbBlockBegin
  2
A$C11632978
 70
     0
 10
0.0
 20
0.0
 30
0.0
  3
A$C11632978
  1

  0
INSERT
  5
10465
330
10463
100
AcDbEntity
  8
SEIHIN
100
AcDbBlockReference
  2
A$C343A096A
 10
0.7904341201347052
 20
-2.323086032179162
 30
0.0
 50
2.51687565693953
  0
ENDBLK
  5
10466
330
10463
100
AcDbEntity
  8
0
100
AcDbBlockEnd
  0
BLOCK
  5
1489A
330
14890
100
AcDbEntity
  8
0
100
AcDbBlockBegin
  2
*D17
 70
     1
 10
0.0
 20
0.0
 30
0.0
  3
*D17
  1

  0
LINE
  5
1AE95
330
14890
100
AcDbEntity
  8
SUNPOU
 62
     0
440
 16777216
370
    -2
100
AcDbLine
 10
-5161.366377846498
 20
5541.693832299377
 30
0.0
 11
-5019.40955086449
 21
5541.693832299377
 31
0.0
  0
LINE
  5
1AE96
330
14890
100
AcDbEntity
  8
SUNPOU
 62
     0
440
 16777216
370
    -2
100
AcDbLine
 10
-5161.366377846498
 20
4841.693832299377
 30
0.0
 11
-5019.40955086449
 21
4841.693832299377
 31
0.0
  0
LINE
  5
1AE97
330
14890
100
AcDbEntity
  8
SUNPOU
 62
     0
440
 16777216
370
    -2
100
AcDbLine
 10
-5034.40955086449
 20
5490.693832299377
 30
0.0
 11
-5034.40955086449
 21
4892.693832299377
 31
0.0
  0
SOLID
  5
1AE98
330
14890
100
AcDbEntity
  8
SUNPOU
 62
     0
440
 16777216
100
AcDbTrace
 10
-5042.90955086449
 20
5490.693832299377
 30
0.0
 11
-5025.90955086449
 21
5490.693832299377
 31
0.0
 12
-5034.40955086449
 22
5541.693832299377
 32
0.0
 13
-5034.40955086449
 23
5541.693832299377
 33
0.0
  0
SOLID
  5
1AE99
330
14890
100
AcDbEntity
  8
SUNPOU
 62
     0
440
 16777216
100
AcDbTrace
 10
-5042.90955086449
 20
4892.693832299377
 30
0.0
 11
-5025.90955086449
 21
4892.693832299377
 31
0.0
 12
-5034.40955086449
 22
4841.693832299377
 32
0.0
 13
-5034.40955086449
 23
4841.693832299377
 33
0.0
  0
MTEXT
  5
1AE9A
330
14890
100
AcDbEntity
  8
SUNPOU
 62
     0
440
 16777216
100
AcDbMText
 10
-5092.90955086449
 20
5191.693832299376
 30
0.0
 40
75.0
 41
0.0
 71
     5
 72
     1
  1
\A1;700
 11
6.123031769111886E-17
 21
1.0
 31
0.0
 73
     1
 44
1.0
  0
POINT
  5
1AE9B
330
14890
100
AcDbEntity
  8
DEFPOINTS
 62
     0
440
 16777216
100
AcDbPoint
 10
-5221.366377846498
 20
5541.693832299377
 30
0.0
  0
POINT
  5
1AE9C
330
14890
100
AcDbEntity
  8
DEFPOINTS
 62
     0
440
 16777216
100
AcDbPoint
 10
-5221.366377846498
 20
4841.693832299377
 30
0.0
  0
POINT
  5
1AE9D
330
14890
100
AcDbEntity
  8
DEFPOINTS
 62
     0
440
 16777216
100
AcDbPoint
 10
-5034.40955086449
 20
4841.693832299377
 30
0.0
  0
ENDBLK
  5
1489B
330
14890
100
AcDbEntity
  8
0
100
AcDbBlockEnd
  0
BLOCK
  5
148D2
330
148C8
100
AcDbEntity
  8
0
100
AcDbBlockBegin
  2
*D19
 70
     1
 10
0.0
 20
0.0
 30
0.0
  3
*D19
  1

  0
LINE
  5
1AEA7
330
148C8
100
AcDbEntity
  8
SUNPOU
 62
     0
440
 16777216
370
    -2
100
AcDbLine
 10
-6721.366377846498
 20
4781.693832299377
 30
0.0
 11
-6721.366377846498
 21
4478.075951395687
 31
0.0
  0
LINE
  5
1AEA8
330
148C8
100
AcDbEntity
  8
SUNPOU
 62
     0
440
 16777216
370
    -2
100
AcDbLine
 10
-6221.366377846498
 20
4781.693832299377
 30
0.0
 11
-6221.366377846498
 21
4478.075951395687
 31
0.0
  0
LINE
  5
1AEA9
330
148C8
100
AcDbEntity
  8
SUNPOU
 62
     0
440
 16777216
370
    -2
100
AcDbLine
 10
-6670.366377846498
 20
4493.075951395687
 30
0.0
 11
-6272.366377846498
 21
4493.075951395687
 31
0.0
  0
SOLID
  5
1AEAA
330
148C8
100
AcDbEntity
  8
SUNPOU
 62
     0
440
 16777216
100
AcDbTrace
 10
-6670.366377846498
 20
4501.575951395687
 30
0.0
 11
-6670.366377846498
 21
4484.575951395687
 31
0.0
 12
-6721.366377846498
 22
4493.075951395687
 32
0.0
 13
-6721.366377846498
 23
4493.075951395687
 33
0.0
  0
SOLID
  5
1AEAB
330
148C8
100
AcDbEntity
  8
SUNPOU
 62
     0
440
 16777216
100
AcDbTrace
 10
-6272.366377846498
 20
4501.575951395687
 30
0.0
 11
-6272.366377846498
 21
4484.575951395687
 31
0.0
 12
-6221.366377846498
 22
4493.075951395687
 32
0.0
 13
-6221.366377846498
 23
4493.075951395687
 33
0.0
  0
MTEXT
  5
1AEAC
330
148C8
100
AcDbEntity
  8
SUNPOU
 62
     0
440
 16777216
100
AcDbMText
 10
-6471.366377846498
 20
4551.575951395687
 30
0.0
 40
75.0
 41
0.0
 71
     5
 72
     1
  1
\A1;500
 73
     1
 44
1.0
  0
POINT
  5
1AEAD
330
148C8
100
AcDbEntity
  8
DEFPOINTS
 62
     0
440
 16777216
100
AcDbPoint
 10
-6721.366377846498
 20
4841.693832299377
 30
0.0
  0
POINT
  5
1AEAE
330
148C8
100
AcDbEntity
  8
DEFPOINTS
 62
     0
440
 16777216
100
AcDbPoint
 10
-6221.366377846498
 20
4841.693832299377
 30
0.0
  0
POINT
  5
1AEAF
330
148C8
100
AcDbEntity
  8
DEFPOINTS
 62
     0
440
 16777216
100
AcDbPoint
 10
-6221.366377846498
 20
4493.075951395687
 30
0.0
  0
ENDBLK
  5
148D3
330
148C8
100
AcDbEntity
  8
0
100
AcDbBlockEnd
  0
BLOCK
  5
148DF
330
148D5
100
AcDbEntity
  8
0
100
AcDbBlockBegin
  2
*D20
 70
     1
 10
0.0
 20
0.0
 30
0.0
  3
*D20
  1

  0
LINE
  5
1F422
330
148D5
100
AcDbEntity
  8
SUNPOU
 62
     0
440
 16777216
370
    -2
100
AcDbLine
 10
-6221.366377846498
 20
4781.693832299377
 30
0.0
 11
-6221.366377846498
 21
4478.075951395687
 31
0.0
  0
LINE
  5
1F423
330
148D5
100
AcDbEntity
  8
SUNPOU
 62
     0
440
 16777216
370
    -2
100
AcDbLine
 10
-5221.366377846498
 20
4781.693832299377
 30
0.0
 11
-5221.366377846498
 21
4478.075951395687
 31
0.0
  0
LINE
  5
1F424
330
148D5
100
AcDbEntity
  8
SUNPOU
 62
     0
440
 16777216
370
    -2
100
AcDbLine
 10
-6170.366377846498
 20
4493.075951395687
 30
0.0
 11
-5272.366377846498
 21
4493.075951395687
 31
0.0
  0
SOLID
  5
1F425
330
148D5
100
AcDbEntity
  8
SUNPOU
 62
     0
440
 16777216
100
AcDbTrace
 10
-6170.366377846498
 20
4501.575951395687
 30
0.0
 11
-6170.366377846498
 21
4484.575951395687
 31
0.0
 12
-6221.366377846498
 22
4493.075951395687
 32
0.0
 13
-6221.366377846498
 23
4493.075951395687
 33
0.0
  0
SOLID
  5
1F426
330
148D5
100
AcDbEntity
  8
SUNPOU
 62
     0
440
 16777216
100
AcDbTrace
 10
-5272.366377846498
 20
4501.575951395687
 30
0.0
 11
-5272.366377846498
 21
4484.575951395687
 31
0.0
 12
-5221.366377846498
 22
4493.075951395687
 32
0.0
 13
-5221.366377846498
 23
4493.075951395687
 33
0.0
  0
MTEXT
  5
1F427
330
148D5
100
AcDbEntity
  8
SUNPOU
 62
     0
440
 16777216
100
AcDbMText
 10
-5721.366377846498
 20
4551.575951395687
 30
0.0
 40
75.0
 41
0.0
 71
     5
 72
     1
  1
\A1;1000
 73
     1
 44
1.0
  0
POINT
  5
1F428
330
148D5
100
AcDbEntity
  8
DEFPOINTS
 62
     0
440
 16777216
100
AcDbPoint
 10
-6221.366377846498
 20
4841.693832299377
 30
0.0
  0
POINT
  5
1F429
330
148D5
100
AcDbEntity
  8
DEFPOINTS
 62
     0
440
 16777216
100
AcDbPoint
 10
-5221.366377846498
 20
4841.693832299377
 30
0.0
  0
POINT
  5
1F42A
330
148D5
100
AcDbEntity
  8
DEFPOINTS
 62
     0
440
 16777216
100
AcDbPoint
 10
-5221.366377846498
 20
4493.075951395687
 30
0.0
  0
ENDBLK
  5
148E0
330
148D5
100
AcDbEntity
  8
0
100
AcDbBlockEnd
  0
BLOCK
  5
148F5
330
148EB
100
AcDbEntity
  8
0
100
AcDbBlockBegin
  2
*D21
 70
     1
 10
0.0
 20
0.0
 30
0.0
  3
*D21
  1

  0
LINE
  5
1F3FD
330
148EB
100
AcDbEntity
  8
SUNPOU
 62
     0
440
 16777216
370
    -2
100
AcDbLine
 10
-5221.366377846498
 20
4781.693832299377
 30
0.0
 11
-5221.366377846498
 21
4478.075951395687
 31
0.0
  0
LINE
  5
1F3FE
330
148EB
100
AcDbEntity
  8
SUNPOU
 62
     0
440
 16777216
370
    -2
100
AcDbLine
 10
-4721.366377846498
 20
4781.693832299377
 30
0.0
 11
-4721.366377846498
 21
4478.075951395687
 31
0.0
  0
LINE
  5
1F3FF
330
148EB
100
AcDbEntity
  8
SUNPOU
 62
     0
440
 16777216
370
    -2
100
AcDbLine
 10
-5170.366377846498
 20
4493.075951395687
 30
0.0
 11
-4772.366377846498
 21
4493.075951395687
 31
0.0
  0
SOLID
  5
1F400
330
148EB
100
AcDbEntity
  8
SUNPOU
 62
     0
440
 16777216
100
AcDbTrace
 10
-5170.366377846498
 20
4501.575951395687
 30
0.0
 11
-5170.366377846498
 21
4484.575951395687
 31
0.0
 12
-5221.366377846498
 22
4493.075951395687
 32
0.0
 13
-5221.366377846498
 23
4493.075951395687
 33
0.0
  0
SOLID
  5
1F401
330
148EB
100
AcDbEntity
  8
SUNPOU
 62
     0
440
 16777216
100
AcDbTrace
 10
-4772.366377846498
 20
4501.575951395687
 30
0.0
 11
-4772.366377846498
 21
4484.575951395687
 31
0.0
 12
-4721.366377846498
 22
4493.075951395687
 32
0.0
 13
-4721.366377846498
 23
4493.075951395687
 33
0.0
  0
MTEXT
  5
1F402
330
148EB
100
AcDbEntity
  8
SUNPOU
 62
     0
440
 16777216
100
AcDbMText
 10
-4971.366377846498
 20
4551.575951395687
 30
0.0
 40
75.0
 41
0.0
 71
     5
 72
     1
  1
\A1;500
 73
     1
 44
1.0
  0
POINT
  5
1F403
330
148EB
100
AcDbEntity
  8
DEFPOINTS
 62
     0
440
 16777216
100
AcDbPoint
 10
-5221.366377846498
 20
4841.693832299377
 30
0.0
  0
POINT
  5
1F404
330
148EB
100
AcDbEntity
  8
DEFPOINTS
 62
     0
440
 16777216
100
AcDbPoint
 10
-4721.366377846498
 20
4841.693832299377
 30
0.0
  0
POINT
  5
1F405
330
148EB
100
AcDbEntity
  8
DEFPOINTS
 62
     0
440
 16777216
100
AcDbPoint
 10
-4721.366377846498
 20
4493.075951395687
 30
0.0
  0
ENDBLK
  5
148F6
330
148EB
100
AcDbEntity
  8
0
100
AcDbBlockEnd
  0
BLOCK
  5
1492C
330
14922
100
AcDbEntity
  8
0
100
AcDbBlockBegin
  2
*D25
 70
     1
 10
0.0
 20
0.0
 30
0.0
  3
*D25
  1

  0
LINE
  5
1F40F
330
14922
100
AcDbEntity
  8
SUNPOU
 62
     0
440
 16777216
370
    -2
100
AcDbLine
 10
-6721.366377846498
 20
7401.693832299377
 30
0.0
 11
-6721.366377846498
 21
7808.778221961977
 31
0.0
  0
LINE
  5
1F410
330
14922
100
AcDbEntity
  8
SUNPOU
 62
     0
440
 16777216
370
    -2
100
AcDbLine
 10
-4721.366377846498
 20
7401.693832299377
 30
0.0
 11
-4721.366377846498
 21
7808.778221961977
 31
0.0
  0
LINE
  5
1F411
330
14922
100
AcDbEntity
  8
SUNPOU
 62
     0
440
 16777216
370
    -2
100
AcDbLine
 10
-6670.366377846498
 20
7793.778221961977
 30
0.0
 11
-4772.366377846498
 21
7793.778221961977
 31
0.0
  0
SOLID
  5
1F412
330
14922
100
AcDbEntity
  8
SUNPOU
 62
     0
440
 16777216
100
AcDbTrace
 10
-6670.366377846498
 20
7802.278221961977
 30
0.0
 11
-6670.366377846498
 21
7785.278221961977
 31
0.0
 12
-6721.366377846498
 22
7793.778221961977
 32
0.0
 13
-6721.366377846498
 23
7793.778221961977
 33
0.0
  0
SOLID
  5
1F413
330
14922
100
AcDbEntity
  8
SUNPOU
 62
     0
440
 16777216
100
AcDbTrace
 10
-4772.366377846498
 20
7802.278221961977
 30
0.0
 11
-4772.366377846498
 21
7785.278221961977
 31
0.0
 12
-4721.366377846498
 22
7793.778221961977
 32
0.0
 13
-4721.366377846498
 23
7793.778221961977
 33
0.0
  0
MTEXT
  5
1F414
330
14922
100
AcDbEntity
  8
SUNPOU
 62
     0
440
 16777216
100
AcDbMText
 10
-5721.366377846498
 20
7852.278221961977
 30
0.0
 40
75.0
 41
0.0
 71
     5
 72
     1
  1
\A1;2000
 73
     1
 44
1.0
  0
POINT
  5
1F415
330
14922
100
AcDbEntity
  8
DEFPOINTS
 62
     0
440
 16777216
100
AcDbPoint
 10
-6721.366377846498
 20
7341.693832299377
 30
0.0
  0
POINT
  5
1F416
330
14922
100
AcDbEntity
  8
DEFPOINTS
 62
     0
440
 16777216
100
AcDbPoint
 10
-4721.366377846498
 20
7341.693832299377
 30
0.0
  0
POINT
  5
1F417
330
14922
100
AcDbEntity
  8
DEFPOINTS
 62
     0
440
 16777216
100
AcDbPoint
 10
-4721.366377846498
 20
7793.778221961977
 30
0.0
  0
ENDBLK
  5
1492D
330
14922
100
AcDbEntity
  8
0
100
AcDbBlockEnd
  0
BLOCK
  5
1A8E1
330
1A8D7
100
AcDbEntity
  8
0
100
AcDbBlockBegin
  2
*D46
 70
     1
 10
0.0
 20
0.0
 30
0.0
  3
*D46
  1

  0
LINE
  5
1AF5D
330
1A8D7
100
AcDbEntity
  8
SUNPOU
 62
     0
440
 16777216
370
    -2
100
AcDbLine
 10
-10465.96324985348
 20
5216.693832299376
 30
0.0
 11
-10465.96324985348
 21
5409.24229012615
 31
0.0
  0
LINE
  5
1AF5E
330
1A8D7
100
AcDbEntity
  8
SUNPOU
 62
     0
440
 16777216
370
    -2
100
AcDbLine
 10
-10285.96324985348
 20
5070.355249622212
 30
0.0
 11
-10285.96324985348
 21
5409.24229012615
 31
0.0
  0
LINE
  5
1AF5F
330
1A8D7
100
AcDbEntity
  8
SUNPOU
 62
     0
440
 16777216
370
    -2
100
AcDbLine
 10
-10414.96324985348
 20
5394.24229012615
 30
0.0
 11
-10336.96324985348
 21
5394.24229012615
 31
0.0
  0
SOLID
  5
1AF60
330
1A8D7
100
AcDbEntity
  8
SUNPOU
 62
     0
440
 16777216
100
AcDbTrace
 10
-10414.96324985348
 20
5402.74229012615
 30
0.0
 11
-10414.96324985348
 21
5385.74229012615
 31
0.0
 12
-10465.96324985348
 22
5394.24229012615
 32
0.0
 13
-10465.96324985348
 23
5394.24229012615
 33
0.0
  0
SOLID
  5
1AF61
330
1A8D7
100
AcDbEntity
  8
SUNPOU
 62
     0
440
 16777216
100
AcDbTrace
 10
-10336.96324985348
 20
5402.74229012615
 30
0.0
 11
-10336.96324985348
 21
5385.74229012615
 31
0.0
 12
-10285.96324985348
 22
5394.24229012615
 32
0.0
 13
-10285.96324985348
 23
5394.24229012615
 33
0.0
  0
MTEXT
  5
1AF62
330
1A8D7
100
AcDbEntity
  8
SUNPOU
 62
     0
440
 16777216
100
AcDbMText
 10
-10375.96324985348
 20
5452.74229012615
 30
0.0
 40
75.0
 41
0.0
 71
     5
 72
     1
  1
\A1;180
 73
     1
 44
1.0
  0
POINT
  5
1AF63
330
1A8D7
100
AcDbEntity
  8
DEFPOINTS
 62
     0
440
 16777216
100
AcDbPoint
 10
-10465.96324985348
 20
5156.693832299376
 30
0.0
  0
POINT
  5
1AF64
330
1A8D7
100
AcDbEntity
  8
DEFPOINTS
 62
     0
440
 16777216
100
AcDbPoint
 10
-10285.96324985348
 20
5010.355249622212
 30
0.0
  0
POINT
  5
1AF65
330
1A8D7
100
AcDbEntity
  8
DEFPOINTS
 62
     0
440
 16777216
100
AcDbPoint
 10
-10285.96324985348
 20
5394.24229012615
 30
0.0
  0
ENDBLK
  5
1A8E2
330
1A8D7
100
AcDbEntity
  8
0
100
AcDbBlockEnd
  0
BLOCK
  5
1A8EE
330
1A8E4
100
AcDbEntity
  8
0
100
AcDbBlockBegin
  2
*D47
 70
     1
 10
0.0
 20
0.0
 30
0.0
  3
*D47
  1

  0
LINE
  5
1AF66
330
1A8E4
100
AcDbEntity
  8
SUNPOU
 62
     0
440
 16777216
370
    -2
100
AcDbLine
 10
-10270.96324985348
 20
5021.693832299376
 30
0.0
 11
-10042.35102193229
 21
5021.693832299375
 31
0.0
  0
LINE
  5
1AF67
330
1A8E4
100
AcDbEntity
  8
SUNPOU
 62
     0
440
 16777216
370
    -2
100
AcDbLine
 10
-10413.87533776557
 20
5201.693832299375
 30
0.0
 11
-10042.35102193229
 21
5201.693832299374
 31
0.0
  0
LINE
  5
1AF68
330
1A8E4
100
AcDbEntity
  8
SUNPOU
 62
     0
440
 16777216
370
    -2
100
AcDbLine
 10
-10057.35102193229
 20
5072.693832299375
 30
0.0
 11
-10057.35102193229
 21
5150.693832299374
 31
0.0
  0
SOLID
  5
1AF69
330
1A8E4
100
AcDbEntity
  8
SUNPOU
 62
     0
440
 16777216
100
AcDbTrace
 10
-10065.85102193229
 20
5072.693832299375
 30
0.0
 11
-10048.85102193229
 21
5072.693832299375
 31
0.0
 12
-10057.35102193229
 22
5021.693832299375
 32
0.0
 13
-10057.35102193229
 23
5021.693832299375
 33
0.0
  0
SOLID
  5
1AF6A
330
1A8E4
100
AcDbEntity
  8
SUNPOU
 62
     0
440
 16777216
100
AcDbTrace
 10
-10065.85102193229
 20
5150.693832299374
 30
0.0
 11
-10048.85102193229
 21
5150.693832299374
 31
0.0
 12
-10057.35102193229
 22
5201.693832299374
 32
0.0
 13
-10057.35102193229
 23
5201.693832299374
 33
0.0
  0
MTEXT
  5
1AF6B
330
1A8E4
100
AcDbEntity
  8
SUNPOU
 62
     0
440
 16777216
100
AcDbMText
 10
-10115.85102193229
 20
5111.693832299373
 30
0.0
 40
75.0
 41
0.0
 71
     5
 72
     1
  1
\A1;180
 11
6.123031769111886E-17
 21
1.0
 31
0.0
 73
     1
 44
1.0
  0
POINT
  5
1AF6C
330
1A8E4
100
AcDbEntity
  8
DEFPOINTS
 62
     0
440
 16777216
100
AcDbPoint
 10
-10330.96324985348
 20
5021.693832299376
 30
0.0
  0
POINT
  5
1AF6D
330
1A8E4
100
AcDbEntity
  8
DEFPOINTS
 62
     0
440
 16777216
100
AcDbPoint
 10
-10473.87533776557
 20
5201.693832299375
 30
0.0
  0
POINT
  5
1AF6E
330
1A8E4
100
AcDbEntity
  8
DEFPOINTS
 62
     0
440
 16777216
100
AcDbPoint
 10
-10057.35102193229
 20
5201.693832299374
 30
0.0
  0
ENDBLK
  5
1A8EF
330
1A8E4
100
AcDbEntity
  8
0
100
AcDbBlockEnd
  0
BLOCK
  5
1A965
330
1A95A
100
AcDbEntity
  8
0
100
AcDbBlockBegin
  2
*D49
 70
     1
 10
0.0
 20
0.0
 30
0.0
  3
*D49
  1

  0
LINE
  5
1AF78
330
1A95A
100
AcDbEntity
  8
SUNPOU
 62
     0
440
 16777216
370
    -2
100
AcDbLine
 10
-10645.96324985348
 20
7392.693832299375
 30
0.0
 11
-10645.96324985348
 21
7771.952265600489
 31
0.0
  0
LINE
  5
1AF79
330
1A95A
100
AcDbEntity
  8
SUNPOU
 62
     0
440
 16777216
370
    -2
100
AcDbLine
 10
-10545.96324985348
 20
7392.693832299378
 30
0.0
 11
-10545.96324985348
 21
7771.952265600489
 31
0.0
  0
LINE
  5
1AF7A
330
1A95A
100
AcDbEntity
  8
SUNPOU
 62
     0
440
 16777216
370
    -2
100
AcDbLine
 10
-10696.96324985348
 20
7756.952265600489
 30
0.0
 11
-10747.96324985348
 21
7756.952265600489
 31
0.0
  0
LINE
  5
1AF7B
330
1A95A
100
AcDbEntity
  8
SUNPOU
 62
     0
440
 16777216
370
    -2
100
AcDbLine
 10
-10494.96324985348
 20
7756.952265600489
 30
0.0
 11
-10443.96324985348
 21
7756.952265600489
 31
0.0
  0
SOLID
  5
1AF7C
330
1A95A
100
AcDbEntity
  8
SUNPOU
 62
     0
440
 16777216
100
AcDbTrace
 10
-10696.96324985348
 20
7765.452265600489
 30
0.0
 11
-10696.96324985348
 21
7748.452265600489
 31
0.0
 12
-10645.96324985348
 22
7756.952265600489
 32
0.0
 13
-10645.96324985348
 23
7756.952265600489
 33
0.0
  0
SOLID
  5
1AF7D
330
1A95A
100
AcDbEntity
  8
SUNPOU
 62
     0
440
 16777216
100
AcDbTrace
 10
-10494.96324985348
 20
7765.452265600489
 30
0.0
 11
-10494.96324985348
 21
7748.452265600489
 31
0.0
 12
-10545.96324985348
 22
7756.952265600489
 32
0.0
 13
-10545.96324985348
 23
7756.952265600489
 33
0.0
  0
MTEXT
  5
1AF7E
330
1A95A
100
AcDbEntity
  8
SUNPOU
 62
     0
440
 16777216
100
AcDbMText
 10
-10595.96324985348
 20
7815.452265600489
 30
0.0
 40
75.0
 41
0.0
 71
     5
 72
     1
  1
\A1;100
 73
     1
 44
1.0
  0
POINT
  5
1AF7F
330
1A95A
100
AcDbEntity
  8
DEFPOINTS
 62
     0
440
 16777216
100
AcDbPoint
 10
-10645.96324985348
 20
7332.693832299375
 30
0.0
  0
POINT
  5
1AF80
330
1A95A
100
AcDbEntity
  8
DEFPOINTS
 62
     0
440
 16777216
100
AcDbPoint
 10
-10545.96324985348
 20
7332.693832299378
 30
0.0
  0
POINT
  5
1AF81
330
1A95A
100
AcDbEntity
  8
DEFPOINTS
 62
     0
440
 16777216
100
AcDbPoint
 10
-10545.96324985348
 20
7756.952265600489
 30
0.0
  0
ENDBLK
  5
1A966
330
1A95A
100
AcDbEntity
  8
0
100
AcDbBlockEnd
  0
BLOCK
  5
1A972
330
1A968
100
AcDbEntity
  8
0
100
AcDbBlockBegin
  2
*D50
 70
     1
 10
0.0
 20
0.0
 30
0.0
  3
*D50
  1

  0
LINE
  5
1AF82
330
1A968
100
AcDbEntity
  8
SUNPOU
 62
     0
440
 16777216
370
    -2
100
AcDbLine
 10
-10545.96324985348
 20
7392.693832299378
 30
0.0
 11
-10545.96324985348
 21
7771.952265600489
 31
0.0
  0
LINE
  5
1AF83
330
1A968
100
AcDbEntity
  8
SUNPOU
 62
     0
440
 16777216
370
    -2
100
AcDbLine
 10
-9195.963249853481
 20
5001.693832299375
 30
0.0
 11
-9195.963249853481
 21
7771.952265600489
 31
0.0
  0
LINE
  5
1AF84
330
1A968
100
AcDbEntity
  8
SUNPOU
 62
     0
440
 16777216
370
    -2
100
AcDbLine
 10
-10494.96324985348
 20
7756.952265600489
 30
0.0
 11
-9246.963249853481
 21
7756.952265600489
 31
0.0
  0
SOLID
  5
1AF85
330
1A968
100
AcDbEntity
  8
SUNPOU
 62
     0
440
 16777216
100
AcDbTrace
 10
-10494.96324985348
 20
7765.452265600489
 30
0.0
 11
-10494.96324985348
 21
7748.452265600489
 31
0.0
 12
-10545.96324985348
 22
7756.952265600489
 32
0.0
 13
-10545.96324985348
 23
7756.952265600489
 33
0.0
  0
SOLID
  5
1AF86
330
1A968
100
AcDbEntity
  8
SUNPOU
 62
     0
440
 16777216
100
AcDbTrace
 10
-9246.963249853481
 20
7765.452265600489
 30
0.0
 11
-9246.963249853481
 21
7748.452265600489
 31
0.0
 12
-9195.963249853481
 22
7756.952265600489
 32
0.0
 13
-9195.963249853481
 23
7756.952265600489
 33
0.0
  0
MTEXT
  5
1AF87
330
1A968
100
AcDbEntity
  8
SUNPOU
 62
     0
440
 16777216
100
AcDbMText
 10
-9870.963249853481
 20
7815.452265600489
 30
0.0
 40
75.0
 41
0.0
 71
     5
 72
     1
  1
\A1;1350
 73
     1
 44
1.0
  0
POINT
  5
1AF88
330
1A968
100
AcDbEntity
  8
DEFPOINTS
 62
     0
440
 16777216
100
AcDbPoint
 10
-10545.96324985348
 20
7332.693832299378
 30
0.0
  0
POINT
  5
1AF89
330
1A968
100
AcDbEntity
  8
DEFPOINTS
 62
     0
440
 16777216
100
AcDbPoint
 10
-9195.963249853481
 20
4941.693832299375
 30
0.0
  0
POINT
  5
1AF8A
330
1A968
100
AcDbEntity
  8
DEFPOINTS
 62
     0
440
 16777216
100
AcDbPoint
 10
-9195.963249853481
 20
7756.952265600489
 30
0.0
  0
ENDBLK
  5
1A973
330
1A968
100
AcDbEntity
  8
0
100
AcDbBlockEnd
  0
BLOCK
  5
1A97F
330
1A975
100
AcDbEntity
  8
0
100
AcDbBlockBegin
  2
*D51
 70
     1
 10
0.0
 20
0.0
 30
0.0
  3
*D51
  1

  0
LINE
  5
1AF8B
330
1A975
100
AcDbEntity
  8
SUNPOU
 62
     0
440
 16777216
370
    -2
100
AcDbLine
 10
-9195.963249853481
 20
5001.693832299375
 30
0.0
 11
-9195.963249853481
 21
7771.952265600489
 31
0.0
  0
LINE
  5
1AF8C
330
1A975
100
AcDbEntity
  8
SUNPOU
 62
     0
440
 16777216
370
    -2
100
AcDbLine
 10
-8495.963249853477
 20
5001.693832299376
 30
0.0
 11
-8495.963249853477
 21
7771.952265600489
 31
0.0
  0
LINE
  5
1AF8D
330
1A975
100
AcDbEntity
  8
SUNPOU
 62
     0
440
 16777216
370
    -2
100
AcDbLine
 10
-9144.963249853481
 20
7756.952265600489
 30
0.0
 11
-8546.963249853477
 21
7756.952265600489
 31
0.0
  0
SOLID
  5
1AF8E
330
1A975
100
AcDbEntity
  8
SUNPOU
 62
     0
440
 16777216
100
AcDbTrace
 10
-9144.963249853481
 20
7765.452265600489
 30
0.0
 11
-9144.963249853481
 21
7748.452265600489
 31
0.0
 12
-9195.963249853481
 22
7756.952265600489
 32
0.0
 13
-9195.963249853481
 23
7756.952265600489
 33
0.0
  0
SOLID
  5
1AF8F
330
1A975
100
AcDbEntity
  8
SUNPOU
 62
     0
440
 16777216
100
AcDbTrace
 10
-8546.963249853477
 20
7765.452265600489
 30
0.0
 11
-8546.963249853477
 21
7748.452265600489
 31
0.0
 12
-8495.963249853477
 22
7756.952265600489
 32
0.0
 13
-8495.963249853477
 23
7756.952265600489
 33
0.0
  0
MTEXT
  5
1AF90
330
1A975
100
AcDbEntity
  8
SUNPOU
 62
     0
440
 16777216
100
AcDbMText
 10
-8845.96324985348
 20
7815.452265600489
 30
0.0
 40
75.0
 41
0.0
 71
     5
 72
     1
  1
\A1;700
 73
     1
 44
1.0
  0
POINT
  5
1AF91
330
1A975
100
AcDbEntity
  8
DEFPOINTS
 62
     0
440
 16777216
100
AcDbPoint
 10
-9195.963249853481
 20
4941.693832299375
 30
0.0
  0
POINT
  5
1AF92
330
1A975
100
AcDbEntity
  8
DEFPOINTS
 62
     0
440
 16777216
100
AcDbPoint
 10
-8495.963249853477
 20
4941.693832299376
 30
0.0
  0
POINT
  5
1AF93
330
1A975
100
AcDbEntity
  8
DEFPOINTS
 62
     0
440
 16777216
100
AcDbPoint
 10
-8495.963249853477
 20
7756.952265600489
 30
0.0
  0
ENDBLK
  5
1A980
330
1A975
100
AcDbEntity
  8
0
100
AcDbBlockEnd
  0
BLOCK
  5
1A98D
330
1A982
100
AcDbEntity
  8
0
100
AcDbBlockBegin
  2
*D52
 70
     1
 10
0.0
 20
0.0
 30
0.0
  3
*D52
  1

  0
LINE
  5
1AF94
330
1A982
100
AcDbEntity
  8
SUNPOU
 62
     0
440
 16777216
370
    -2
100
AcDbLine
 10
-8435.963249853481
 20
4841.693832299375
 30
0.0
 11
-8074.821185489433
 21
4841.693832299375
 31
0.0
  0
LINE
  5
1AF95
330
1A982
100
AcDbEntity
  8
SUNPOU
 62
     0
440
 16777216
370
    -2
100
AcDbLine
 10
-8435.963249853477
 20
4941.693832299376
 30
0.0
 11
-8074.821185489433
 21
4941.693832299376
 31
0.0
  0
LINE
  5
1AF96
330
1A982
100
AcDbEntity
  8
SUNPOU
 62
     0
440
 16777216
370
    -2
100
AcDbLine
 10
-8089.821185489433
 20
4790.693832299375
 30
0.0
 11
-8089.821185489433
 21
4739.693832299375
 31
0.0
  0
LINE
  5
1AF97
330
1A982
100
AcDbEntity
  8
SUNPOU
 62
     0
440
 16777216
370
    -2
100
AcDbLine
 10
-8089.821185489433
 20
4992.693832299376
 30
0.0
 11
-8089.821185489433
 21
5043.693832299376
 31
0.0
  0
SOLID
  5
1AF98
330
1A982
100
AcDbEntity
  8
SUNPOU
 62
     0
440
 16777216
100
AcDbTrace
 10
-8098.321185489433
 20
4790.693832299375
 30
0.0
 11
-8081.321185489433
 21
4790.693832299375
 31
0.0
 12
-8089.821185489433
 22
4841.693832299375
 32
0.0
 13
-8089.821185489433
 23
4841.693832299375
 33
0.0
  0
SOLID
  5
1AF99
330
1A982
100
AcDbEntity
  8
SUNPOU
 62
     0
440
 16777216
100
AcDbTrace
 10
-8098.321185489433
 20
4992.693832299376
 30
0.0
 11
-8081.321185489433
 21
4992.693832299376
 31
0.0
 12
-8089.821185489433
 22
4941.693832299376
 32
0.0
 13
-8089.821185489433
 23
4941.693832299376
 33
0.0
  0
MTEXT
  5
1AF9A
330
1A982
100
AcDbEntity
  8
SUNPOU
 62
     0
440
 16777216
100
AcDbMText
 10
-8148.321185489434
 20
4891.693832299375
 30
0.0
 40
75.0
 41
0.0
 71
     5
 72
     1
  1
\A1;100
 11
6.123031769111886E-17
 21
1.0
 31
0.0
 73
     1
 44
1.0
  0
POINT
  5
1AF9B
330
1A982
100
AcDbEntity
  8
DEFPOINTS
 62
     0
440
 16777216
100
AcDbPoint
 10
-8495.963249853481
 20
4841.693832299375
 30
0.0
  0
POINT
  5
1AF9C
330
1A982
100
AcDbEntity
  8
DEFPOINTS
 62
     0
440
 16777216
100
AcDbPoint
 10
-8495.963249853477
 20
4941.693832299376
 30
0.0
  0
POINT
  5
1AF9D
330
1A982
100
AcDbEntity
  8
DEFPOINTS
 62
     0
440
 16777216
100
AcDbPoint
 10
-8089.821185489433
 20
4941.693832299376
 30
0.0
  0
ENDBLK
  5
1A98E
330
1A982
100
AcDbEntity
  8
0
100
AcDbBlockEnd
  0
BLOCK
  5
1A99A
330
1A990
100
AcDbEntity
  8
0
100
AcDbBlockBegin
  2
*D53
 70
     1
 10
0.0
 20
0.0
 30
0.0
  3
*D53
  1

  0
LINE
  5
1AF9E
330
1A990
100
AcDbEntity
  8
SUNPOU
 62
     0
440
 16777216
370
    -2
100
AcDbLine
 10
-8435.963249853477
 20
4941.693832299376
 30
0.0
 11
-8074.821185489433
 21
4941.693832299376
 31
0.0
  0
LINE
  5
1AF9F
330
1A990
100
AcDbEntity
  8
SUNPOU
 62
     0
440
 16777216
370
    -2
100
AcDbLine
 10
-10485.96324985348
 20
6841.693832299375
 30
0.0
 11
-8074.821185489433
 21
6841.693832299374
 31
0.0
  0
LINE
  5
1AFA0
330
1A990
100
AcDbEntity
  8
SUNPOU
 62
     0
440
 16777216
370
    -2
100
AcDbLine
 10
-8089.821185489433
 20
4992.693832299376
 30
0.0
 11
-8089.821185489433
 21
6790.693832299374
 31
0.0
  0
SOLID
  5
1AFA1
330
1A990
100
AcDbEntity
  8
SUNPOU
 62
     0
440
 16777216
100
AcDbTrace
 10
-8098.321185489433
 20
4992.693832299376
 30
0.0
 11
-8081.321185489433
 21
4992.693832299376
 31
0.0
 12
-8089.821185489433
 22
4941.693832299376
 32
0.0
 13
-8089.821185489433
 23
4941.693832299376
 33
0.0
  0
SOLID
  5
1AFA2
330
1A990
100
AcDbEntity
  8
SUNPOU
 62
     0
440
 16777216
100
AcDbTrace
 10
-8098.321185489433
 20
6790.693832299374
 30
0.0
 11
-8081.321185489433
 21
6790.693832299374
 31
0.0
 12
-8089.821185489433
 22
6841.693832299374
 32
0.0
 13
-8089.821185489433
 23
6841.693832299374
 33
0.0
  0
MTEXT
  5
1AFA3
330
1A990
100
AcDbEntity
  8
SUNPOU
 62
     0
440
 16777216
100
AcDbMText
 10
-8148.321185489434
 20
5891.693832299375
 30
0.0
 40
75.0
 41
0.0
 71
     5
 72
     1
  1
\A1;1900
 11
6.123031769111886E-17
 21
1.0
 31
0.0
 73
     1
 44
1.0
  0
POINT
  5
1AFA4
330
1A990
100
AcDbEntity
  8
DEFPOINTS
 62
     0
440
 16777216
100
AcDbPoint
 10
-8495.963249853477
 20
4941.693832299376
 30
0.0
  0
POINT
  5
1AFA5
330
1A990
100
AcDbEntity
  8
DEFPOINTS
 62
     0
440
 16777216
100
AcDbPoint
 10
-10545.96324985348
 20
6841.693832299375
 30
0.0
  0
POINT
  5
1AFA6
330
1A990
100
AcDbEntity
  8
DEFPOINTS
 62
     0
440
 16777216
100
AcDbPoint
 10
-8089.821185489433
 20
6841.693832299374
 30
0.0
  0
ENDBLK
  5
1A99B
330
1A990
100
AcDbEntity
  8
0
100
AcDbBlockEnd
  0
BLOCK
  5
1A9A7
330
1A99D
100
AcDbEntity
  8
0
100
AcDbBlockBegin
  2
*D54
 70
     1
 10
0.0
 20
0.0
 30
0.0
  3
*D54
  1

  0
LINE
  5
1AFA7
330
1A99D
100
AcDbEntity
  8
SUNPOU
 62
     0
440
 16777216
370
    -2
100
AcDbLine
 10
-10485.96324985348
 20
6841.693832299375
 30
0.0
 11
-8074.821185489433
 21
6841.693832299374
 31
0.0
  0
LINE
  5
1AFA8
330
1A99D
100
AcDbEntity
  8
SUNPOU
 62
     0
440
 16777216
370
    -2
100
AcDbLine
 10
-10494.96324985348
 20
7341.693832299378
 30
0.0
 11
-8074.821185489433
 21
7341.693832299377
 31
0.0
  0
LINE
  5
1AFA9
330
1A99D
100
AcDbEntity
  8
SUNPOU
 62
     0
440
 16777216
370
    -2
100
AcDbLine
 10
-8089.821185489433
 20
6892.693832299374
 30
0.0
 11
-8089.821185489433
 21
7290.693832299377
 31
0.0
  0
SOLID
  5
1AFAA
330
1A99D
100
AcDbEntity
  8
SUNPOU
 62
     0
440
 16777216
100
AcDbTrace
 10
-8098.321185489433
 20
6892.693832299374
 30
0.0
 11
-8081.321185489433
 21
6892.693832299374
 31
0.0
 12
-8089.821185489433
 22
6841.693832299374
 32
0.0
 13
-8089.821185489433
 23
6841.693832299374
 33
0.0
  0
SOLID
  5
1AFAB
330
1A99D
100
AcDbEntity
  8
SUNPOU
 62
     0
440
 16777216
100
AcDbTrace
 10
-8098.321185489433
 20
7290.693832299377
 30
0.0
 11
-8081.321185489433
 21
7290.693832299377
 31
0.0
 12
-8089.821185489433
 22
7341.693832299377
 32
0.0
 13
-8089.821185489433
 23
7341.693832299377
 33
0.0
  0
MTEXT
  5
1AFAC
330
1A99D
100
AcDbEntity
  8
SUNPOU
 62
     0
440
 16777216
100
AcDbMText
 10
-8148.321185489434
 20
7091.693832299375
 30
0.0
 40
75.0
 41
0.0
 71
     5
 72
     1
  1
\A1;500
 11
6.123031769111886E-17
 21
1.0
 31
0.0
 73
     1
 44
1.0
  0
POINT
  5
1AFAD
330
1A99D
100
AcDbEntity
  8
DEFPOINTS
 62
     0
440
 16777216
100
AcDbPoint
 10
-10545.96324985348
 20
6841.693832299375
 30
0.0
  0
POINT
  5
1AFAE
330
1A99D
100
AcDbEntity
  8
DEFPOINTS
 62
     0
440
 16777216
100
AcDbPoint
 10
-10554.96324985348
 20
7341.693832299378
 30
0.0
  0
POINT
  5
1AFAF
330
1A99D
100
AcDbEntity
  8
DEFPOINTS
 62
     0
440
 16777216
100
AcDbPoint
 10
-8089.821185489433
 20
7341.693832299377
 30
0.0
  0
ENDBLK
  5
1A9A8
330
1A99D
100
AcDbEntity
  8
0
100
AcDbBlockEnd
  0
BLOCK
  5
1F0F4
330
1F0EA
100
AcDbEntity
  8
0
100
AcDbBlockBegin
  2
*D229
 70
     1
 10
0.0
 20
0.0
 30
0.0
  3
*D229
  1

  0
LINE
  5
1F147
330
1F0EA
100
AcDbEntity
  8
SUNPOU
 62
     0
440
 16777216
370
    -2
100
AcDbLine
 10
-10686.96324985348
 20
4841.693832299374
 30
0.0
 11
-11214.52640554785
 21
4841.693832299374
 31
0.0
  0
LINE
  5
1F148
330
1F0EA
100
AcDbEntity
  8
SUNPOU
 62
     0
440
 16777216
370
    -2
100
AcDbLine
 10
-10705.96324985348
 20
5021.693832299374
 30
0.0
 11
-11214.52640554785
 21
5021.693832299374
 31
0.0
  0
LINE
  5
1F149
330
1F0EA
100
AcDbEntity
  8
SUNPOU
 62
     0
440
 16777216
370
    -2
100
AcDbLine
 10
-11199.52640554785
 20
4892.693832299374
 30
0.0
 11
-11199.52640554785
 21
4970.693832299374
 31
0.0
  0
SOLID
  5
1F14A
330
1F0EA
100
AcDbEntity
  8
SUNPOU
 62
     0
440
 16777216
100
AcDbTrace
 10
-11208.02640554785
 20
4892.693832299374
 30
0.0
 11
-11191.02640554785
 21
4892.693832299374
 31
0.0
 12
-11199.52640554785
 22
4841.693832299374
 32
0.0
 13
-11199.52640554785
 23
4841.693832299374
 33
0.0
  0
SOLID
  5
1F14B
330
1F0EA
100
AcDbEntity
  8
SUNPOU
 62
     0
440
 16777216
100
AcDbTrace
 10
-11208.02640554785
 20
4970.693832299374
 30
0.0
 11
-11191.02640554785
 21
4970.693832299374
 31
0.0
 12
-11199.52640554785
 22
5021.693832299374
 32
0.0
 13
-11199.52640554785
 23
5021.693832299374
 33
0.0
  0
MTEXT
  5
1F14C
330
1F0EA
100
AcDbEntity
  8
SUNPOU
 62
     0
440
 16777216
100
AcDbMText
 10
-11258.02640554785
 20
4931.693832299372
 30
0.0
 40
75.0
 41
0.0
 71
     5
 72
     1
  1
\A1;180
 11
6.123031769111886E-17
 21
1.0
 31
0.0
 73
     1
 44
1.0
  0
POINT
  5
1F14D
330
1F0EA
100
AcDbEntity
  8
DEFPOINTS
 62
     0
440
 16777216
100
AcDbPoint
 10
-10626.96324985348
 20
4841.693832299374
 30
0.0
  0
POINT
  5
1F14E
330
1F0EA
100
AcDbEntity
  8
DEFPOINTS
 62
     0
440
 16777216
100
AcDbPoint
 10
-10645.96324985348
 20
5021.693832299374
 30
0.0
  0
POINT
  5
1F14F
330
1F0EA
100
AcDbEntity
  8
DEFPOINTS
 62
     0
440
 16777216
100
AcDbPoint
 10
-11199.52640554785
 20
5021.693832299374
 30
0.0
  0
ENDBLK
  5
1F0F5
330
1F0EA
100
AcDbEntity
  8
0
100
AcDbBlockEnd
  0
BLOCK
  5
1F100
330
1F0F6
100
AcDbEntity
  8
0
100
AcDbBlockBegin
  2
*D230
 70
     1
 10
0.0
 20
0.0
 30
0.0
  3
*D230
  1

  0
LINE
  5
1F13E
330
1F0F6
100
AcDbEntity
  8
SUNPOU
 62
     0
440
 16777216
370
    -2
100
AcDbLine
 10
-10686.96324985348
 20
4841.693832299374
 30
0.0
 11
-11038.64296173034
 21
4841.693832299374
 31
0.0
  0
LINE
  5
1F13F
330
1F0F6
100
AcDbEntity
  8
SUNPOU
 62
     0
440
 16777216
370
    -2
100
AcDbLine
 10
-10705.96324985348
 20
5541.693832299374
 30
0.0
 11
-11038.64296173034
 21
5541.693832299374
 31
0.0
  0
LINE
  5
1F140
330
1F0F6
100
AcDbEntity
  8
SUNPOU
 62
     0
440
 16777216
370
    -2
100
AcDbLine
 10
-11023.64296173034
 20
4892.693832299374
 30
0.0
 11
-11023.64296173034
 21
5490.693832299374
 31
0.0
  0
SOLID
  5
1F141
330
1F0F6
100
AcDbEntity
  8
SUNPOU
 62
     0
440
 16777216
100
AcDbTrace
 10
-11032.14296173034
 20
4892.693832299374
 30
0.0
 11
-11015.14296173034
 21
4892.693832299374
 31
0.0
 12
-11023.64296173034
 22
4841.693832299374
 32
0.0
 13
-11023.64296173034
 23
4841.693832299374
 33
0.0
  0
SOLID
  5
1F142
330
1F0F6
100
AcDbEntity
  8
SUNPOU
 62
     0
440
 16777216
100
AcDbTrace
 10
-11032.14296173034
 20
5490.693832299374
 30
0.0
 11
-11015.14296173034
 21
5490.693832299374
 31
0.0
 12
-11023.64296173034
 22
5541.693832299374
 32
0.0
 13
-11023.64296173034
 23
5541.693832299374
 33
0.0
  0
MTEXT
  5
1F143
330
1F0F6
100
AcDbEntity
  8
SUNPOU
 62
     0
440
 16777216
100
AcDbMText
 10
-11082.14296173034
 20
5191.693832299372
 30
0.0
 40
75.0
 41
0.0
 71
     5
 72
     1
  1
\A1;700
 11
6.123031769111886E-17
 21
1.0
 31
0.0
 73
     1
 44
1.0
  0
POINT
  5
1F144
330
1F0F6
100
AcDbEntity
  8
DEFPOINTS
 62
     0
440
 16777216
100
AcDbPoint
 10
-10626.96324985348
 20
4841.693832299374
 30
0.0
  0
POINT
  5
1F145
330
1F0F6
100
AcDbEntity
  8
DEFPOINTS
 62
     0
440
 16777216
100
AcDbPoint
 10
-10645.96324985348
 20
5541.693832299374
 30
0.0
  0
POINT
  5
1F146
330
1F0F6
100
AcDbEntity
  8
DEFPOINTS
 62
     0
440
 16777216
100
AcDbPoint
 10
-11023.64296173034
 20
5541.693832299374
 30
0.0
  0
ENDBLK
  5
1F101
330
1F0F6
100
AcDbEntity
  8
0
100
AcDbBlockEnd
  0
BLOCK
  5
1F10C
330
1F102
100
AcDbEntity
  8
0
100
AcDbBlockBegin
  2
*D231
 70
     1
 10
0.0
 20
0.0
 30
0.0
  3
*D231
  1

  0
LINE
  5
1F150
330
1F102
100
AcDbEntity
  8
SUNPOU
 62
     0
440
 16777216
370
    -2
100
AcDbLine
 10
-10705.96324985347
 20
5021.693832299374
 30
0.0
 11
-11214.52640554785
 21
5021.693832299374
 31
0.0
  0
LINE
  5
1F151
330
1F102
100
AcDbEntity
  8
SUNPOU
 62
     0
440
 16777216
370
    -2
100
AcDbLine
 10
-10696.96324985348
 20
7341.693832299374
 30
0.0
 11
-11214.52640554785
 21
7341.693832299374
 31
0.0
  0
LINE
  5
1F152
330
1F102
100
AcDbEntity
  8
SUNPOU
 62
     0
440
 16777216
370
    -2
100
AcDbLine
 10
-11199.52640554785
 20
5072.693832299374
 30
0.0
 11
-11199.52640554785
 21
7290.693832299374
 31
0.0
  0
SOLID
  5
1F153
330
1F102
100
AcDbEntity
  8
SUNPOU
 62
     0
440
 16777216
100
AcDbTrace
 10
-11208.02640554785
 20
5072.693832299374
 30
0.0
 11
-11191.02640554785
 21
5072.693832299374
 31
0.0
 12
-11199.52640554785
 22
5021.693832299374
 32
0.0
 13
-11199.52640554785
 23
5021.693832299374
 33
0.0
  0
SOLID
  5
1F154
330
1F102
100
AcDbEntity
  8
SUNPOU
 62
     0
440
 16777216
100
AcDbTrace
 10
-11208.02640554785
 20
7290.693832299374
 30
0.0
 11
-11191.02640554785
 21
7290.693832299374
 31
0.0
 12
-11199.52640554785
 22
7341.693832299374
 32
0.0
 13
-11199.52640554785
 23
7341.693832299374
 33
0.0
  0
MTEXT
  5
1F155
330
1F102
100
AcDbEntity
  8
SUNPOU
 62
     0
440
 16777216
100
AcDbMText
 10
-11258.02640554785
 20
6181.693832299372
 30
0.0
 40
75.0
 41
0.0
 71
     5
 72
     1
  1
\A1;2320
 11
6.123031769111886E-17
 21
1.0
 31
0.0
 73
     1
 44
1.0
  0
POINT
  5
1F156
330
1F102
100
AcDbEntity
  8
DEFPOINTS
 62
     0
440
 16777216
100
AcDbPoint
 10
-10645.96324985347
 20
5021.693832299374
 30
0.0
  0
POINT
  5
1F157
330
1F102
100
AcDbEntity
  8
DEFPOINTS
 62
     0
440
 16777216
100
AcDbPoint
 10
-10636.96324985348
 20
7341.693832299374
 30
0.0
  0
POINT
  5
1F158
330
1F102
100
AcDbEntity
  8
DEFPOINTS
 62
     0
440
 16777216
100
AcDbPoint
 10
-11199.52640554785
 20
7341.693832299374
 30
0.0
  0
ENDBLK
  5
1F10D
330
1F102
100
AcDbEntity
  8
0
100
AcDbBlockEnd
  0
BLOCK
  5
1F118
330
1F10E
100
AcDbEntity
  8
0
100
AcDbBlockBegin
  2
*D232
 70
     1
 10
0.0
 20
0.0
 30
0.0
  3
*D232
  1

  0
LINE
  5
1F159
330
1F10E
100
AcDbEntity
  8
SUNPOU
 62
     0
440
 16777216
370
    -2
100
AcDbLine
 10
-10686.96324985348
 20
4841.693832299374
 30
0.0
 11
-11375.33415405691
 21
4841.693832299374
 31
0.0
  0
LINE
  5
1F15A
330
1F10E
100
AcDbEntity
  8
SUNPOU
 62
     0
440
 16777216
370
    -2
100
AcDbLine
 10
-10696.96324985348
 20
7341.693832299374
 30
0.0
 11
-11375.33415405691
 21
7341.693832299374
 31
0.0
  0
LINE
  5
1F15B
330
1F10E
100
AcDbEntity
  8
SUNPOU
 62
     0
440
 16777216
370
    -2
100
AcDbLine
 10
-11360.33415405691
 20
4892.693832299374
 30
0.0
 11
-11360.33415405691
 21
7290.693832299374
 31
0.0
  0
SOLID
  5
1F15C
330
1F10E
100
AcDbEntity
  8
SUNPOU
 62
     0
440
 16777216
100
AcDbTrace
 10
-11368.83415405691
 20
4892.693832299374
 30
0.0
 11
-11351.83415405691
 21
4892.693832299374
 31
0.0
 12
-11360.33415405691
 22
4841.693832299374
 32
0.0
 13
-11360.33415405691
 23
4841.693832299374
 33
0.0
  0
SOLID
  5
1F15D
330
1F10E
100
AcDbEntity
  8
SUNPOU
 62
     0
440
 16777216
100
AcDbTrace
 10
-11368.83415405691
 20
7290.693832299374
 30
0.0
 11
-11351.83415405691
 21
7290.693832299374
 31
0.0
 12
-11360.33415405691
 22
7341.693832299374
 32
0.0
 13
-11360.33415405691
 23
7341.693832299374
 33
0.0
  0
MTEXT
  5
1F15E
330
1F10E
100
AcDbEntity
  8
SUNPOU
 62
     0
440
 16777216
100
AcDbMText
 10
-11418.83415405691
 20
6091.693832299372
 30
0.0
 40
75.0
 41
0.0
 71
     5
 72
     1
  1
\A1;2500
 11
6.123031769111886E-17
 21
1.0
 31
0.0
 73
     1
 44
1.0
  0
POINT
  5
1F15F
330
1F10E
100
AcDbEntity
  8
DEFPOINTS
 62
     0
440
 16777216
100
AcDbPoint
 10
-10626.96324985348
 20
4841.693832299374
 30
0.0
  0
POINT
  5
1F160
330
1F10E
100
AcDbEntity
  8
DEFPOINTS
 62
     0
440
 16777216
100
AcDbPoint
 10
-10636.96324985348
 20
7341.693832299374
 30
0.0
  0
POINT
  5
1F161
330
1F10E
100
AcDbEntity
  8
DEFPOINTS
 62
     0
440
 16777216
100
AcDbPoint
 10
-11360.33415405691
 20
7341.693832299374
 30
0.0
  0
ENDBLK
  5
1F119
330
1F10E
100
AcDbEntity
  8
0
100
AcDbBlockEnd
  0
BLOCK
  5
1F364
330
1F35A
100
AcDbEntity
  8
0
100
AcDbBlockBegin
  2
*D246
 70
     1
 10
0.0
 20
0.0
 30
0.0
  3
*D246
  1

  0
LINE
  5
1F37E
330
1F35A
100
AcDbEntity
  8
SUNPOU
 62
     0
440
 16777216
370
    -2
100
AcDbLine
 10
-10645.96324985348
 20
4800.693832299374
 30
0.0
 11
-10645.96324985348
 21
4332.81638095752
 31
0.0
  0
LINE
  5
1F37F
330
1F35A
100
AcDbEntity
  8
SUNPOU
 62
     0
440
 16777216
370
    -2
100
AcDbLine
 10
-10465.96324985348
 20
4781.693832299374
 30
0.0
 11
-10465.96324985348
 21
4332.81638095752
 31
0.0
  0
LINE
  5
1F380
330
1F35A
100
AcDbEntity
  8
SUNPOU
 62
     0
440
 16777216
370
    -2
100
AcDbLine
 10
-10594.96324985348
 20
4347.81638095752
 30
0.0
 11
-10516.96324985348
 21
4347.81638095752
 31
0.0
  0
SOLID
  5
1F381
330
1F35A
100
AcDbEntity
  8
SUNPOU
 62
     0
440
 16777216
100
AcDbTrace
 10
-10594.96324985348
 20
4356.31638095752
 30
0.0
 11
-10594.96324985348
 21
4339.31638095752
 31
0.0
 12
-10645.96324985348
 22
4347.81638095752
 32
0.0
 13
-10645.96324985348
 23
4347.81638095752
 33
0.0
  0
SOLID
  5
1F382
330
1F35A
100
AcDbEntity
  8
SUNPOU
 62
     0
440
 16777216
100
AcDbTrace
 10
-10516.96324985348
 20
4356.31638095752
 30
0.0
 11
-10516.96324985348
 21
4339.31638095752
 31
0.0
 12
-10465.96324985348
 22
4347.81638095752
 32
0.0
 13
-10465.96324985348
 23
4347.81638095752
 33
0.0
  0
MTEXT
  5
1F383
330
1F35A
100
AcDbEntity
  8
SUNPOU
 62
     0
440
 16777216
100
AcDbMText
 10
-10555.96324985348
 20
4406.31638095752
 30
0.0
 40
75.0
 41
0.0
 71
     5
 72
     1
  1
\A1;180
 73
     1
 44
1.0
  0
POINT
  5
1F384
330
1F35A
100
AcDbEntity
  8
DEFPOINTS
 62
     0
440
 16777216
100
AcDbPoint
 10
-10645.96324985348
 20
4860.693832299374
 30
0.0
  0
POINT
  5
1F385
330
1F35A
100
AcDbEntity
  8
DEFPOINTS
 62
     0
440
 16777216
100
AcDbPoint
 10
-10465.96324985348
 20
4841.693832299374
 30
0.0
  0
POINT
  5
1F386
330
1F35A
100
AcDbEntity
  8
DEFPOINTS
 62
     0
440
 16777216
100
AcDbPoint
 10
-10465.96324985348
 20
4347.81638095752
 30
0.0
  0
ENDBLK
  5
1F365
330
1F35A
100
AcDbEntity
  8
0
100
AcDbBlockEnd
  0
BLOCK
  5
1F370
330
1F366
100
AcDbEntity
  8
0
100
AcDbBlockBegin
  2
*D247
 70
     1
 10
0.0
 20
0.0
 30
0.0
  3
*D247
  1

  0
LINE
  5
1F387
330
1F366
100
AcDbEntity
  8
SUNPOU
 62
     0
440
 16777216
370
    -2
100
AcDbLine
 10
-10465.96324985348
 20
4781.693832299374
 30
0.0
 11
-10465.96324985348
 21
4332.81638095752
 31
0.0
  0
LINE
  5
1F388
330
1F366
100
AcDbEntity
  8
SUNPOU
 62
     0
440
 16777216
370
    -2
100
AcDbLine
 10
-8495.963249853481
 20
4781.693832299374
 30
0.0
 11
-8495.963249853481
 21
4332.81638095752
 31
0.0
  0
LINE
  5
1F389
330
1F366
100
AcDbEntity
  8
SUNPOU
 62
     0
440
 16777216
370
    -2
100
AcDbLine
 10
-10414.96324985348
 20
4347.81638095752
 30
0.0
 11
-8546.963249853481
 21
4347.81638095752
 31
0.0
  0
SOLID
  5
1F38A
330
1F366
100
AcDbEntity
  8
SUNPOU
 62
     0
440
 16777216
100
AcDbTrace
 10
-10414.96324985348
 20
4356.31638095752
 30
0.0
 11
-10414.96324985348
 21
4339.31638095752
 31
0.0
 12
-10465.96324985348
 22
4347.81638095752
 32
0.0
 13
-10465.96324985348
 23
4347.81638095752
 33
0.0
  0
SOLID
  5
1F38B
330
1F366
100
AcDbEntity
  8
SUNPOU
 62
     0
440
 16777216
100
AcDbTrace
 10
-8546.963249853481
 20
4356.31638095752
 30
0.0
 11
-8546.963249853481
 21
4339.31638095752
 31
0.0
 12
-8495.963249853481
 22
4347.81638095752
 32
0.0
 13
-8495.963249853481
 23
4347.81638095752
 33
0.0
  0
MTEXT
  5
1F38C
330
1F366
100
AcDbEntity
  8
SUNPOU
 62
     0
440
 16777216
100
AcDbMText
 10
-9480.963249853481
 20
4406.31638095752
 30
0.0
 40
75.0
 41
0.0
 71
     5
 72
     1
  1
\A1;1970
 73
     1
 44
1.0
  0
POINT
  5
1F38D
330
1F366
100
AcDbEntity
  8
DEFPOINTS
 62
     0
440
 16777216
100
AcDbPoint
 10
-10465.96324985348
 20
4841.693832299374
 30
0.0
  0
POINT
  5
1F38E
330
1F366
100
AcDbEntity
  8
DEFPOINTS
 62
     0
440
 16777216
100
AcDbPoint
 10
-8495.963249853481
 20
4841.693832299374
 30
0.0
  0
POINT
  5
1F38F
330
1F366
100
AcDbEntity
  8
DEFPOINTS
 62
     0
440
 16777216
100
AcDbPoint
 10
-8495.963249853481
 20
4347.81638095752
 30
0.0
  0
ENDBLK
  5
1F371
330
1F366
100
AcDbEntity
  8
0
100
AcDbBlockEnd
  0
BLOCK
  5
1F37C
330
1F372
100
AcDbEntity
  8
0
100
AcDbBlockBegin
  2
*D248
 70
     1
 10
0.0
 20
0.0
 30
0.0
  3
*D248
  1

  0
LINE
  5
1F390
330
1F372
100
AcDbEntity
  8
SUNPOU
 62
     0
440
 16777216
370
    -2
100
AcDbLine
 10
-10645.96324985348
 20
4800.693832299374
 30
0.0
 11
-10645.96324985348
 21
4175.152545399746
 31
0.0
  0
LINE
  5
1F391
330
1F372
100
AcDbEntity
  8
SUNPOU
 62
     0
440
 16777216
370
    -2
100
AcDbLine
 10
-8495.963249853481
 20
4781.693832299374
 30
0.0
 11
-8495.963249853481
 21
4175.152545399746
 31
0.0
  0
LINE
  5
1F392
330
1F372
100
AcDbEntity
  8
SUNPOU
 62
     0
440
 16777216
370
    -2
100
AcDbLine
 10
-10594.96324985348
 20
4190.152545399746
 30
0.0
 11
-8546.963249853481
 21
4190.152545399746
 31
0.0
  0
SOLID
  5
1F393
330
1F372
100
AcDbEntity
  8
SUNPOU
 62
     0
440
 16777216
100
AcDbTrace
 10
-10594.96324985348
 20
4198.652545399746
 30
0.0
 11
-10594.96324985348
 21
4181.652545399746
 31
0.0
 12
-10645.96324985348
 22
4190.152545399746
 32
0.0
 13
-10645.96324985348
 23
4190.152545399746
 33
0.0
  0
SOLID
  5
1F394
330
1F372
100
AcDbEntity
  8
SUNPOU
 62
     0
440
 16777216
100
AcDbTrace
 10
-8546.963249853481
 20
4198.652545399746
 30
0.0
 11
-8546.963249853481
 21
4181.652545399746
 31
0.0
 12
-8495.963249853481
 22
4190.152545399746
 32
0.0
 13
-8495.963249853481
 23
4190.152545399746
 33
0.0
  0
MTEXT
  5
1F395
330
1F372
100
AcDbEntity
  8
SUNPOU
 62
     0
440
 16777216
100
AcDbMText
 10
-9570.963249853481
 20
4248.652545399746
 30
0.0
 40
75.0
 41
0.0
 71
     5
 72
     1
  1
\A1;2150
 73
     1
 44
1.0
  0
POINT
  5
1F396
330
1F372
100
AcDbEntity
  8
DEFPOINTS
 62
     0
440
 16777216
100
AcDbPoint
 10
-10645.96324985348
 20
4860.693832299374
 30
0.0
  0
POINT
  5
1F397
330
1F372
100
AcDbEntity
  8
DEFPOINTS
 62
     0
440
 16777216
100
AcDbPoint
 10
-8495.963249853481
 20
4841.693832299374
 30
0.0
  0
POINT
  5
1F398
330
1F372
100
AcDbEntity
  8
DEFPOINTS
 62
     0
440
 16777216
100
AcDbPoint
 10
-8495.963249853481
 20
4190.152545399746
 30
0.0
  0
ENDBLK
  5
1F37D
330
1F372
100
AcDbEntity
  8
0
100
AcDbBlockEnd
  0
ENDSEC
  0
SECTION
  2
ENTITIES
  0
TEXT
  5
326A
330
17
100
AcDbEntity
  8
SUNPOU
100
AcDbText
 10
-653.2867421395404
 20
480.0
 30
0.0
 40
90.0
  1
30
  7
MS ゴシック
100
AcDbText
  0
INSERT
  5
326B
330
17
100
AcDbEntity
  8
HAIKIN
100
AcDbBlockReference
  2
SA3
 10
-11693.28674213953
 20
0.0
 30
0.0
 41
30.0
 42
30.0
 43
30.0
  0
TEXT
  5
326C
330
17
100
AcDbEntity
  8
SUNPOU
100
AcDbText
 10
-1967.157727545331
 20
965.5867565417284
 30
0.0
 40
75.0
  1
Ｌ型擁壁（国交省タイプ）
  7
MS ゴシック
100
AcDbText
  0
TEXT
  5
326D
330
17
100
AcDbEntity
  8
SUNPOU
100
AcDbText
 10
-744.4661892635049
 20
965.5867565417284
 30
0.0
 40
75.0
  1
2500-CⅠ
  7
MS ゴシック
100
AcDbText
  0
TEXT
  5
326E
330
17
100
AcDbEntity
  8
SUNPOU
100
AcDbText
 10
-2401.44231280798
 20
1172.626529133751
 30
0.0
 40
90.0
  1
2500-CⅠ　L=2000
  7
MS ゴシック
100
AcDbText
  0
TEXT
  5
3275
330
17
100
AcDbEntity
  8
SUNPOU
100
AcDbText
 10
-1815.858073162052
 20
634.315542002332
 30
0.0
 40
75.0
  1
3005
  7
MS ゴシック
 72
     1
 11
-1718.396144228042
 21
634.315542002332
 31
0.0
100
AcDbText
  0
TEXT
  5
3276
330
17
100
AcDbEntity
  8
SUNPOU
100
AcDbText
 10
-619.6977079547752
 20
1169.186715216143
 30
0.0
 40
90.0
  1
(構造図)
 41
0.8
 72
     2
 11
-288.4977079547753
 21
1169.186715216143
 31
0.0
100
AcDbText
  0
TEXT
  5
3F43
330
17
100
AcDbEntity
  8
SUNPOU
100
AcDbText
 10
-11429.91632840339
 20
7711.957901599385
 30
0.0
 40
100.0
  1
[断面図]
 41
0.8
100
AcDbText
  0
LINE
  5
147BB
330
17
100
AcDbEntity
  8
SEIHIN
100
AcDbLine
 10
-6721.366377846498
 20
7341.693832299377
 30
0.0
 11
-4721.366377846498
 21
7341.693832299377
 31
0.0
  0
LINE
  5
147BC
330
17
100
AcDbEntity
  8
SEIHIN
100
AcDbLine
 10
-4721.366377846498
 20
7341.693832299377
 30
0.0
 11
-4721.366377846498
 21
4841.693832299377
 31
0.0
  0
LINE
  5
147BD
330
17
100
AcDbEntity
  8
SEIHIN
100
AcDbLine
 10
-4721.366377846498
 20
4841.693832299377
 30
0.0
 11
-6721.366377846498
 21
4841.693832299377
 31
0.0
  0
LINE
  5
147BE
330
17
100
AcDbEntity
  8
SEIHIN
100
AcDbLine
 10
-6721.366377846498
 20
4841.693832299377
 30
0.0
 11
-6721.366377846498
 21
7341.693832299377
 31
0.0
  0
LINE
  5
147D5
330
17
100
AcDbEntity
  8
SEIHIN
 62
     4
100
AcDbLine
 10
-6721.366377846498
 20
6841.693832299377
 30
0.0
 11
-4721.366377846498
 21
6841.693832299377
 31
0.0
  0
LINE
  5
14808
330
17
100
AcDbEntity
  8
1HASEN
100
AcDbLine
 10
-5721.366377846498
 20
7441.693832299377
 30
0.0
 11
-5721.366377846498
 21
4741.693832299377
 31
0.0
  0
CIRCLE
  5
14883
330
17
100
AcDbEntity
  8
SEIHIN
100
AcDbCircle
 10
-6221.366377846498
 20
5541.693832299377
 30
0.0
 40
25.0
  0
CIRCLE
  5
14884
330
17
100
AcDbEntity
  8
SEIHIN
100
AcDbCircle
 10
-6221.366377846498
 20
5541.693832299377
 30
0.0
 40
35.0
  0
LINE
  5
14885
330
17
100
AcDbEntity
  8
1HASEN
100
AcDbLine
 10
-6281.366377846498
 20
5541.693832299377
 30
0.0
 11
-6161.366377846498
 21
5541.693832299377
 31
0.0
  0
LINE
  5
14886
330
17
100
AcDbEntity
  8
1HASEN
100
AcDbLine
 10
-6221.366377846498
 20
5481.693832299377
 30
0.0
 11
-6221.366377846498
 21
5601.693832299377
 31
0.0
  0
TEXT
  5
14887
330
17
100
AcDbEntity
  8
SUNPOU
100
AcDbText
 10
-4483.608106439213
 20
5967.4061791225
 30
0.0
 40
75.0
  1
水抜孔
 41
0.8
100
AcDbText
  0
DIMENSION
  5
1488A
330
17
100
AcDbEntity
  8
SUNPOU
100
AcDbDimension
  2
*D17
 10
-5034.40955086449
 20
4841.693832299377
 30
0.0
 11
-5092.90955086449
 21
5191.693832299376
 31
0.0
 70
    32
 71
     5
 42
700.0
  3
A3-30
100
AcDbAlignedDimension
 13
-5221.366377846498
 23
5541.693832299377
 33
0.0
 14
-5221.366377846498
 24
4841.693832299377
 34
0.0
 50
90.0
100
AcDbRotatedDimension
  0
CIRCLE
  5
148BB
330
17
100
AcDbEntity
  8
SEIHIN
100
AcDbCircle
 10
-5221.366377846498
 20
5541.693832299377
 30
0.0
 40
25.0
  0
CIRCLE
  5
148BC
330
17
100
AcDbEntity
  8
SEIHIN
100
AcDbCircle
 10
-5221.366377846498
 20
5541.693832299377
 30
0.0
 40
35.0
  0
LINE
  5
148BD
330
17
100
AcDbEntity
  8
1HASEN
100
AcDbLine
 10
-5281.366377846498
 20
5541.693832299377
 30
0.0
 11
-5161.366377846498
 21
5541.693832299377
 31
0.0
  0
LINE
  5
148BE
330
17
100
AcDbEntity
  8
1HASEN
100
AcDbLine
 10
-5221.366377846498
 20
5481.693832299377
 30
0.0
 11
-5221.366377846498
 21
5601.693832299377
 31
0.0
  0
DIMENSION
  5
148C7
330
17
100
AcDbEntity
  8
SUNPOU
100
AcDbDimension
  2
*D19
 10
-6221.366377846498
 20
4493.075951395687
 30
0.0
 11
-6471.366377846498
 21
4551.575951395687
 31
0.0
 70
    32
 71
     5
 42
500.0
  3
A3-30
100
AcDbAlignedDimension
 13
-6721.366377846498
 23
4841.693832299377
 33
0.0
 14
-6221.366377846498
 24
4841.693832299377
 34
0.0
100
AcDbRotatedDimension
  0
DIMENSION
  5
148D4
330
17
100
AcDbEntity
  8
SUNPOU
100
AcDbDimension
  2
*D20
 10
-5221.366377846498
 20
4493.075951395687
 30
0.0
 11
-5721.366377846498
 21
4551.575951395687
 31
0.0
 70
    32
 71
     5
 42
1000.0
  3
A3-30
100
AcDbAlignedDimension
 13
-6221.366377846498
 23
4841.693832299377
 33
0.0
 14
-5221.366377846498
 24
4841.693832299377
 34
0.0
100
AcDbRotatedDimension
  0
DIMENSION
  5
148EA
330
17
100
AcDbEntity
  8
SUNPOU
100
AcDbDimension
  2
*D21
 10
-4721.366377846498
 20
4493.075951395687
 30
0.0
 11
-4971.366377846498
 21
4551.575951395687
 31
0.0
 70
    32
 71
     5
 42
500.0
  3
A3-30
100
AcDbAlignedDimension
 13
-5221.366377846498
 23
4841.693832299377
 33
0.0
 14
-4721.366377846498
 24
4841.693832299377
 34
0.0
100
AcDbRotatedDimension
  0
DIMENSION
  5
14921
330
17
100
AcDbEntity
  8
SUNPOU
100
AcDbDimension
  2
*D25
 10
-4721.366377846498
 20
7793.778221961977
 30
0.0
 11
-5721.366377846498
 21
7852.278221961977
 31
0.0
 70
    32
 71
     5
 42
2000.0
  3
A3-30
100
AcDbAlignedDimension
 13
-6721.366377846498
 23
7341.693832299377
 33
0.0
 14
-4721.366377846498
 24
7341.693832299377
 34
0.0
100
AcDbRotatedDimension
  0
LINE
  5
1495E
330
17
100
AcDbEntity
  8
SEIHIN
100
AcDbLine
 10
-4771.366377846498
 20
4941.693832299377
 30
0.0
 11
-6671.366377846499
 21
4941.693832299377
 31
0.0
  0
LINE
  5
14961
330
17
100
AcDbEntity
  8
SEIHIN
100
AcDbLine
 10
-6671.366377846498
 20
4841.693832299377
 30
0.0
 11
-6671.366377846498
 21
4941.693832299376
 31
0.0
  0
LINE
  5
14962
330
17
100
AcDbEntity
  8
SEIHIN
100
AcDbLine
 10
-6671.366377846498
 20
4941.693832299377
 30
0.0
 11
-6721.366377846498
 21
5010.355249622212
 31
0.0
  0
LEADER
  5
14966
330
17
100
AcDbEntity
  8
SUNPOU
100
AcDbLeader
  3
A3-30
 76
     2
 10
-6221.366377846498
 20
5541.693832299377
 30
0.0
 10
-5982.764940596677
 20
5954.963644375025
 30
0.0
1001
ACAD
1000
DSTYLE
1002
{
1070
   147
1040
0.7
1070
    77
1070
     0
1002
}
  0
LEADER
  5
14967
330
17
100
AcDbEntity
  8
SUNPOU
100
AcDbLeader
  3
A3-30
 76
     2
 10
-5221.366377846498
 20
5541.693832299377
 30
0.0
 10
-4982.764940596677
 20
5954.963644375025
 30
0.0
1001
ACAD
1000
DSTYLE
1002
{
1070
   147
1040
0.7
1070
    77
1070
     0
1002
}
  0
LINE
  5
1496A
330
17
100
AcDbEntity
  8
SUNPOU
100
AcDbLine
 10
-5982.764940596677
 20
5954.963644375025
 30
0.0
 11
-4229.668307813015
 21
5954.963644375025
 31
0.0
  0
TEXT
  5
14970
330
17
100
AcDbEntity
  8
SUNPOU
100
AcDbText
 10
-7545.156658543783
 20
7723.347616159866
 30
0.0
 40
100.0
  1
[正面図]
 41
0.8
100
AcDbText
  0
TEXT
  5
14971
330
17
100
AcDbEntity
  8
SUNPOU
100
AcDbText
 10
-7432.496943673745
 20
7588.895346918405
 30
0.0
 40
100.0
  1
背面
 41
0.8
100
AcDbText
  0
LINE
  5
1A6AB
330
17
100
AcDbEntity
  8
HASEN
100
AcDbLine
 10
-10645.96324985348
 20
5516.693832299375
 30
0.0
 11
-10487.28193117216
 21
5506.693832299375
 31
0.0
  0
LINE
  5
1A6B5
330
17
100
AcDbEntity
  8
1HASEN
100
AcDbLine
 10
-10448.82039271062
 20
5541.693832299375
 30
0.0
 11
-10685.96324985348
 21
5541.693832299375
 31
0.0
  0
LINE
  5
1A6B6
330
17
100
AcDbEntity
  8
HASEN
100
AcDbLine
 10
-10645.96324985348
 20
5566.693832299375
 30
0.0
 11
-10490.35885424908
 21
5576.693832299375
 31
0.0
  0
LINE
  5
1A6EE
330
17
100
AcDbEntity
  8
SEIHIN
100
AcDbLine
 10
-8495.963249853481
 20
4841.693832299375
 30
0.0
 11
-10626.96324985348
 21
4841.693832299375
 31
0.0
  0
LINE
  5
1A6EF
330
17
100
AcDbEntity
  8
SEIHIN
100
AcDbLine
 10
-10626.96324985348
 20
4841.693832299375
 30
0.0
 11
-10645.96324985348
 21
4860.693832299375
 31
0.0
  0
LINE
  5
1A6F0
330
17
100
AcDbEntity
  8
SEIHIN
100
AcDbLine
 10
-10645.96324985348
 20
4860.693832299375
 30
0.0
 11
-10645.96324985348
 21
7332.693832299375
 31
0.0
  0
LINE
  5
1A6F1
330
17
100
AcDbEntity
  8
SEIHIN
100
AcDbLine
 10
-10645.96324985348
 20
7332.693832299375
 30
0.0
 11
-10636.96324985348
 21
7341.693832299375
 31
0.0
  0
LINE
  5
1A6F2
330
17
100
AcDbEntity
  8
SEIHIN
100
AcDbLine
 10
-10636.96324985348
 20
7341.693832299375
 30
0.0
 11
-10554.96324985348
 21
7341.693832299378
 31
0.0
  0
ARC
  5
1A6F3
330
17
100
AcDbEntity
  8
SEIHIN
100
AcDbCircle
 10
-10554.96324985348
 20
7332.693832299378
 30
0.0
 40
9.0
100
AcDbArc
 50
0.0
 51
90.0
  0
LINE
  5
1A6F4
330
17
100
AcDbEntity
  8
SEIHIN
100
AcDbLine
 10
-10545.96324985348
 20
7332.693832299378
 30
0.0
 11
-10545.96324985348
 21
6841.693832299375
 31
0.0
  0
LINE
  5
1A6F5
330
17
100
AcDbEntity
  8
SEIHIN
100
AcDbLine
 10
-10545.96324985348
 20
6841.693832299375
 30
0.0
 11
-10473.87533776557
 21
5201.693832299375
 31
0.0
  0
LINE
  5
1A6F6
330
17
100
AcDbEntity
  8
SEIHIN
100
AcDbLine
 10
-10473.87533776557
 20
5201.693832299375
 30
0.0
 11
-10285.96324985348
 21
5010.355249622212
 31
0.0
  0
LINE
  5
1A6F7
330
17
100
AcDbEntity
  8
SEIHIN
100
AcDbLine
 10
-10285.96324985348
 20
5010.355249622212
 30
0.0
 11
-9195.963249853481
 21
4941.693832299375
 31
0.0
  0
LINE
  5
1A6F8
330
17
100
AcDbEntity
  8
SEIHIN
100
AcDbLine
 10
-9195.963249853481
 20
4941.693832299375
 30
0.0
 11
-8495.963249853477
 21
4941.693832299376
 31
0.0
  0
LINE
  5
1A6F9
330
17
100
AcDbEntity
  8
SEIHIN
100
AcDbLine
 10
-8495.963249853477
 20
4941.693832299376
 30
0.0
 11
-8495.963249853481
 21
4841.693832299375
 31
0.0
  0
TEXT
  5
1A8A6
330
17
100
AcDbEntity
  8
SUNPOU
100
AcDbText
 10
-11067.85522444573
 20
5836.687127032678
 30
0.0
 40
75.0
  1
水抜孔
 41
0.8
100
AcDbText
  0
LINE
  5
1A8A7
330
17
100
AcDbEntity
  8
SUNPOU
100
AcDbLine
 10
-11102.49847001766
 20
5824.786315560505
 30
0.0
 11
-10823.52233608832
 21
5824.786315560505
 31
0.0
  0
LEADER
  5
1A8A8
330
17
100
AcDbEntity
  8
SUNPOU
100
AcDbLeader
  3
A3-30
 76
     2
 10
-10645.96324985348
 20
5541.693832299375
 30
0.0
 10
-10823.52233608832
 20
5824.786315560505
 30
0.0
  0
LINE
  5
1A8D4
330
17
100
AcDbEntity
  8
0
100
AcDbLine
 10
-10465.96324985348
 20
5036.693832299376
 30
0.0
 11
-10465.96324985348
 21
5006.693832299376
 31
0.0
  0
LINE
  5
1A8D5
330
17
100
AcDbEntity
  8
0
100
AcDbLine
 10
-10480.96324985348
 20
5021.693832299376
 30
0.0
 11
-10450.96324985348
 21
5021.693832299376
 31
0.0
  0
DIMENSION
  5
1A8D6
330
17
100
AcDbEntity
  8
SUNPOU
100
AcDbDimension
  2
*D46
 10
-10285.96324985348
 20
5394.24229012615
 30
0.0
 11
-10375.96324985348
 21
5452.74229012615
 31
0.0
 70
    32
 71
     5
 42
180.0
  3
A3-30
100
AcDbAlignedDimension
 13
-10465.96324985348
 23
5156.693832299376
 33
0.0
 14
-10285.96324985348
 24
5010.355249622212
 34
0.0
100
AcDbRotatedDimension
  0
DIMENSION
  5
1A8E3
330
17
100
AcDbEntity
  8
SUNPOU
100
AcDbDimension
  2
*D47
 10
-10057.35102193229
 20
5201.693832299374
 30
0.0
 11
-10115.85102193229
 21
5111.693832299373
 31
0.0
 70
    32
 71
     5
 42
179.9999999999991
  3
A3-30
100
AcDbAlignedDimension
 13
-10330.96324985348
 23
5021.693832299376
 33
0.0
 14
-10473.87533776557
 24
5201.693832299375
 34
0.0
 50
90.0
100
AcDbRotatedDimension
  0
DIMENSION
  5
1A959
330
17
100
AcDbEntity
  8
SUNPOU
100
AcDbDimension
  2
*D49
 10
-10545.96324985348
 20
7756.952265600489
 30
0.0
 11
-10595.96324985348
 21
7815.452265600489
 31
0.0
 70
    32
 71
     5
 42
100.0
  3
A3-30
100
AcDbAlignedDimension
 13
-10645.96324985348
 23
7332.693832299375
 33
0.0
 14
-10545.96324985348
 24
7332.693832299378
 34
0.0
100
AcDbRotatedDimension
  0
DIMENSION
  5
1A967
330
17
100
AcDbEntity
  8
SUNPOU
100
AcDbDimension
  2
*D50
 10
-9195.963249853481
 20
7756.952265600489
 30
0.0
 11
-9870.963249853481
 21
7815.452265600489
 31
0.0
 70
    32
 71
     5
 42
1350.0
  3
A3-30
100
AcDbAlignedDimension
 13
-10545.96324985348
 23
7332.693832299378
 33
0.0
 14
-9195.963249853481
 24
4941.693832299375
 34
0.0
100
AcDbRotatedDimension
  0
DIMENSION
  5
1A974
330
17
100
AcDbEntity
  8
SUNPOU
100
AcDbDimension
  2
*D51
 10
-8495.963249853477
 20
7756.952265600489
 30
0.0
 11
-8845.96324985348
 21
7815.452265600489
 31
0.0
 70
    32
 71
     5
 42
700.0000000000036
  3
A3-30
100
AcDbAlignedDimension
 13
-9195.963249853481
 23
4941.693832299375
 33
0.0
 14
-8495.963249853477
 24
4941.693832299376
 34
0.0
100
AcDbRotatedDimension
  0
DIMENSION
  5
1A981
330
17
100
AcDbEntity
  8
SUNPOU
100
AcDbDimension
  2
*D52
 10
-8089.821185489433
 20
4941.693832299376
 30
0.0
 11
-8148.321185489434
 21
4891.693832299375
 31
0.0
 70
    32
 71
     5
 42
100.0000000000018
  3
A3-30
100
AcDbAlignedDimension
 13
-8495.963249853481
 23
4841.693832299375
 33
0.0
 14
-8495.963249853477
 24
4941.693832299376
 34
0.0
 50
90.0
100
AcDbRotatedDimension
  0
DIMENSION
  5
1A98F
330
17
100
AcDbEntity
  8
SUNPOU
100
AcDbDimension
  2
*D53
 10
-8089.821185489433
 20
6841.693832299374
 30
0.0
 11
-8148.321185489434
 21
5891.693832299375
 31
0.0
 70
    32
 71
     5
 42
1899.999999999997
  3
A3-30
100
AcDbAlignedDimension
 13
-8495.963249853477
 23
4941.693832299376
 33
0.0
 14
-10545.96324985348
 24
6841.693832299375
 34
0.0
 50
90.0
100
AcDbRotatedDimension
  0
DIMENSION
  5
1A99C
330
17
100
AcDbEntity
  8
SUNPOU
100
AcDbDimension
  2
*D54
 10
-8089.821185489433
 20
7341.693832299377
 30
0.0
 11
-8148.321185489434
 21
7091.693832299375
 31
0.0
 70
    32
 71
     5
 42
500.0000000000036
  3
A3-30
100
AcDbAlignedDimension
 13
-10545.96324985348
 23
6841.693832299375
 33
0.0
 14
-10554.96324985348
 24
7341.693832299378
 34
0.0
 50
90.0
100
AcDbRotatedDimension
  0
LINE
  5
1AD02
330
17
100
AcDbEntity
  8
SEIHIN
100
AcDbLine
 10
-6721.366377846499
 20
5201.693832299376
 30
0.0
 11
-4721.366377846498
 21
5201.693832299375
 31
0.0
  0
LINE
  5
1AD03
330
17
100
AcDbEntity
  8
SEIHIN
100
AcDbLine
 10
-6721.366377846499
 20
5010.355249622212
 30
0.0
 11
-4721.366377846498
 21
5010.355249622211
 31
0.0
  0
LINE
  5
1AD04
330
17
100
AcDbEntity
  8
SEIHIN
100
AcDbLine
 10
-4771.366377846498
 20
4841.693832299377
 30
0.0
 11
-4771.366377846498
 21
4941.693832299376
 31
0.0
  0
LINE
  5
1AD05
330
17
100
AcDbEntity
  8
SEIHIN
100
AcDbLine
 10
-4771.366377846498
 20
4941.693832299377
 30
0.0
 11
-4721.366377846498
 21
5010.355249622212
 31
0.0
  0
DIMENSION
  5
1F0E6
330
17
100
AcDbEntity
  8
SUNPOU
100
AcDbDimension
  2
*D229
 10
-11199.52640554785
 20
5021.693832299374
 30
0.0
 11
-11258.02640554785
 21
4931.693832299372
 31
0.0
 70
    32
 71
     5
 42
180.0
  3
A3-30
100
AcDbAlignedDimension
 13
-10626.96324985348
 23
4841.693832299374
 33
0.0
 14
-10645.96324985348
 24
5021.693832299374
 34
0.0
 50
90.0
100
AcDbRotatedDimension
  0
DIMENSION
  5
1F0E7
330
17
100
AcDbEntity
  8
SUNPOU
100
AcDbDimension
  2
*D230
 10
-11023.64296173034
 20
5541.693832299374
 30
0.0
 11
-11082.14296173034
 21
5191.693832299372
 31
0.0
 70
    32
 71
     5
 42
700.0
  3
A3-30
100
AcDbAlignedDimension
 13
-10626.96324985348
 23
4841.693832299374
 33
0.0
 14
-10645.96324985348
 24
5541.693832299374
 34
0.0
 50
90.0
100
AcDbRotatedDimension
  0
DIMENSION
  5
1F0E8
330
17
100
AcDbEntity
  8
SUNPOU
100
AcDbDimension
  2
*D231
 10
-11199.52640554785
 20
7341.693832299374
 30
0.0
 11
-11258.02640554785
 21
6181.693832299372
 31
0.0
 70
    32
 71
     5
 42
2320.0
  3
A3-30
100
AcDbAlignedDimension
 13
-10645.96324985347
 23
5021.693832299374
 33
0.0
 14
-10636.96324985348
 24
7341.693832299374
 34
0.0
 50
90.0
100
AcDbRotatedDimension
  0
DIMENSION
  5
1F0E9
330
17
100
AcDbEntity
  8
SUNPOU
100
AcDbDimension
  2
*D232
 10
-11360.33415405691
 20
7341.693832299374
 30
0.0
 11
-11418.83415405691
 21
6091.693832299372
 31
0.0
 70
    32
 71
     5
 42
2500.0
  3
A3-30
100
AcDbAlignedDimension
 13
-10626.96324985348
 23
4841.693832299374
 33
0.0
 14
-10636.96324985348
 24
7341.693832299374
 34
0.0
 50
90.0
100
AcDbRotatedDimension
  0
DIMENSION
  5
1F357
330
17
100
AcDbEntity
  8
SUNPOU
100
AcDbDimension
  2
*D246
 10
-10465.96324985348
 20
4347.81638095752
 30
0.0
 11
-10555.96324985348
 21
4406.31638095752
 31
0.0
 70
    32
 71
     5
 42
180.0
  3
A3-30
100
AcDbAlignedDimension
 13
-10645.96324985348
 23
4860.693832299374
 33
0.0
 14
-10465.96324985348
 24
4841.693832299374
 34
0.0
100
AcDbRotatedDimension
  0
DIMENSION
  5
1F358
330
17
100
AcDbEntity
  8
SUNPOU
100
AcDbDimension
  2
*D247
 10
-8495.963249853481
 20
4347.81638095752
 30
0.0
 11
-9480.963249853481
 21
4406.31638095752
 31
0.0
 70
    32
 71
     5
 42
1970.0
  3
A3-30
100
AcDbAlignedDimension
 13
-10465.96324985348
 23
4841.693832299374
 33
0.0
 14
-8495.963249853481
 24
4841.693832299374
 34
0.0
100
AcDbRotatedDimension
  0
DIMENSION
  5
1F359
330
17
100
AcDbEntity
  8
SUNPOU
100
AcDbDimension
  2
*D248
 10
-8495.963249853481
 20
4190.152545399746
 30
0.0
 11
-9570.963249853481
 21
4248.652545399746
 31
0.0
 70
    32
 71
     5
 42
2150.0
  3
A3-30
100
AcDbAlignedDimension
 13
-10645.96324985348
 23
4860.693832299374
 33
0.0
 14
-8495.963249853481
 24
4841.693832299374
 34
0.0
100
AcDbRotatedDimension
  0
ENDSEC
  0
SECTION
  2
OBJECTS
  0
DICTIONARY
  5
C
330
0
100
AcDbDictionary
281
     1
  3
ACAD_CIP_PREVIOUS_PRODUCT_INFO
350
1F3FB
  3
ACAD_COLOR
350
9AA
  3
ACAD_DETAILVIEWSTYLE
350
1F3F3
  3
ACAD_GROUP
350
D
  3
ACAD_LAYOUT
350
7B
  3
ACAD_MATERIAL
350
9A9
  3
ACAD_MLEADERSTYLE
350
1F3EF
  3
ACAD_MLINESTYLE
350
1A
  3
ACAD_PLOTSETTINGS
350
7C
  3
ACAD_PLOTSTYLENAME
350
79
  3
ACAD_SCALELIST
350
1F3DD
  3
ACAD_SECTIONVIEWSTYLE
350
1F3F1
  3
ACAD_TABLESTYLE
350
9AB
  3
ACAD_VISUALSTYLE
350
1F3C4
  3
AcadDim
350
1496B
  3
ACDB_RECOMPOSE_DATA
350
1F48C
  3
AcDbVariableDictionary
350
946
  3
ASE_INDEX_DICTIONARY
350
B416
  0
DICTIONARY
  5
1F481
330
8
100
AcDbDictionary
280
     1
281
     1
  3
ACAD_XREC_ROUNDTRIP
360
1F482
  0
DICTIONARY
  5
1F42B
330
E
100
AcDbDictionary
280
     1
281
     1
  3
ADSK_XREC_LAYER_RECONCILED
360
1F42C
  0
DICTIONARY
  5
1F42D
330
23
100
AcDbDictionary
280
     1
281
     1
  3
ADSK_XREC_LAYER_RECONCILED
360
1F42E
  0
DICTIONARY
  5
1F42F
330
24
100
AcDbDictionary
280
     1
281
     1
  3
ADSK_XREC_LAYER_RECONCILED
360
1F430
  0
DICTIONARY
  5
1F431
330
25
100
AcDbDictionary
280
     1
281
     1
  3
ADSK_XREC_LAYER_RECONCILED
360
1F432
  0
DICTIONARY
  5
1F433
330
26
100
AcDbDictionary
280
     1
281
     1
  3
ADSK_XREC_LAYER_RECONCILED
360
1F434
  0
DICTIONARY
  5
1F435
330
27
100
AcDbDictionary
280
     1
281
     1
  3
ADSK_XREC_LAYER_RECONCILED
360
1F436
  0
DICTIONARY
  5
1F437
330
28
100
AcDbDictionary
280
     1
281
     1
  3
ADSK_XREC_LAYER_RECONCILED
360
1F438
  0
DICTIONARY
  5
1F439
330
29
100
AcDbDictionary
280
     1
281
     1
  3
ADSK_XREC_LAYER_RECONCILED
360
1F43A
  0
DICTIONARY
  5
1F43B
330
2A
100
AcDbDictionary
280
     1
281
     1
  3
ADSK_XREC_LAYER_RECONCILED
360
1F43C
  0
DICTIONARY
  5
90E
330
17
100
AcDbDictionary
280
     1
281
     1
  3
ACAD_SORTENTS
360
D77
  0
XRECORD
  5
1F3FB
102
{ACAD_REACTORS
330
C
102
}
330
C
100
AcDbXrecord
280
     1
300
ACD
300
2014
300
ACD_F_S
  0
DICTIONARY
  5
9AA
102
{ACAD_REACTORS
330
C
102
}
330
C
100
AcDbDictionary
281
     1
  0
DICTIONARY
  5
1F3F3
102
{ACAD_REACTORS
330
C
102
}
330
C
100
AcDbDictionary
281
     1
  3
Imperial24
350
1F3F4
  0
DICTIONARY
  5
D
102
{ACAD_REACTORS
330
C
102
}
330
C
100
AcDbDictionary
281
     1
  0
DICTIONARY
  5
7B
102
{ACAD_REACTORS
330
C
102
}
330
C
100
AcDbDictionary
281
     1
  3
Model
350
7D
  3
ﾚｲｱｳﾄ1
350
7E
  0
DICTIONARY
  5
9A9
102
{ACAD_REACTORS
330
C
102
}
330
C
100
AcDbDictionary
281
     1
  3
ByBlock
350
1F3B4
  3
ByLayer
350
1F3AC
  3
Global
350
1F3BC
  0
DICTIONARY
  5
1F3EF
102
{ACAD_REACTORS
330
C
102
}
330
C
100
AcDbDictionary
281
     1
  3
Standard
350
1F3F0
  0
DICTIONARY
  5
1A
102
{ACAD_REACTORS
330
C
102
}
330
C
100
AcDbDictionary
281
     1
  3
STANDARD
350
1B
  0
DICTIONARY
  5
7C
102
{ACAD_REACTORS
330
C
102
}
330
C
100
AcDbDictionary
281
     1
  0
ACDBDICTIONARYWDFLT
  5
79
102
{ACAD_REACTORS
330
C
102
}
330
C
100
AcDbDictionary
281
     1
  3
Normal
350
7A
100
AcDbDictionaryWithDefault
340
7A
  0
DICTIONARY
  5
1F3DD
102
{ACAD_REACTORS
330
C
102
}
330
C
100
AcDbDictionary
281
     1
  3
A0
350
1F3DE
  3
A1
350
1F3DF
  3
A2
350
1F3E0
  3
A3
350
1F3E1
  3
A4
350
1F3E2
  3
A5
350
1F3E3
  3
A6
350
1F3E4
  3
A7
350
1F3E5
  3
A8
350
1F3E6
  3
A9
350
1F3E7
  3
B0
350
1F3E8
  3
B1
350
1F3E9
  3
B2
350
1F3EA
  3
B3
350
1F3EB
  3
B4
350
1F3EC
  3
B5
350
1F3ED
  3
B6
350
1F3EE
  0
DICTIONARY
  5
1F3F1
102
{ACAD_REACTORS
330
C
102
}
330
C
100
AcDbDictionary
281
     1
  3
Imperial24
350
1F3F2
  0
DICTIONARY
  5
9AB
102
{ACAD_REACTORS
330
C
102
}
330
C
100
AcDbDictionary
281
     1
  3
Standard
350
9AC
  0
DICTIONARY
  5
1F3C4
102
{ACAD_REACTORS
330
C
102
}
330
C
100
AcDbDictionary
281
     1
  3
2dWireframe
350
1F3CA
  3
Basic
350
1F3C9
  3
Brighten
350
1F3D0
  3
ColorChange
350
1F3D4
  3
Conceptual
350
1F3CD
  3
Dim
350
1F3CF
  3
EdgeColorOff
350
1F3DC
  3
Facepattern
350
1F3D3
  3
Flat
350
1F3C5
  3
FlatWithEdges
350
1F3C6
  3
Gouraud
350
1F3C7
  3
GouraudWithEdges
350
1F3C8
  3
Hidden
350
1F3CC
  3
JitterOff
350
1F3DA
  3
Linepattern
350
1F3D2
  3
OverhangOff
350
1F3DB
  3
Realistic
350
1F3CE
  3
Shaded
350
1F3D9
  3
Shaded with edges
350
1F3D8
  3
Shades of Gray
350
1F3D5
  3
Sketchy
350
1F3D6
  3
Thicken
350
1F3D1
  3
Wireframe
350
1F3CB
  3
X-Ray
350
1F3D7
  0
XRECORD
  5
1496B
102
{ACAD_REACTORS
330
C
102
}
330
C
100
AcDbXrecord
280
     1
 90
   990106
  3

 60
     0
 61
     0
 62
     1
 63
     3
 64
     0
 65
     0
 66
     0
 67
     3
 68
     1
 69
     0
 70
     0
 71
     0
 72
     0
 40
0.0
170
     0
  0
XRECORD
  5
1F48C
102
{ACAD_REACTORS
330
C
102
}
330
C
100
AcDbXrecord
280
     1
 90
        1
330
9AC
  0
DICTIONARY
  5
946
102
{ACAD_REACTORS
330
C
102
}
330
C
100
AcDbDictionary
281
     1
  3
CANNOSCALE
350
1F47C
  3
CMLEADERSTYLE
350
1F478
  3
CTABLESTYLE
350
CC1
  3
CVIEWDETAILSTYLE
350
1F479
  3
CVIEWSECTIONSTYLE
350
1F47A
  3
DIMASSOC
350
947
  3
LAYEREVAL
350
1F47E
  3
LAYERNOTIFY
350
1F47F
  3
LIGHTINGUNITS
350
1F47D
  3
MSLTSCALE
350
1F47B
  3
PROJECTNAME
350
CC2
  3
XCLIPFRAME
350
1F480
  0
DICTIONARY
  5
B416
102
{ACAD_REACTORS
330
C
102
}
330
C
100
AcDbDictionary
281
     1
  3
ASEBlockHierarchyIndexRecord
350
B418
1001
DCO15
1040
1712028685.625
  0
XRECORD
  5
1F482
102
{ACAD_REACTORS
330
1F481
102
}
330
1F481
100
AcDbXrecord
280
     1
102
VTR_0.000_0.000_1.000_1.000_VISUALSTYLE
340
1F3CA
102
VTR_0.000_0.000_1.000_1.000_GRIDDISPLAY
 70
     3
102
VTR_0.000_0.000_1.000_1.000_GRIDMAJOR
 70
     5
102
VTR_0.000_0.000_1.000_1.000_DEFAULTLIGHTING
280
     1
102
VTR_0.000_0.000_1.000_1.000_DEFAULTLIGHTINGTYPE
 70
     1
102
VTR_0.000_0.000_1.000_1.000_BRIGHTNESS
141
0.0
102
VTR_0.000_0.000_1.000_1.000_CONTRAST
142
0.0
  0
XRECORD
  5
1F42C
102
{ACAD_REACTORS
330
1F42B
102
}
330
1F42B
100
AcDbXrecord
280
     1
290
     1
  0
XRECORD
  5
1F42E
102
{ACAD_REACTORS
330
1F42D
102
}
330
1F42D
100
AcDbXrecord
280
     1
290
     1
  0
XRECORD
  5
1F430
102
{ACAD_REACTORS
330
1F42F
102
}
330
1F42F
100
AcDbXrecord
280
     1
290
     1
  0
XRECORD
  5
1F432
102
{ACAD_REACTORS
330
1F431
102
}
330
1F431
100
AcDbXrecord
280
     1
290
     1
  0
XRECORD
  5
1F434
102
{ACAD_REACTORS
330
1F433
102
}
330
1F433
100
AcDbXrecord
280
     1
290
     1
  0
XRECORD
  5
1F436
102
{ACAD_REACTORS
330
1F435
102
}
330
1F435
100
AcDbXrecord
280
     1
290
     1
  0
XRECORD
  5
1F438
102
{ACAD_REACTORS
330
1F437
102
}
330
1F437
100
AcDbXrecord
280
     1
290
     1
  0
XRECORD
  5
1F43A
102
{ACAD_REACTORS
330
1F439
102
}
330
1F439
100
AcDbXrecord
280
     1
290
     1
  0
XRECORD
  5
1F43C
102
{ACAD_REACTORS
330
1F43B
102
}
330
1F43B
100
AcDbXrecord
280
     1
290
     1
  0
SORTENTSTABLE
  5
D77
102
{ACAD_REACTORS
330
90E
102
}
330
90E
100
AcDbSortentsTable
330
17
331
0
  5
148C3
331
326A
  5
326A
331
326B
  5
326B
331
326C
  5
326C
331
326D
  5
326D
331
326E
  5
326E
331
3275
  5
3275
331
3276
  5
3276
331
3F43
  5
3F43
331
147BB
  5
147BB
331
147BC
  5
147BC
331
147BD
  5
147BD
331
147BE
  5
147BE
331
147D5
  5
147D5
331
14808
  5
14808
331
14883
  5
14883
331
14884
  5
14884
331
14885
  5
14885
331
14886
  5
14886
331
14887
  5
14887
331
1488A
  5
1488A
331
148BB
  5
148BB
331
148BC
  5
148BC
331
148BD
  5
148BD
331
148BE
  5
148BE
331
148C7
  5
148C7
331
148D4
  5
148D4
331
148EA
  5
148EA
331
14921
  5
14921
331
1495E
  5
1495E
331
14961
  5
14961
331
14962
  5
14962
331
14966
  5
14966
331
14967
  5
14967
331
1496A
  5
1496A
331
14970
  5
14970
331
14971
  5
14971
331
1A6AB
  5
1A6AB
331
1A6B5
  5
1A6B5
331
1A6B6
  5
1A6B6
331
1A6EE
  5
1A6EE
331
1A6EF
  5
1A6EF
331
1A6F0
  5
1A6F0
331
1A6F1
  5
1A6F1
331
1A6F2
  5
1A6F2
331
1A6F3
  5
1A6F3
331
1A6F4
  5
1A6F4
331
1A6F5
  5
1A6F5
331
1A6F6
  5
1A6F6
331
1A6F7
  5
1A6F7
331
1A6F8
  5
1A6F8
331
1A6F9
  5
1A6F9
331
1A8A6
  5
1A8A6
331
1A8A7
  5
1A8A7
331
1A8A8
  5
1A8A8
331
1A8D4
  5
1A8D4
331
1A8D5
  5
1A8D5
331
1A8D6
  5
1A8D6
331
1A8E3
  5
1A8E3
331
1A959
  5
1A959
331
1A967
  5
1A967
331
1A974
  5
1A974
331
1A981
  5
1A981
331
1A98F
  5
1A98F
331
1A99C
  5
1A99C
331
1AD02
  5
1AD02
331
1AD03
  5
1AD03
331
1AD04
  5
1AD04
331
1AD05
  5
1AD05
  0
ACAD_PROXY_OBJECT
  5
1F3F4
102
{ACAD_REACTORS
330
1F3F3
102
}
102
{ACAD_XDICTIONARY
360
1F476
102
}
330
1F3F3
100
AcDbProxyObject
 90
      499
 91
      526
 95
  3276827
 70
     0
 93
     2314
310
9207000000180005C0F42F5A8DC671F815AF46E07A15AE7E07000000180005C0F42F5A8DC671FA3300000018001000000180005C0F42F5A8DC671FA02000000000000741FA028CC00000060002330000001800000852480368038003280390034803080360019001A004AD12801E002E00208031802B003080390010002B00
310
348032803B802A003C803800328010002E0033001000110012803A003180188011001F001280100012801E002E00208031802B003080390010002B00348032803B80220032803A00308034803600248032001F0012802E00280029802180208026002280100012801E002E00208031802B003080390010002B00348032803B
310
802980318030803600328010002E0033001000110012803980370011001F0012802B0340
340
F
340
0
340
13
340
F
340
13
340
13
 94
        0
  0
LAYOUT
  5
7D
102
{ACAD_REACTORS
330
7B
102
}
330
7B
100
AcDbPlotSettings
  1

  2
C:\PROGRAM FILES\MDT6\plotters\RICOH SP9II RPDL.pc3
  4
A3
  6

 40
5.873749732971191
 41
5.873758316040039
 42
4.349761962890625
 43
8.159759521484375
 44
420.1159973144531
 45
296.9259948730469
 46
0.0
 47
0.0
 48
0.0
 49
0.0
140
0.0
141
0.0
142
1.0
143
1.0
 70
 11952
 72
     0
 73
     0
 74
     0
  7
acad.ctb
 75
     0
 76
     0
 77
     2
 78
   300
147
1.0
148
-52067.63847066872
149
1270.867660243985
100
AcDbLayout
  1
Model
 70
     1
 71
     0
 10
0.0
 20
0.0
 11
12.0
 21
9.0
 12
0.0
 22
0.0
 32
0.0
 14
0.0
 24
0.0
 34
0.0
 15
0.0
 25
0.0
 35
0.0
146
0.0
 13
0.0
 23
0.0
 33
0.0
 16
1.0
 26
0.0
 36
0.0
 17
0.0
 27
1.0
 37
0.0
 76
     0
330
17
331
1F3A5
  0
LAYOUT
  5
7E
102
{ACAD_REACTORS
330
7B
102
}
330
7B
100
AcDbPlotSettings
  1

  2
C:\PROGRAM FILES\MDT6\plotters\RICOH SP9II RPDL.pc3
  4

  6

 40
0.0
 41
0.0
 42
0.0
 43
0.0
 44
0.0
 45
0.0
 46
0.0
 47
0.0
 48
0.0
 49
0.0
140
0.0
141
0.0
142
1.0
143
1.0
 70
   688
 72
     0
 73
     0
 74
     5
  7
acad.ctb
 75
    16
 76
     0
 77
     2
 78
   300
147
1.0
148
0.0
149
0.0
100
AcDbLayout
  1
ﾚｲｱｳﾄ1
 70
     0
 71
     1
 10
0.0
 20
0.0
 11
12.0
 21
9.0
 12
0.0
 22
0.0
 32
0.0
 14
1.000000000000000E+20
 24
1.000000000000000E+20
 34
1.000000000000000E+20
 15
-1.000000000000000E+20
 25
-1.000000000000000E+20
 35
-1.000000000000000E+20
146
0.0
 13
0.0
 23
0.0
 33
0.0
 16
1.0
 26
0.0
 36
0.0
 17
0.0
 27
1.0
 37
0.0
 76
     0
330
14
  0
MATERIAL
  5
1F3B4
102
{ACAD_REACTORS
330
9A9
102
}
102
{ACAD_XDICTIONARY
360
1F483
102
}
330
9A9
100
AcDbMaterial
  1
ByBlock
 72
     0
 73
     2
 43
0.0208333333333333
 43
0.0
 43
0.0
 43
0.0
 43
0.0
 43
0.0208333333333333
 43
0.0
 43
0.0
 43
0.0
 43
0.0
 43
1.0
 43
0.0
 43
0.0
 43
0.0
 43
0.0
 43
1.0
 77
     0
 78
     2
 47
0.0208333333333333
 47
0.0
 47
0.0
 47
0.0
 47
0.0
 47
0.0208333333333333
 47
0.0
 47
0.0
 47
0.0
 47
0.0
 47
1.0
 47
0.0
 47
0.0
 47
0.0
 47
0.0
 47
1.0
171
     0
172
     2
 49
0.0208333333333333
 49
0.0
 49
0.0
 49
0.0
 49
0.0
 49
0.0208333333333333
 49
0.0
 49
0.0
 49
0.0
 49
0.0
 49
1.0
 49
0.0
 49
0.0
 49
0.0
 49
0.0
 49
1.0
175
     0
176
     2
142
0.0208333333333333
142
0.0
142
0.0
142
0.0
142
0.0
142
0.0208333333333333
142
0.0
142
0.0
142
0.0
142
0.0
142
1.0
142
0.0
142
0.0
142
0.0
142
0.0
142
1.0
179
     0
270
     2
144
0.0208333333333333
144
0.0
144
0.0
144
0.0
144
0.0
144
0.0208333333333333
144
0.0
144
0.0
144
0.0
144
0.0
144
1.0
144
0.0
144
0.0
144
0.0
144
0.0
144
1.0
274
     2
147
0.0208333333333333
147
0.0
147
0.0
147
0.0
147
0.0
147
0.0208333333333333
147
0.0
147
0.0
147
0.0
147
0.0
147
1.0
147
0.0
147
0.0
147
0.0
147
0.0
147
1.0
  0
MATERIAL
  5
1F3AC
102
{ACAD_REACTORS
330
9A9
102
}
102
{ACAD_XDICTIONARY
360
1F485
102
}
330
9A9
100
AcDbMaterial
  1
ByLayer
 72
     0
 73
     2
 43
0.0208333333333333
 43
0.0
 43
0.0
 43
0.0
 43
0.0
 43
0.0208333333333333
 43
0.0
 43
0.0
 43
0.0
 43
0.0
 43
1.0
 43
0.0
 43
0.0
 43
0.0
 43
0.0
 43
1.0
 77
     0
 78
     2
 47
0.0208333333333333
 47
0.0
 47
0.0
 47
0.0
 47
0.0
 47
0.0208333333333333
 47
0.0
 47
0.0
 47
0.0
 47
0.0
 47
1.0
 47
0.0
 47
0.0
 47
0.0
 47
0.0
 47
1.0
171
     0
172
     2
 49
0.0208333333333333
 49
0.0
 49
0.0
 49
0.0
 49
0.0
 49
0.0208333333333333
 49
0.0
 49
0.0
 49
0.0
 49
0.0
 49
1.0
 49
0.0
 49
0.0
 49
0.0
 49
0.0
 49
1.0
175
     0
176
     2
142
0.0208333333333333
142
0.0
142
0.0
142
0.0
142
0.0
142
0.0208333333333333
142
0.0
142
0.0
142
0.0
142
0.0
142
1.0
142
0.0
142
0.0
142
0.0
142
0.0
142
1.0
179
     0
270
     2
144
0.0208333333333333
144
0.0
144
0.0
144
0.0
144
0.0
144
0.0208333333333333
144
0.0
144
0.0
144
0.0
144
0.0
144
1.0
144
0.0
144
0.0
144
0.0
144
0.0
144
1.0
274
     2
147
0.0208333333333333
147
0.0
147
0.0
147
0.0
147
0.0
147
0.0208333333333333
147
0.0
147
0.0
147
0.0
147
0.0
147
1.0
147
0.0
147
0.0
147
0.0
147
0.0
147
1.0
  0
MATERIAL
  5
1F3BC
102
{ACAD_REACTORS
330
9A9
102
}
102
{ACAD_XDICTIONARY
360
1F487
102
}
330
9A9
100
AcDbMaterial
  1
Global
 72
     0
 73
     2
 43
0.0208333333333333
 43
0.0
 43
0.0
 43
0.0
 43
0.0
 43
0.0208333333333333
 43
0.0
 43
0.0
 43
0.0
 43
0.0
 43
1.0
 43
0.0
 43
0.0
 43
0.0
 43
0.0
 43
1.0
 77
     0
 78
     2
 47
0.0208333333333333
 47
0.0
 47
0.0
 47
0.0
 47
0.0
 47
0.0208333333333333
 47
0.0
 47
0.0
 47
0.0
 47
0.0
 47
1.0
 47
0.0
 47
0.0
 47
0.0
 47
0.0
 47
1.0
171
     0
172
     2
 49
0.0208333333333333
 49
0.0
 49
0.0
 49
0.0
 49
0.0
 49
0.0208333333333333
 49
0.0
 49
0.0
 49
0.0
 49
0.0
 49
1.0
 49
0.0
 49
0.0
 49
0.0
 49
0.0
 49
1.0
175
     0
176
     2
142
0.0208333333333333
142
0.0
142
0.0
142
0.0
142
0.0
142
0.0208333333333333
142
0.0
142
0.0
142
0.0
142
0.0
142
1.0
142
0.0
142
0.0
142
0.0
142
0.0
142
1.0
179
     0
270
     2
144
0.0208333333333333
144
0.0
144
0.0
144
0.0
144
0.0
144
0.0208333333333333
144
0.0
144
0.0
144
0.0
144
0.0
144
1.0
144
0.0
144
0.0
144
0.0
144
0.0
144
1.0
274
     2
147
0.0208333333333333
147
0.0
147
0.0
147
0.0
147
0.0
147
0.0208333333333333
147
0.0
147
0.0
147
0.0
147
0.0
147
1.0
147
0.0
147
0.0
147
0.0
147
0.0
147
1.0
  0
MLEADERSTYLE
  5
1F3F0
102
{ACAD_REACTORS
330
1F3EF
102
}
330
1F3EF
100
AcDbMLeaderStyle
170
     2
171
     1
172
     0
 90
        2
 40
0.0
 41
0.0
173
     1
 91
-1056964608
340
11
 92
       -2
290
     1
 42
0.09
291
     1
 43
0.36
  3
Standard
341
0
 44
0.18
300

342
F
174
     1
178
     6
175
     1
176
     0
 93
-1056964608
 45
0.18
292
     0
297
     0
 46
0.18
343
0
 94
-1056964608
 47
1.0
 49
1.0
140
1.0
293
     1
141
0.0
294
     1
177
     0
142
1.0
295
     0
296
     0
143
0.125
1001
ACAD_MLEADERVER
1070
     2
  0
MLINESTYLE
  5
1B
102
{ACAD_REACTORS
330
1A
102
}
330
1A
100
AcDbMlineStyle
  2
STANDARD
 70
     0
  3

 62
   256
 51
90.0
 52
90.0
 71
     2
 49
0.5
 62
   256
  6
BYLAYER
 49
-0.5
 62
   256
  6
BYLAYER
  0
ACDBPLACEHOLDER
  5
7A
102
{ACAD_REACTORS
330
79
102
}
330
79
  0
SCALE
  5
1F3DE
102
{ACAD_REACTORS
330
1F3DD
102
}
330
1F3DD
100
AcDbScale
 70
     0
300
1:1
140
1.0
141
1.0
290
     1
  0
SCALE
  5
1F3DF
102
{ACAD_REACTORS
330
1F3DD
102
}
330
1F3DD
100
AcDbScale
 70
     0
300
1/128" = 1'-0"
140
0.0078125
141
12.0
290
     0
  0
SCALE
  5
1F3E0
102
{ACAD_REACTORS
330
1F3DD
102
}
330
1F3DD
100
AcDbScale
 70
     0
300
1/64" = 1'-0"
140
0.015625
141
12.0
290
     0
  0
SCALE
  5
1F3E1
102
{ACAD_REACTORS
330
1F3DD
102
}
330
1F3DD
100
AcDbScale
 70
     0
300
1/32" = 1'-0"
140
0.03125
141
12.0
290
     0
  0
SCALE
  5
1F3E2
102
{ACAD_REACTORS
330
1F3DD
102
}
330
1F3DD
100
AcDbScale
 70
     0
300
1/16" = 1'-0"
140
0.0625
141
12.0
290
     0
  0
SCALE
  5
1F3E3
102
{ACAD_REACTORS
330
1F3DD
102
}
330
1F3DD
100
AcDbScale
 70
     0
300
3/32" = 1'-0"
140
0.09375
141
12.0
290
     0
  0
SCALE
  5
1F3E4
102
{ACAD_REACTORS
330
1F3DD
102
}
330
1F3DD
100
AcDbScale
 70
     0
300
1/8" = 1'-0"
140
0.125
141
12.0
290
     0
  0
SCALE
  5
1F3E5
102
{ACAD_REACTORS
330
1F3DD
102
}
330
1F3DD
100
AcDbScale
 70
     0
300
3/16" = 1'-0"
140
0.1875
141
12.0
290
     0
  0
SCALE
  5
1F3E6
102
{ACAD_REACTORS
330
1F3DD
102
}
330
1F3DD
100
AcDbScale
 70
     0
300
1/4" = 1'-0"
140
0.25
141
12.0
290
     0
  0
SCALE
  5
1F3E7
102
{ACAD_REACTORS
330
1F3DD
102
}
330
1F3DD
100
AcDbScale
 70
     0
300
3/8" = 1'-0"
140
0.375
141
12.0
290
     0
  0
SCALE
  5
1F3E8
102
{ACAD_REACTORS
330
1F3DD
102
}
330
1F3DD
100
AcDbScale
 70
     0
300
1/2" = 1'-0"
140
0.5
141
12.0
290
     0
  0
SCALE
  5
1F3E9
102
{ACAD_REACTORS
330
1F3DD
102
}
330
1F3DD
100
AcDbScale
 70
     0
300
3/4" = 1'-0"
140
0.75
141
12.0
290
     0
  0
SCALE
  5
1F3EA
102
{ACAD_REACTORS
330
1F3DD
102
}
330
1F3DD
100
AcDbScale
 70
     0
300
1" = 1'-0"
140
1.0
141
12.0
290
     0
  0
SCALE
  5
1F3EB
102
{ACAD_REACTORS
330
1F3DD
102
}
330
1F3DD
100
AcDbScale
 70
     0
300
1-1/2" = 1'-0"
140
1.5
141
12.0
290
     0
  0
SCALE
  5
1F3EC
102
{ACAD_REACTORS
330
1F3DD
102
}
330
1F3DD
100
AcDbScale
 70
     0
300
3" = 1'-0"
140
3.0
141
12.0
290
     0
  0
SCALE
  5
1F3ED
102
{ACAD_REACTORS
330
1F3DD
102
}
330
1F3DD
100
AcDbScale
 70
     0
300
6" = 1'-0"
140
6.0
141
12.0
290
     0
  0
SCALE
  5
1F3EE
102
{ACAD_REACTORS
330
1F3DD
102
}
330
1F3DD
100
AcDbScale
 70
     0
300
1'-0" = 1'-0"
140
12.0
141
12.0
290
     0
  0
ACAD_PROXY_OBJECT
  5
1F3F2
102
{ACAD_REACTORS
330
1F3F1
102
}
102
{ACAD_XDICTIONARY
360
1F474
102
}
330
1F3F1
100
AcDbProxyObject
 90
      499
 91
      525
 95
  3276827
 70
     0
 93
     3814
310
929D000000180005C0F42F5A8DC671FC00000060001703D0BD6A3719C7E5C0F42F5A8DC6F1FA330000001800099400000060001703D0BD6A3719C7E5C0F42F5A8DC671FC00000060001703D0BD6A3719C7E808000000000001D07E80C0000006000400000064003081815AF46E07A158E7E80C8340C16A22A7D90FC9F8CAE6
310
5A70A583A07E1FE81C635378FA1F8CAE65A70A583A17E7944A7F127A97E9FA149200DA00E000CA00E400D200C200D80064006800882480160010002780160010002880160010002980160010002C00160010002D002F84A007800B8008200C600AC00C200E4004000AC00D200CA00EE00A800F200E000CA004000B800CC004
310
00044004A00E800C600620044007C004A0040004A007800B8008200C600AC00C200E4004000AC00D200CA00EE00A600CA00C600E800D200DE00DC00A600E800C200E400E8009200C8007C004A005A004A007800B8008200C600AC00C200E4004000AC00D200CA00EE00A600CA00C600E800D200DE00DC008A00DC00C800920
310
0C8007C004A00B800A000A6008600820098008A0040004A007800B8008200C600AC00C200E4004000AC00D200CA00EE00A600C600C200D800CA004000B800CC00400044004A00E600DC0044007C004A00832080270029802480198018807404C
340
F
340
0
340
0
340
13
340
13
340
F
 94
        0
  0
TABLESTYLE
  5
9AC
102
{ACAD_REACTORS
330
9AB
102
}
102
{ACAD_XDICTIONARY
360
1F489
102
}
330
9AB
100
AcDbTableStyle
  3
Standard
 70
     0
 71
     0
 40
0.06
 41
0.06
280
     0
281
     0
  7
STANDARD
140
0.18
170
     2
 62
     0
 63
   257
283
     0
274
    -2
284
     1
 64
     0
275
    -2
285
     1
 65
     0
276
    -2
286
     1
 66
     0
277
    -2
287
     1
 67
     0
278
    -2
288
     1
 68
     0
279
    -2
289
     1
 69
     0
  7
STANDARD
140
0.25
170
     5
 62
     0
 63
   257
283
     0
274
    -2
284
     1
 64
     0
275
    -2
285
     1
 65
     0
276
    -2
286
     1
 66
     0
277
    -2
287
     1
 67
     0
278
    -2
288
     1
 68
     0
279
    -2
289
     1
 69
     0
  7
STANDARD
140
0.18
170
     5
 62
     0
 63
   257
283
     0
274
    -2
284
     1
 64
     0
275
    -2
285
     1
 65
     0
276
    -2
286
     1
 66
     0
277
    -2
287
     1
 67
     0
278
    -2
288
     1
 68
     0
279
    -2
289
     1
 69
     0
  0
VISUALSTYLE
  5
1F3CA
102
{ACAD_REACTORS
330
1F3C4
102
}
102
{ACAD_XDICTIONARY
360
1F48D
102
}
330
1F3C4
100
AcDbVisualStyle
  2
2dWireframe
 70
     4
 71
     0
 72
     2
 73
     0
 90
        0
 40
-0.6
 41
-30.0
 62
     5
 63
     7
421
 16777215
 74
     1
 91
        4
 64
     7
 65
   257
 75
     1
175
     1
 42
1.0
 92
        0
 66
   257
 43
1.0
 76
     1
 77
     6
 78
     2
 67
     7
 79
     5
170
     0
171
     0
290
     0
174
     0
 93
        1
 44
0.0
173
     0
291
     0
 45
0.0
1001
ACAD
1000
AcDbSavedByObjectVersion
1070
     0
  0
VISUALSTYLE
  5
1F3C9
102
{ACAD_REACTORS
330
1F3C4
102
}
102
{ACAD_XDICTIONARY
360
1F48F
102
}
330
1F3C4
100
AcDbVisualStyle
  2
Basic
 70
     7
 71
     1
 72
     0
 73
     1
 90
        0
 40
-0.6
 41
-30.0
 62
     5
 63
     7
421
 16777215
 74
     0
 91
        4
 64
     7
 65
   257
 75
     1
175
     1
 42
1.0
 92
        8
 66
     7
 43
1.0
 76
     1
 77
     6
 78
     2
 67
     7
 79
     5
170
     0
171
     0
290
     0
174
     0
 93
        1
 44
0.0
173
     0
291
     1
 45
0.0
1001
ACAD
1000
AcDbSavedByObjectVersion
1070
     0
  0
VISUALSTYLE
  5
1F3D0
102
{ACAD_REACTORS
330
1F3C4
102
}
102
{ACAD_XDICTIONARY
360
1F491
102
}
330
1F3C4
100
AcDbVisualStyle
  2
Brighten
 70
    12
 71
     2
 72
     2
 73
     0
 90
        0
 40
-0.6
 41
-30.0
 62
     5
 63
     7
421
 16777215
 74
     1
 91
        4
 64
     7
 65
   257
 75
     1
175
     1
 42
1.0
 92
        8
 66
     7
 43
1.0
 76
     1
 77
     6
 78
     2
 67
     7
 79
     5
170
     0
171
     0
290
     0
174
     0
 93
        1
 44
50.0
173
     0
291
     1
 45
0.0
1001
ACAD
1000
AcDbSavedByObjectVersion
1070
     0
  0
VISUALSTYLE
  5
1F3D4
102
{ACAD_REACTORS
330
1F3C4
102
}
102
{ACAD_XDICTIONARY
360
1F493
102
}
330
1F3C4
100
AcDbVisualStyle
  2
ColorChange
 70
    16
 71
     2
 72
     2
 73
     3
 90
        0
 40
-0.6
 41
-30.0
 62
     5
 63
     8
421
  8421504
 74
     1
 91
        4
 64
     7
 65
   257
 75
     1
175
     1
 42
1.0
 92
        8
 66
     8
424
  8421504
 43
1.0
 76
     1
 77
     6
 78
     2
 67
     7
 79
     5
170
     0
171
     0
290
     0
174
     0
 93
        1
 44
0.0
173
     0
291
     1
 45
0.0
1001
ACAD
1000
AcDbSavedByObjectVersion
1070
     0
  0
VISUALSTYLE
  5
1F3CD
102
{ACAD_REACTORS
330
1F3C4
102
}
102
{ACAD_XDICTIONARY
360
1F495
102
}
330
1F3C4
100
AcDbVisualStyle
  2
Conceptual
 70
     9
 71
     3
 72
     2
 73
     0
 90
        0
 40
-0.6
 41
-30.0
 62
     5
 63
     7
421
 16777215
 74
     2
 91
        2
 64
     7
 65
   257
 75
     1
175
     1
 42
179.0
 92
        8
 66
     7
 43
1.0
 76
     1
 77
     6
 78
     2
 67
     7
 79
     3
170
     0
171
     0
290
     0
174
     0
 93
        1
 44
0.0
173
     0
291
     0
 45
0.0
1001
ACAD
1000
AcDbSavedByObjectVersion
1070
     0
  0
VISUALSTYLE
  5
1F3CF
102
{ACAD_REACTORS
330
1F3C4
102
}
102
{ACAD_XDICTIONARY
360
1F497
102
}
330
1F3C4
100
AcDbVisualStyle
  2
Dim
 70
    11
 71
     2
 72
     2
 73
     0
 90
        0
 40
-0.6
 41
-30.0
 62
     5
 63
     7
421
 16777215
 74
     1
 91
        4
 64
     7
 65
   257
 75
     1
175
     1
 42
1.0
 92
        8
 66
     7
 43
1.0
 76
     1
 77
     6
 78
     2
 67
     7
 79
     5
170
     0
171
     0
290
     0
174
     0
 93
        1
 44
-50.0
173
     0
291
     1
 45
0.0
1001
ACAD
1000
AcDbSavedByObjectVersion
1070
     0
  0
VISUALSTYLE
  5
1F3DC
102
{ACAD_REACTORS
330
1F3C4
102
}
102
{ACAD_XDICTIONARY
360
1F499
102
}
330
1F3C4
100
AcDbVisualStyle
  2
EdgeColorOff
 70
    22
 71
     2
 72
     2
 73
     0
 90
        0
 40
-0.6
 41
-30.0
 62
     5
 63
     7
421
 16777215
 74
     1
 91
        4
 64
     7
 65
   257
 75
     1
175
     1
 42
1.0
 92
        8
 66
     7
 43
1.0
 76
     1
 77
     6
 78
     2
 67
     7
 79
     5
170
     0
171
     0
290
     0
174
     0
 93
        1
 44
0.0
173
     0
291
     1
 45
0.0
1001
ACAD
1000
AcDbSavedByObjectVersion
1070
     0
  0
VISUALSTYLE
  5
1F3D3
102
{ACAD_REACTORS
330
1F3C4
102
}
102
{ACAD_XDICTIONARY
360
1F49B
102
}
330
1F3C4
100
AcDbVisualStyle
  2
Facepattern
 70
    15
 71
     2
 72
     2
 73
     0
 90
        0
 40
-0.6
 41
-30.0
 62
     5
 63
     7
421
 16777215
 74
     1
 91
        4
 64
     7
 65
   257
 75
     1
175
     1
 42
1.0
 92
        8
 66
     7
 43
1.0
 76
     1
 77
     6
 78
     2
 67
     7
 79
     5
170
     0
171
     0
290
     0
174
     0
 93
        1
 44
0.0
173
     0
291
     1
 45
0.0
1001
ACAD
1000
AcDbSavedByObjectVersion
1070
     0
  0
VISUALSTYLE
  5
1F3C5
102
{ACAD_REACTORS
330
1F3C4
102
}
102
{ACAD_XDICTIONARY
360
1F49D
102
}
330
1F3C4
100
AcDbVisualStyle
  2
Flat
 70
     0
 71
     2
 72
     1
 73
     1
 90
        2
 40
-0.6
 41
30.0
 62
     5
 63
     7
421
 16777215
 74
     0
 91
        0
 64
     7
 65
   257
 75
     1
175
     1
 42
1.0
 92
        8
 66
     7
 43
1.0
 76
     1
 77
     6
 78
     2
 67
     7
 79
     5
170
     0
171
     0
290
     0
174
     0
 93
       13
 44
0.0
173
     0
291
     1
 45
0.0
1001
ACAD
1000
AcDbSavedByObjectVersion
1070
     0
  0
VISUALSTYLE
  5
1F3C6
102
{ACAD_REACTORS
330
1F3C4
102
}
102
{ACAD_XDICTIONARY
360
1F49F
102
}
330
1F3C4
100
AcDbVisualStyle
  2
FlatWithEdges
 70
     1
 71
     2
 72
     1
 73
     1
 90
        2
 40
-0.6
 41
30.0
 62
     5
 63
     7
421
 16777215
 74
     1
 91
        0
 64
     7
 65
   257
 75
     1
175
     1
 42
1.0
 92
        0
 66
   257
 43
1.0
 76
     1
 77
     6
 78
     2
 67
     7
 79
     5
170
     0
171
     0
290
     0
174
     0
 93
       13
 44
0.0
173
     0
291
     1
 45
0.0
1001
ACAD
1000
AcDbSavedByObjectVersion
1070
     0
  0
VISUALSTYLE
  5
1F3C7
102
{ACAD_REACTORS
330
1F3C4
102
}
102
{ACAD_XDICTIONARY
360
1F4A1
102
}
330
1F3C4
100
AcDbVisualStyle
  2
Gouraud
 70
     2
 71
     2
 72
     2
 73
     1
 90
        2
 40
-0.6
 41
30.0
 62
     5
 63
     7
421
 16777215
 74
     0
 91
        0
 64
     7
 65
   257
 75
     1
175
     1
 42
1.0
 92
        0
 66
     7
 43
1.0
 76
     1
 77
     6
 78
     2
 67
     7
 79
     5
170
     0
171
     0
290
     0
174
     0
 93
       13
 44
0.0
173
     0
291
     1
 45
0.0
1001
ACAD
1000
AcDbSavedByObjectVersion
1070
     0
  0
VISUALSTYLE
  5
1F3C8
102
{ACAD_REACTORS
330
1F3C4
102
}
102
{ACAD_XDICTIONARY
360
1F4A3
102
}
330
1F3C4
100
AcDbVisualStyle
  2
GouraudWithEdges
 70
     3
 71
     2
 72
     2
 73
     1
 90
        2
 40
-0.6
 41
30.0
 62
     5
 63
     7
421
 16777215
 74
     1
 91
        0
 64
     7
 65
   257
 75
     1
175
     1
 42
1.0
 92
        0
 66
   257
 43
1.0
 76
     1
 77
     6
 78
     2
 67
     7
 79
     5
170
     0
171
     0
290
     0
174
     0
 93
       13
 44
0.0
173
     0
291
     1
 45
0.0
1001
ACAD
1000
AcDbSavedByObjectVersion
1070
     0
  0
VISUALSTYLE
  5
1F3CC
102
{ACAD_REACTORS
330
1F3C4
102
}
102
{ACAD_XDICTIONARY
360
1F4A5
102
}
330
1F3C4
100
AcDbVisualStyle
  2
Hidden
 70
     6
 71
     1
 72
     2
 73
     2
 90
        0
 40
-0.6
 41
-30.0
 62
     5
 63
     7
421
 16777215
 74
     2
 91
        2
 64
     7
 65
   257
 75
     2
175
     1
 42
40.0
 92
        0
 66
   257
 43
1.0
 76
     1
 77
     6
 78
     2
 67
     7
 79
     3
170
     0
171
     0
290
     0
174
     0
 93
        1
 44
0.0
173
     0
291
     0
 45
0.0
1001
ACAD
1000
AcDbSavedByObjectVersion
1070
     0
  0
VISUALSTYLE
  5
1F3DA
102
{ACAD_REACTORS
330
1F3C4
102
}
102
{ACAD_XDICTIONARY
360
1F4A7
102
}
330
1F3C4
100
AcDbVisualStyle
  2
JitterOff
 70
    20
 71
     2
 72
     2
 73
     0
 90
        0
 40
-0.6
 41
-30.0
 62
     5
 63
     7
421
 16777215
 74
     1
 91
        4
 64
     7
 65
   257
 75
     1
175
     1
 42
1.0
 92
       10
 66
     7
 43
1.0
 76
     1
 77
     6
 78
     2
 67
     7
 79
     5
170
     0
171
     0
290
     0
174
     0
 93
        1
 44
0.0
173
     0
291
     1
 45
0.0
1001
ACAD
1000
AcDbSavedByObjectVersion
1070
     0
  0
VISUALSTYLE
  5
1F3D2
102
{ACAD_REACTORS
330
1F3C4
102
}
102
{ACAD_XDICTIONARY
360
1F4A9
102
}
330
1F3C4
100
AcDbVisualStyle
  2
Linepattern
 70
    14
 71
     2
 72
     2
 73
     0
 90
        0
 40
-0.6
 41
-30.0
 62
     5
 63
     7
421
 16777215
 74
     1
 91
        4
 64
     7
 65
   257
 75
     7
175
     7
 42
1.0
 92
        8
 66
     7
 43
1.0
 76
     1
 77
     6
 78
     2
 67
     7
 79
     5
170
     0
171
     0
290
     0
174
     0
 93
        1
 44
0.0
173
     0
291
     1
 45
0.0
1001
ACAD
1000
AcDbSavedByObjectVersion
1070
     0
  0
VISUALSTYLE
  5
1F3DB
102
{ACAD_REACTORS
330
1F3C4
102
}
102
{ACAD_XDICTIONARY
360
1F4AB
102
}
330
1F3C4
100
AcDbVisualStyle
  2
OverhangOff
 70
    21
 71
     2
 72
     2
 73
     0
 90
        0
 40
-0.6
 41
-30.0
 62
     5
 63
     7
421
 16777215
 74
     1
 91
        4
 64
     7
 65
   257
 75
     1
175
     1
 42
1.0
 92
        9
 66
     7
 43
1.0
 76
     1
 77
     6
 78
     2
 67
     7
 79
     5
170
     0
171
     0
290
     0
174
     0
 93
        1
 44
0.0
173
     0
291
     1
 45
0.0
1001
ACAD
1000
AcDbSavedByObjectVersion
1070
     0
  0
VISUALSTYLE
  5
1F3CE
102
{ACAD_REACTORS
330
1F3C4
102
}
102
{ACAD_XDICTIONARY
360
1F4AD
102
}
330
1F3C4
100
AcDbVisualStyle
  2
Realistic
 70
     8
 71
     2
 72
     2
 73
     0
 90
        2
 40
-0.6
 41
30.0
 62
     5
 63
     7
421
 16777215
 74
     0
 91
        0
 64
     7
 65
   257
 75
     1
175
     1
 42
1.0
 92
        8
 66
   257
 43
1.0
 76
     1
 77
     6
 78
     2
 67
     7
 79
     3
170
     0
171
     0
290
     0
174
     0
 93
       13
 44
0.0
173
     0
291
     0
 45
0.0
1001
ACAD
1000
AcDbSavedByObjectVersion
1070
     0
  0
VISUALSTYLE
  5
1F3D9
102
{ACAD_REACTORS
330
1F3C4
102
}
102
{ACAD_XDICTIONARY
360
1F4AF
102
}
330
1F3C4
100
AcDbVisualStyle
  2
Shaded
 70
    27
 71
     2
 72
     2
 73
     1
 90
        2
 40
-0.6
 41
30.0
 62
     5
 63
     7
421
 16777215
 74
     0
 91
        4
 64
     7
 65
   257
 75
     1
175
     1
 42
1.0
 92
        8
 66
   257
 43
1.0
 76
     1
 77
     6
 78
     2
 67
     8
425
  7895160
 79
     3
170
     0
171
     0
290
     0
174
     0
 93
        5
 44
0.0
173
     0
291
     0
 45
0.0
1001
ACAD
1000
AcDbSavedByObjectVersion
1070
     0
  0
VISUALSTYLE
  5
1F3D8
102
{ACAD_REACTORS
330
1F3C4
102
}
102
{ACAD_XDICTIONARY
360
1F4B1
102
}
330
1F3C4
100
AcDbVisualStyle
  2
Shaded with edges
 70
    26
 71
     2
 72
     2
 73
     1
 90
        2
 40
-0.6
 41
30.0
 62
     5
 63
     7
421
 16777215
 74
     1
 91
       10
 64
     7
 65
   257
 75
     2
175
     1
 42
1.0
 92
        8
 66
   257
 43
1.0
 76
     1
 77
     6
 78
     2
 67
     7
 79
     3
170
     0
171
     0
290
     0
174
     0
 93
        5
 44
0.0
173
     0
291
     0
 45
0.0
1001
ACAD
1000
AcDbSavedByObjectVersion
1070
     0
  0
VISUALSTYLE
  5
1F3D5
102
{ACAD_REACTORS
330
1F3C4
102
}
102
{ACAD_XDICTIONARY
360
1F4B3
102
}
330
1F3C4
100
AcDbVisualStyle
  2
Shades of Gray
 70
    23
 71
     2
 72
     2
 73
     3
 90
        0
 40
-0.6
 41
-30.0
 62
     5
 63
     7
421
 16777215
 74
     2
 91
        2
 64
     7
 65
     7
 75
     1
175
     1
 42
40.0
 92
        8
 66
     7
 43
1.0
 76
     1
 77
     6
 78
     2
 67
     7
 79
     3
170
     0
171
     0
290
     0
174
     0
 93
        1
 44
0.0
173
     0
291
     0
 45
0.0
1001
ACAD
1000
AcDbSavedByObjectVersion
1070
     0
  0
VISUALSTYLE
  5
1F3D6
102
{ACAD_REACTORS
330
1F3C4
102
}
102
{ACAD_XDICTIONARY
360
1F4B5
102
}
330
1F3C4
100
AcDbVisualStyle
  2
Sketchy
 70
    24
 71
     1
 72
     2
 73
     2
 90
        0
 40
-0.6
 41
-30.0
 62
     5
 63
     7
421
 16777215
 74
     2
 91
        2
 64
     7
 65
     7
 75
     1
175
     1
 42
40.0
 92
       11
 66
     7
 43
1.0
 76
     1
 77
     6
 78
     2
 67
     7
 79
     6
170
     0
171
     0
290
     0
174
     0
 93
        1
 44
0.0
173
     0
291
     0
 45
0.0
1001
ACAD
1000
AcDbSavedByObjectVersion
1070
     0
  0
VISUALSTYLE
  5
1F3D1
102
{ACAD_REACTORS
330
1F3C4
102
}
102
{ACAD_XDICTIONARY
360
1F4B7
102
}
330
1F3C4
100
AcDbVisualStyle
  2
Thicken
 70
    13
 71
     2
 72
     2
 73
     0
 90
        0
 40
-0.6
 41
-30.0
 62
     5
 63
     7
421
 16777215
 74
     1
 91
        4
 64
     7
 65
   257
 75
     1
175
     1
 42
1.0
 92
       12
 66
     7
 43
1.0
 76
     1
 77
     6
 78
     2
 67
     7
 79
     5
170
     0
171
     0
290
     0
174
     0
 93
        1
 44
0.0
173
     0
291
     1
 45
0.0
1001
ACAD
1000
AcDbSavedByObjectVersion
1070
     0
  0
VISUALSTYLE
  5
1F3CB
102
{ACAD_REACTORS
330
1F3C4
102
}
102
{ACAD_XDICTIONARY
360
1F4B9
102
}
330
1F3C4
100
AcDbVisualStyle
  2
Wireframe
 70
     5
 71
     0
 72
     2
 73
     0
 90
        0
 40
-0.6
 41
-30.0
 62
     5
 63
     7
421
 16777215
 74
     1
 91
        4
 64
     7
 65
   257
 75
     1
175
     1
 42
1.0
 92
        0
 66
   257
 43
1.0
 76
     1
 77
     6
 78
     2
 67
     7
 79
     3
170
     0
171
     0
290
     0
174
     0
 93
        1
 44
0.0
173
     0
291
     0
 45
0.0
1001
ACAD
1000
AcDbSavedByObjectVersion
1070
     0
  0
VISUALSTYLE
  5
1F3D7
102
{ACAD_REACTORS
330
1F3C4
102
}
102
{ACAD_XDICTIONARY
360
1F4BB
102
}
330
1F3C4
100
AcDbVisualStyle
  2
X-Ray
 70
    25
 71
     2
 72
     2
 73
     1
 90
        1
 40
0.5
 41
-30.0
 62
     5
 63
     7
421
 16777215
 74
     1
 91
        0
 64
     7
 65
   257
 75
     1
175
     1
 42
1.0
 92
        8
 66
     7
 43
1.0
 76
     1
 77
     6
 78
     2
 67
     7
 79
     3
170
     0
171
     0
290
     0
174
     0
 93
       13
 44
0.0
173
     0
291
     0
 45
0.0
1001
ACAD
1000
AcDbSavedByObjectVersion
1070
     0
  0
DICTIONARYVAR
  5
1F47C
102
{ACAD_REACTORS
330
946
102
}
330
946
100
DictionaryVariables
280
     0
  1
1:1
  0
DICTIONARYVAR
  5
1F478
102
{ACAD_REACTORS
330
946
102
}
330
946
100
DictionaryVariables
280
     0
  1
Standard
  0
DICTIONARYVAR
  5
CC1
102
{ACAD_REACTORS
330
946
102
}
330
946
100
DictionaryVariables
280
     0
  1
Standard
  0
DICTIONARYVAR
  5
1F479
102
{ACAD_REACTORS
330
946
102
}
330
946
100
DictionaryVariables
280
     0
  1
Imperial24
  0
DICTIONARYVAR
  5
1F47A
102
{ACAD_REACTORS
330
946
102
}
330
946
100
DictionaryVariables
280
     0
  1
Imperial24
  0
DICTIONARYVAR
  5
947
102
{ACAD_REACTORS
330
946
102
}
330
946
100
DictionaryVariables
280
     0
  1
1
  0
DICTIONARYVAR
  5
1F47E
102
{ACAD_REACTORS
330
946
102
}
330
946
100
DictionaryVariables
280
     0
  1
1
  0
DICTIONARYVAR
  5
1F47F
102
{ACAD_REACTORS
330
946
102
}
330
946
100
DictionaryVariables
280
     0
  1
15
  0
DICTIONARYVAR
  5
1F47D
102
{ACAD_REACTORS
330
946
102
}
330
946
100
DictionaryVariables
280
     0
  1
0
  0
DICTIONARYVAR
  5
1F47B
102
{ACAD_REACTORS
330
946
102
}
330
946
100
DictionaryVariables
280
     0
  1
0
  0
DICTIONARYVAR
  5
CC2
102
{ACAD_REACTORS
330
946
102
}
330
946
100
DictionaryVariables
280
     0
  1

  0
DICTIONARYVAR
  5
1F480
102
{ACAD_REACTORS
330
946
102
}
330
946
100
DictionaryVariables
280
     0
  1
2
  0
XRECORD
  5
B418
102
{ACAD_REACTORS
330
B416
102
}
330
B416
100
AcDbXrecord
280
     1
330
0
330
0
330
0
330
0
330
326B
330
0
330
0
  0
DICTIONARY
  5
1F476
330
1F3F4
100
AcDbDictionary
280
     1
281
     1
  3
ACAD_XREC_ROUNDTRIP
360
1F477
  0
DICTIONARY
  5
1F483
330
1F3B4
100
AcDbDictionary
280
     1
281
     1
  3
ACAD_XREC_ROUNDTRIP
360
1F484
  0
DICTIONARY
  5
1F485
330
1F3AC
100
AcDbDictionary
280
     1
281
     1
  3
ACAD_XREC_ROUNDTRIP
360
1F486
  0
DICTIONARY
  5
1F487
330
1F3BC
100
AcDbDictionary
280
     1
281
     1
  3
ACAD_XREC_ROUNDTRIP
360
1F488
  0
DICTIONARY
  5
1F474
330
1F3F2
100
AcDbDictionary
280
     1
281
     1
  3
ACAD_XREC_ROUNDTRIP
360
1F475
  0
DICTIONARY
  5
1F489
330
9AC
100
AcDbDictionary
280
     1
281
     1
  3
ACAD_ROUNDTRIP_2008_TABLESTYLE_CELLSTYLEMAP
360
1F48B
  3
ACAD_XREC_ROUNDTRIP
360
1F48A
  0
DICTIONARY
  5
1F48D
330
1F3CA
100
AcDbDictionary
280
     1
281
     1
  3
ACAD_XREC_ROUNDTRIP
360
1F48E
  0
DICTIONARY
  5
1F48F
330
1F3C9
100
AcDbDictionary
280
     1
281
     1
  3
ACAD_XREC_ROUNDTRIP
360
1F490
  0
DICTIONARY
  5
1F491
330
1F3D0
100
AcDbDictionary
280
     1
281
     1
  3
ACAD_XREC_ROUNDTRIP
360
1F492
  0
DICTIONARY
  5
1F493
330
1F3D4
100
AcDbDictionary
280
     1
281
     1
  3
ACAD_XREC_ROUNDTRIP
360
1F494
  0
DICTIONARY
  5
1F495
330
1F3CD
100
AcDbDictionary
280
     1
281
     1
  3
ACAD_XREC_ROUNDTRIP
360
1F496
  0
DICTIONARY
  5
1F497
330
1F3CF
100
AcDbDictionary
280
     1
281
     1
  3
ACAD_XREC_ROUNDTRIP
360
1F498
  0
DICTIONARY
  5
1F499
330
1F3DC
100
AcDbDictionary
280
     1
281
     1
  3
ACAD_XREC_ROUNDTRIP
360
1F49A
  0
DICTIONARY
  5
1F49B
330
1F3D3
100
AcDbDictionary
280
     1
281
     1
  3
ACAD_XREC_ROUNDTRIP
360
1F49C
  0
DICTIONARY
  5
1F49D
330
1F3C5
100
AcDbDictionary
280
     1
281
     1
  3
ACAD_XREC_ROUNDTRIP
360
1F49E
  0
DICTIONARY
  5
1F49F
330
1F3C6
100
AcDbDictionary
280
     1
281
     1
  3
ACAD_XREC_ROUNDTRIP
360
1F4A0
  0
DICTIONARY
  5
1F4A1
330
1F3C7
100
AcDbDictionary
280
     1
281
     1
  3
ACAD_XREC_ROUNDTRIP
360
1F4A2
  0
DICTIONARY
  5
1F4A3
330
1F3C8
100
AcDbDictionary
280
     1
281
     1
  3
ACAD_XREC_ROUNDTRIP
360
1F4A4
  0
DICTIONARY
  5
1F4A5
330
1F3CC
100
AcDbDictionary
280
     1
281
     1
  3
ACAD_XREC_ROUNDTRIP
360
1F4A6
  0
DICTIONARY
  5
1F4A7
330
1F3DA
100
AcDbDictionary
280
     1
281
     1
  3
ACAD_XREC_ROUNDTRIP
360
1F4A8
  0
DICTIONARY
  5
1F4A9
330
1F3D2
100
AcDbDictionary
280
     1
281
     1
  3
ACAD_XREC_ROUNDTRIP
360
1F4AA
  0
DICTIONARY
  5
1F4AB
330
1F3DB
100
AcDbDictionary
280
     1
281
     1
  3
ACAD_XREC_ROUNDTRIP
360
1F4AC
  0
DICTIONARY
  5
1F4AD
330
1F3CE
100
AcDbDictionary
280
     1
281
     1
  3
ACAD_XREC_ROUNDTRIP
360
1F4AE
  0
DICTIONARY
  5
1F4AF
330
1F3D9
100
AcDbDictionary
280
     1
281
     1
  3
ACAD_XREC_ROUNDTRIP
360
1F4B0
  0
DICTIONARY
  5
1F4B1
330
1F3D8
100
AcDbDictionary
280
     1
281
     1
  3
ACAD_XREC_ROUNDTRIP
360
1F4B2
  0
DICTIONARY
  5
1F4B3
330
1F3D5
100
AcDbDictionary
280
     1
281
     1
  3
ACAD_XREC_ROUNDTRIP
360
1F4B4
  0
DICTIONARY
  5
1F4B5
330
1F3D6
100
AcDbDictionary
280
     1
281
     1
  3
ACAD_XREC_ROUNDTRIP
360
1F4B6
  0
DICTIONARY
  5
1F4B7
330
1F3D1
100
AcDbDictionary
280
     1
281
     1
  3
ACAD_XREC_ROUNDTRIP
360
1F4B8
  0
DICTIONARY
  5
1F4B9
330
1F3CB
100
AcDbDictionary
280
     1
281
     1
  3
ACAD_XREC_ROUNDTRIP
360
1F4BA
  0
DICTIONARY
  5
1F4BB
330
1F3D7
100
AcDbDictionary
280
     1
281
     1
  3
ACAD_XREC_ROUNDTRIP
360
1F4BC
  0
XRECORD
  5
1F477
102
{ACAD_REACTORS
330
1F476
102
}
330
1F476
100
AcDbXrecord
280
     1
102
DISPLAYNAME
  1
Imperial24
102
FLAGS
 90
        0
  0
XRECORD
  5
1F484
102
{ACAD_REACTORS
330
1F483
102
}
330
1F483
100
AcDbXrecord
280
     1
102
MATERIAL
148
0.0
149
0.0
149
0.0
 93
        0
 94
      127
282
     0
 72
     0
 77
     0
171
     0
175
     0
179
     0
273
     0
  0
XRECORD
  5
1F486
102
{ACAD_REACTORS
330
1F485
102
}
330
1F485
100
AcDbXrecord
280
     1
102
MATERIAL
148
0.0
149
0.0
149
0.0
 93
        0
 94
      127
282
     0
 72
     0
 77
     0
171
     0
175
     0
179
     0
273
     0
  0
XRECORD
  5
1F488
102
{ACAD_REACTORS
330
1F487
102
}
330
1F487
100
AcDbXrecord
280
     1
102
MATERIAL
148
0.0
149
0.0
149
0.0
 93
        0
 94
      127
282
     0
 72
     0
 77
     0
171
     0
175
     0
179
     0
273
     0
  0
XRECORD
  5
1F475
102
{ACAD_REACTORS
330
1F474
102
}
330
1F474
100
AcDbXrecord
280
     1
102
DISPLAYNAME
  1
Imperial24
102
FLAGS
 90
        0
  0
CELLSTYLEMAP
  5
1F48B
102
{ACAD_REACTORS
330
1F489
102
}
330
1F489
100
AcDbCellStyleMap
 90
        3
300
CELLSTYLE
  1
TABLEFORMAT_BEGIN
 90
        5
170
     1
 91
        0
 92
    32768
 62
   257
 93
        1
300
CONTENTFORMAT
  1
CONTENTFORMAT_BEGIN
 90
        0
 91
        0
 92
        4
 93
        0
300

 40
0.0
140
1.0
 94
        5
 62
     0
340
F
144
0.25
309
CONTENTFORMAT_END
171
     0
 94
        6
 95
        1
302
GRIDFORMAT
  1
GRIDFORMAT_BEGIN
 90
        0
 91
        1
 62
     0
 92
       -2
340
0
 93
        0
 40
0.045
309
GRIDFORMAT_END
 95
        2
302
GRIDFORMAT
  1
GRIDFORMAT_BEGIN
 90
        0
 91
        1
 62
     0
 92
       -2
340
0
 93
        0
 40
0.045
309
GRIDFORMAT_END
 95
        4
302
GRIDFORMAT
  1
GRIDFORMAT_BEGIN
 90
        0
 91
        1
 62
     0
 92
       -2
340
0
 93
        0
 40
0.045
309
GRIDFORMAT_END
 95
        8
302
GRIDFORMAT
  1
GRIDFORMAT_BEGIN
 90
        0
 91
        1
 62
     0
 92
       -2
340
0
 93
        0
 40
0.045
309
GRIDFORMAT_END
 95
       16
302
GRIDFORMAT
  1
GRIDFORMAT_BEGIN
 90
        0
 91
        1
 62
     0
 92
       -2
340
0
 93
        0
 40
0.045
309
GRIDFORMAT_END
 95
       32
302
GRIDFORMAT
  1
GRIDFORMAT_BEGIN
 90
        0
 91
        1
 62
     0
 92
       -2
340
0
 93
        0
 40
0.045
309
GRIDFORMAT_END
309
TABLEFORMAT_END
  1
CELLSTYLE_BEGIN
 90
        1
 91
        1
300
_TITLE
309
CELLSTYLE_END
300
CELLSTYLE
  1
TABLEFORMAT_BEGIN
 90
        5
170
     1
 91
        0
 92
        0
 62
   257
 93
        1
300
CONTENTFORMAT
  1
CONTENTFORMAT_BEGIN
 90
        0
 91
        0
 92
        4
 93
        0
300

 40
0.0
140
1.0
 94
        5
 62
     0
340
F
144
0.18
309
CONTENTFORMAT_END
171
     0
 94
        6
 95
        1
302
GRIDFORMAT
  1
GRIDFORMAT_BEGIN
 90
        0
 91
        1
 62
     0
 92
       -2
340
0
 93
        0
 40
0.045
309
GRIDFORMAT_END
 95
        2
302
GRIDFORMAT
  1
GRIDFORMAT_BEGIN
 90
        0
 91
        1
 62
     0
 92
       -2
340
0
 93
        0
 40
0.045
309
GRIDFORMAT_END
 95
        4
302
GRIDFORMAT
  1
GRIDFORMAT_BEGIN
 90
        0
 91
        1
 62
     0
 92
       -2
340
0
 93
        0
 40
0.045
309
GRIDFORMAT_END
 95
        8
302
GRIDFORMAT
  1
GRIDFORMAT_BEGIN
 90
        0
 91
        1
 62
     0
 92
       -2
340
0
 93
        0
 40
0.045
309
GRIDFORMAT_END
 95
       16
302
GRIDFORMAT
  1
GRIDFORMAT_BEGIN
 90
        0
 91
        1
 62
     0
 92
       -2
340
0
 93
        0
 40
0.045
309
GRIDFORMAT_END
 95
       32
302
GRIDFORMAT
  1
GRIDFORMAT_BEGIN
 90
        0
 91
        1
 62
     0
 92
       -2
340
0
 93
        0
 40
0.045
309
GRIDFORMAT_END
309
TABLEFORMAT_END
  1
CELLSTYLE_BEGIN
 90
        2
 91
        1
300
_HEADER
309
CELLSTYLE_END
300
CELLSTYLE
  1
TABLEFORMAT_BEGIN
 90
        5
170
     1
 91
        0
 92
        0
 62
   257
 93
        1
300
CONTENTFORMAT
  1
CONTENTFORMAT_BEGIN
 90
        0
 91
        0
 92
        4
 93
        0
300

 40
0.0
140
1.0
 94
        2
 62
     0
340
F
144
0.18
309
CONTENTFORMAT_END
171
     0
 94
        6
 95
        1
302
GRIDFORMAT
  1
GRIDFORMAT_BEGIN
 90
        0
 91
        1
 62
     0
 92
       -2
340
0
 93
        0
 40
0.045
309
GRIDFORMAT_END
 95
        2
302
GRIDFORMAT
  1
GRIDFORMAT_BEGIN
 90
        0
 91
        1
 62
     0
 92
       -2
340
0
 93
        0
 40
0.045
309
GRIDFORMAT_END
 95
        4
302
GRIDFORMAT
  1
GRIDFORMAT_BEGIN
 90
        0
 91
        1
 62
     0
 92
       -2
340
0
 93
        0
 40
0.045
309
GRIDFORMAT_END
 95
        8
302
GRIDFORMAT
  1
GRIDFORMAT_BEGIN
 90
        0
 91
        1
 62
     0
 92
       -2
340
0
 93
        0
 40
0.045
309
GRIDFORMAT_END
 95
       16
302
GRIDFORMAT
  1
GRIDFORMAT_BEGIN
 90
        0
 91
        1
 62
     0
 92
       -2
340
0
 93
        0
 40
0.045
309
GRIDFORMAT_END
 95
       32
302
GRIDFORMAT
  1
GRIDFORMAT_BEGIN
 90
        0
 91
        1
 62
     0
 92
       -2
340
0
 93
        0
 40
0.045
309
GRIDFORMAT_END
309
TABLEFORMAT_END
  1
CELLSTYLE_BEGIN
 90
        3
 91
        2
300
_DATA
309
CELLSTYLE_END
  0
XRECORD
  5
1F48A
102
{ACAD_REACTORS
330
1F489
102
}
330
1F489
100
AcDbXrecord
280
     1
102
ACAD_ROUNDTRIP_PRE2007_TABLESTYLE
 90
        4
 91
        0
  1

 92
        4
 93
        0
  2

 94
        4
 95
        0
  3

  0
XRECORD
  5
1F48E
102
{ACAD_REACTORS
330
1F48D
102
}
330
1F48D
100
AcDbXrecord
280
     1
102
RTVSPropertyOp0
 70
     1
102
RTVSPropertyOp1
 70
     1
102
RTVSPropertyOp2
 70
     1
102
RTVSPropertyOp3
 70
     1
102
RTVSPropertyOp4
 70
     1
102
RTVSPropertyOp5
 70
     1
102
RTVSPropertyOp6
 70
     1
102
RTVSPropertyOp7
 70
     1
102
RTVSPropertyOp8
 70
     1
102
RTVSPropertyOp9
 70
     1
102
RTVSPropertyOp10
 70
     1
102
RTVSPropertyOp11
 70
     1
102
RTVSPropertyOp12
 70
     1
102
RTVSPropertyOp13
 70
     1
102
RTVSPropertyOp14
 70
     1
102
RTVSPropertyOp15
 70
     1
102
RTVSPropertyOp16
 70
     1
102
RTVSPropertyOp17
 70
     1
102
RTVSPropertyOp18
 70
     1
102
RTVSPropertyOp19
 70
     1
102
RTVSPropertyOp20
 70
     1
102
RTVSPropertyOp21
 70
     1
102
RTVSPropertyOp22
 70
     1
102
RTVSPropertyOp23
 70
     1
102
RTVSPropertyOp24
 70
     1
102
RTVSPropertyOp25
 70
     1
102
RTVSPropertyOp26
 70
     1
102
RTVSPropertyOp27
 70
     1
  0
XRECORD
  5
1F490
102
{ACAD_REACTORS
330
1F48F
102
}
330
1F48F
100
AcDbXrecord
280
     1
102
RTVSPropertyOp0
 70
     1
102
RTVSPropertyOp1
 70
     1
102
RTVSPropertyOp2
 70
     1
102
RTVSPropertyOp3
 70
     1
102
RTVSPropertyOp4
 70
     1
102
RTVSPropertyOp5
 70
     1
102
RTVSPropertyOp6
 70
     1
102
RTVSPropertyOp7
 70
     1
102
RTVSPropertyOp8
 70
     1
102
RTVSPropertyOp9
 70
     1
102
RTVSPropertyOp10
 70
     1
102
RTVSPropertyOp11
 70
     1
102
RTVSPropertyOp12
 70
     1
102
RTVSPropertyOp13
 70
     1
102
RTVSPropertyOp14
 70
     1
102
RTVSPropertyOp15
 70
     1
102
RTVSPropertyOp16
 70
     1
102
RTVSPropertyOp17
 70
     1
102
RTVSPropertyOp18
 70
     1
102
RTVSPropertyOp19
 70
     1
102
RTVSPropertyOp20
 70
     1
102
RTVSPropertyOp21
 70
     1
102
RTVSPropertyOp22
 70
     1
102
RTVSPropertyOp23
 70
     1
102
RTVSPropertyOp24
 70
     1
102
RTVSPropertyOp25
 70
     1
102
RTVSPropertyOp26
 70
     1
102
RTVSPropertyOp27
 70
     1
  0
XRECORD
  5
1F492
102
{ACAD_REACTORS
330
1F491
102
}
330
1F491
100
AcDbXrecord
280
     1
102
RTVSPropertyOp0
 70
     1
102
RTVSPropertyOp1
 70
     1
102
RTVSPropertyOp2
 70
     1
102
RTVSPropertyOp3
 70
     1
102
RTVSPropertyOp4
 70
     1
102
RTVSPropertyOp5
 70
     1
102
RTVSPropertyOp6
 70
     1
102
RTVSPropertyOp7
 70
     1
102
RTVSPropertyOp8
 70
     1
102
RTVSPropertyOp9
 70
     1
102
RTVSPropertyOp10
 70
     1
102
RTVSPropertyOp11
 70
     1
102
RTVSPropertyOp12
 70
     1
102
RTVSPropertyOp13
 70
     1
102
RTVSPropertyOp14
 70
     1
102
RTVSPropertyOp15
 70
     1
102
RTVSPropertyOp16
 70
     1
102
RTVSPropertyOp17
 70
     1
102
RTVSPropertyOp18
 70
     1
102
RTVSPropertyOp19
 70
     1
102
RTVSPropertyOp20
 70
     1
102
RTVSPropertyOp21
 70
     1
102
RTVSPropertyOp22
 70
     1
102
RTVSPropertyOp23
 70
     1
102
RTVSPropertyOp24
 70
     1
102
RTVSPropertyOp25
 70
     1
102
RTVSPropertyOp26
 70
     1
102
RTVSPropertyOp27
 70
     1
  0
XRECORD
  5
1F494
102
{ACAD_REACTORS
330
1F493
102
}
330
1F493
100
AcDbXrecord
280
     1
102
RTVSPropertyOp0
 70
     1
102
RTVSPropertyOp1
 70
     1
102
RTVSPropertyOp2
 70
     1
102
RTVSPropertyOp3
 70
     1
102
RTVSPropertyOp4
 70
     1
102
RTVSPropertyOp5
 70
     1
102
RTVSPropertyOp6
 70
     1
102
RTVSPropertyOp7
 70
     1
102
RTVSPropertyOp8
 70
     1
102
RTVSPropertyOp9
 70
     1
102
RTVSPropertyOp10
 70
     1
102
RTVSPropertyOp11
 70
     1
102
RTVSPropertyOp12
 70
     1
102
RTVSPropertyOp13
 70
     1
102
RTVSPropertyOp14
 70
     1
102
RTVSPropertyOp15
 70
     1
102
RTVSPropertyOp16
 70
     1
102
RTVSPropertyOp17
 70
     1
102
RTVSPropertyOp18
 70
     1
102
RTVSPropertyOp19
 70
     1
102
RTVSPropertyOp20
 70
     1
102
RTVSPropertyOp21
 70
     1
102
RTVSPropertyOp22
 70
     1
102
RTVSPropertyOp23
 70
     1
102
RTVSPropertyOp24
 70
     1
102
RTVSPropertyOp25
 70
     1
102
RTVSPropertyOp26
 70
     1
102
RTVSPropertyOp27
 70
     1
  0
XRECORD
  5
1F496
102
{ACAD_REACTORS
330
1F495
102
}
330
1F495
100
AcDbXrecord
280
     1
102
RTVSPropertyOp0
 70
     1
102
RTVSPropertyOp1
 70
     1
102
RTVSPropertyOp2
 70
     1
102
RTVSPropertyOp3
 70
     1
102
RTVSPropertyOp4
 70
     1
102
RTVSPropertyOp5
 70
     1
102
RTVSPropertyOp6
 70
     1
102
RTVSPropertyOp7
 70
     1
102
RTVSPropertyOp8
 70
     1
102
RTVSPropertyOp9
 70
     1
102
RTVSPropertyOp10
 70
     1
102
RTVSPropertyOp11
 70
     1
102
RTVSPropertyOp12
 70
     1
102
RTVSPropertyOp13
 70
     1
102
RTVSPropertyOp14
 70
     1
102
RTVSPropertyOp15
 70
     1
102
RTVSPropertyOp16
 70
     1
102
RTVSPropertyOp17
 70
     1
102
RTVSPropertyOp18
 70
     1
102
RTVSPropertyOp19
 70
     1
102
RTVSPropertyOp20
 70
     1
102
RTVSPropertyOp21
 70
     1
102
RTVSPropertyOp22
 70
     1
102
RTVSPropertyOp23
 70
     1
102
RTVSPropertyOp24
 70
     1
102
RTVSPropertyOp25
 70
     1
102
RTVSPropertyOp26
 70
     1
102
RTVSPropertyOp27
 70
     1
  0
XRECORD
  5
1F498
102
{ACAD_REACTORS
330
1F497
102
}
330
1F497
100
AcDbXrecord
280
     1
102
RTVSPropertyOp0
 70
     1
102
RTVSPropertyOp1
 70
     1
102
RTVSPropertyOp2
 70
     1
102
RTVSPropertyOp3
 70
     1
102
RTVSPropertyOp4
 70
     1
102
RTVSPropertyOp5
 70
     1
102
RTVSPropertyOp6
 70
     1
102
RTVSPropertyOp7
 70
     1
102
RTVSPropertyOp8
 70
     1
102
RTVSPropertyOp9
 70
     1
102
RTVSPropertyOp10
 70
     1
102
RTVSPropertyOp11
 70
     1
102
RTVSPropertyOp12
 70
     1
102
RTVSPropertyOp13
 70
     1
102
RTVSPropertyOp14
 70
     1
102
RTVSPropertyOp15
 70
     1
102
RTVSPropertyOp16
 70
     1
102
RTVSPropertyOp17
 70
     1
102
RTVSPropertyOp18
 70
     1
102
RTVSPropertyOp19
 70
     1
102
RTVSPropertyOp20
 70
     1
102
RTVSPropertyOp21
 70
     1
102
RTVSPropertyOp22
 70
     1
102
RTVSPropertyOp23
 70
     1
102
RTVSPropertyOp24
 70
     1
102
RTVSPropertyOp25
 70
     1
102
RTVSPropertyOp26
 70
     1
102
RTVSPropertyOp27
 70
     1
  0
XRECORD
  5
1F49A
102
{ACAD_REACTORS
330
1F499
102
}
330
1F499
100
AcDbXrecord
280
     1
102
RTVSPropertyOp0
 70
     1
102
RTVSPropertyOp1
 70
     1
102
RTVSPropertyOp2
 70
     1
102
RTVSPropertyOp3
 70
     1
102
RTVSPropertyOp4
 70
     1
102
RTVSPropertyOp5
 70
     1
102
RTVSPropertyOp6
 70
     1
102
RTVSPropertyOp7
 70
     1
102
RTVSPropertyOp8
 70
     1
102
RTVSPropertyOp9
 70
     1
102
RTVSPropertyOp10
 70
     1
102
RTVSPropertyOp11
 70
     1
102
RTVSPropertyOp12
 70
     1
102
RTVSPropertyOp13
 70
     1
102
RTVSPropertyOp14
 70
     1
102
RTVSPropertyOp15
 70
     1
102
RTVSPropertyOp16
 70
     1
102
RTVSPropertyOp17
 70
     1
102
RTVSPropertyOp18
 70
     1
102
RTVSPropertyOp19
 70
     1
102
RTVSPropertyOp20
 70
     1
102
RTVSPropertyOp21
 70
     1
102
RTVSPropertyOp22
 70
     1
102
RTVSPropertyOp23
 70
     1
102
RTVSPropertyOp24
 70
     1
102
RTVSPropertyOp25
 70
     1
102
RTVSPropertyOp26
 70
     1
102
RTVSPropertyOp27
 70
     1
  0
XRECORD
  5
1F49C
102
{ACAD_REACTORS
330
1F49B
102
}
330
1F49B
100
AcDbXrecord
280
     1
102
RTVSPropertyOp0
 70
     1
102
RTVSPropertyOp1
 70
     1
102
RTVSPropertyOp2
 70
     1
102
RTVSPropertyOp3
 70
     1
102
RTVSPropertyOp4
 70
     1
102
RTVSPropertyOp5
 70
     1
102
RTVSPropertyOp6
 70
     1
102
RTVSPropertyOp7
 70
     1
102
RTVSPropertyOp8
 70
     1
102
RTVSPropertyOp9
 70
     1
102
RTVSPropertyOp10
 70
     1
102
RTVSPropertyOp11
 70
     1
102
RTVSPropertyOp12
 70
     1
102
RTVSPropertyOp13
 70
     1
102
RTVSPropertyOp14
 70
     1
102
RTVSPropertyOp15
 70
     1
102
RTVSPropertyOp16
 70
     1
102
RTVSPropertyOp17
 70
     1
102
RTVSPropertyOp18
 70
     1
102
RTVSPropertyOp19
 70
     1
102
RTVSPropertyOp20
 70
     1
102
RTVSPropertyOp21
 70
     1
102
RTVSPropertyOp22
 70
     1
102
RTVSPropertyOp23
 70
     1
102
RTVSPropertyOp24
 70
     1
102
RTVSPropertyOp25
 70
     1
102
RTVSPropertyOp26
 70
     1
102
RTVSPropertyOp27
 70
     1
  0
XRECORD
  5
1F49E
102
{ACAD_REACTORS
330
1F49D
102
}
330
1F49D
100
AcDbXrecord
280
     1
102
RTVSPropertyOp0
 70
     1
102
RTVSPropertyOp1
 70
     1
102
RTVSPropertyOp2
 70
     1
102
RTVSPropertyOp3
 70
     1
102
RTVSPropertyOp4
 70
     1
102
RTVSPropertyOp5
 70
     1
102
RTVSPropertyOp6
 70
     1
102
RTVSPropertyOp7
 70
     1
102
RTVSPropertyOp8
 70
     1
102
RTVSPropertyOp9
 70
     1
102
RTVSPropertyOp10
 70
     1
102
RTVSPropertyOp11
 70
     1
102
RTVSPropertyOp12
 70
     1
102
RTVSPropertyOp13
 70
     1
102
RTVSPropertyOp14
 70
     1
102
RTVSPropertyOp15
 70
     1
102
RTVSPropertyOp16
 70
     1
102
RTVSPropertyOp17
 70
     1
102
RTVSPropertyOp18
 70
     1
102
RTVSPropertyOp19
 70
     1
102
RTVSPropertyOp20
 70
     1
102
RTVSPropertyOp21
 70
     1
102
RTVSPropertyOp22
 70
     1
102
RTVSPropertyOp23
 70
     1
102
RTVSPropertyOp24
 70
     1
102
RTVSPropertyOp25
 70
     1
102
RTVSPropertyOp26
 70
     1
102
RTVSPropertyOp27
 70
     1
  0
XRECORD
  5
1F4A0
102
{ACAD_REACTORS
330
1F49F
102
}
330
1F49F
100
AcDbXrecord
280
     1
102
RTVSPropertyOp0
 70
     1
102
RTVSPropertyOp1
 70
     1
102
RTVSPropertyOp2
 70
     1
102
RTVSPropertyOp3
 70
     1
102
RTVSPropertyOp4
 70
     1
102
RTVSPropertyOp5
 70
     1
102
RTVSPropertyOp6
 70
     1
102
RTVSPropertyOp7
 70
     1
102
RTVSPropertyOp8
 70
     1
102
RTVSPropertyOp9
 70
     1
102
RTVSPropertyOp10
 70
     1
102
RTVSPropertyOp11
 70
     1
102
RTVSPropertyOp12
 70
     1
102
RTVSPropertyOp13
 70
     1
102
RTVSPropertyOp14
 70
     1
102
RTVSPropertyOp15
 70
     1
102
RTVSPropertyOp16
 70
     1
102
RTVSPropertyOp17
 70
     1
102
RTVSPropertyOp18
 70
     1
102
RTVSPropertyOp19
 70
     1
102
RTVSPropertyOp20
 70
     1
102
RTVSPropertyOp21
 70
     1
102
RTVSPropertyOp22
 70
     1
102
RTVSPropertyOp23
 70
     1
102
RTVSPropertyOp24
 70
     1
102
RTVSPropertyOp25
 70
     1
102
RTVSPropertyOp26
 70
     1
102
RTVSPropertyOp27
 70
     1
  0
XRECORD
  5
1F4A2
102
{ACAD_REACTORS
330
1F4A1
102
}
330
1F4A1
100
AcDbXrecord
280
     1
102
RTVSPropertyOp0
 70
     1
102
RTVSPropertyOp1
 70
     1
102
RTVSPropertyOp2
 70
     1
102
RTVSPropertyOp3
 70
     1
102
RTVSPropertyOp4
 70
     1
102
RTVSPropertyOp5
 70
     1
102
RTVSPropertyOp6
 70
     1
102
RTVSPropertyOp7
 70
     1
102
RTVSPropertyOp8
 70
     1
102
RTVSPropertyOp9
 70
     1
102
RTVSPropertyOp10
 70
     1
102
RTVSPropertyOp11
 70
     1
102
RTVSPropertyOp12
 70
     1
102
RTVSPropertyOp13
 70
     1
102
RTVSPropertyOp14
 70
     1
102
RTVSPropertyOp15
 70
     1
102
RTVSPropertyOp16
 70
     1
102
RTVSPropertyOp17
 70
     1
102
RTVSPropertyOp18
 70
     1
102
RTVSPropertyOp19
 70
     1
102
RTVSPropertyOp20
 70
     1
102
RTVSPropertyOp21
 70
     1
102
RTVSPropertyOp22
 70
     1
102
RTVSPropertyOp23
 70
     1
102
RTVSPropertyOp24
 70
     1
102
RTVSPropertyOp25
 70
     1
102
RTVSPropertyOp26
 70
     1
102
RTVSPropertyOp27
 70
     1
  0
XRECORD
  5
1F4A4
102
{ACAD_REACTORS
330
1F4A3
102
}
330
1F4A3
100
AcDbXrecord
280
     1
102
RTVSPropertyOp0
 70
     1
102
RTVSPropertyOp1
 70
     1
102
RTVSPropertyOp2
 70
     1
102
RTVSPropertyOp3
 70
     1
102
RTVSPropertyOp4
 70
     1
102
RTVSPropertyOp5
 70
     1
102
RTVSPropertyOp6
 70
     1
102
RTVSPropertyOp7
 70
     1
102
RTVSPropertyOp8
 70
     1
102
RTVSPropertyOp9
 70
     1
102
RTVSPropertyOp10
 70
     1
102
RTVSPropertyOp11
 70
     1
102
RTVSPropertyOp12
 70
     1
102
RTVSPropertyOp13
 70
     1
102
RTVSPropertyOp14
 70
     1
102
RTVSPropertyOp15
 70
     1
102
RTVSPropertyOp16
 70
     1
102
RTVSPropertyOp17
 70
     1
102
RTVSPropertyOp18
 70
     1
102
RTVSPropertyOp19
 70
     1
102
RTVSPropertyOp20
 70
     1
102
RTVSPropertyOp21
 70
     1
102
RTVSPropertyOp22
 70
     1
102
RTVSPropertyOp23
 70
     1
102
RTVSPropertyOp24
 70
     1
102
RTVSPropertyOp25
 70
     1
102
RTVSPropertyOp26
 70
     1
102
RTVSPropertyOp27
 70
     1
  0
XRECORD
  5
1F4A6
102
{ACAD_REACTORS
330
1F4A5
102
}
330
1F4A5
100
AcDbXrecord
280
     1
102
RTVSPropertyOp0
 70
     1
102
RTVSPropertyOp1
 70
     1
102
RTVSPropertyOp2
 70
     1
102
RTVSPropertyOp3
 70
     1
102
RTVSPropertyOp4
 70
     1
102
RTVSPropertyOp5
 70
     1
102
RTVSPropertyOp6
 70
     1
102
RTVSPropertyOp7
 70
     1
102
RTVSPropertyOp8
 70
     1
102
RTVSPropertyOp9
 70
     1
102
RTVSPropertyOp10
 70
     1
102
RTVSPropertyOp11
 70
     1
102
RTVSPropertyOp12
 70
     1
102
RTVSPropertyOp13
 70
     1
102
RTVSPropertyOp14
 70
     1
102
RTVSPropertyOp15
 70
     1
102
RTVSPropertyOp16
 70
     1
102
RTVSPropertyOp17
 70
     1
102
RTVSPropertyOp18
 70
     1
102
RTVSPropertyOp19
 70
     1
102
RTVSPropertyOp20
 70
     1
102
RTVSPropertyOp21
 70
     1
102
RTVSPropertyOp22
 70
     1
102
RTVSPropertyOp23
 70
     1
102
RTVSPropertyOp24
 70
     1
102
RTVSPropertyOp25
 70
     1
102
RTVSPropertyOp26
 70
     1
102
RTVSPropertyOp27
 70
     1
  0
XRECORD
  5
1F4A8
102
{ACAD_REACTORS
330
1F4A7
102
}
330
1F4A7
100
AcDbXrecord
280
     1
102
RTVSPropertyOp0
 70
     1
102
RTVSPropertyOp1
 70
     1
102
RTVSPropertyOp2
 70
     1
102
RTVSPropertyOp3
 70
     1
102
RTVSPropertyOp4
 70
     1
102
RTVSPropertyOp5
 70
     1
102
RTVSPropertyOp6
 70
     1
102
RTVSPropertyOp7
 70
     1
102
RTVSPropertyOp8
 70
     1
102
RTVSPropertyOp9
 70
     1
102
RTVSPropertyOp10
 70
     1
102
RTVSPropertyOp11
 70
     1
102
RTVSPropertyOp12
 70
     1
102
RTVSPropertyOp13
 70
     1
102
RTVSPropertyOp14
 70
     1
102
RTVSPropertyOp15
 70
     1
102
RTVSPropertyOp16
 70
     1
102
RTVSPropertyOp17
 70
     1
102
RTVSPropertyOp18
 70
     1
102
RTVSPropertyOp19
 70
     1
102
RTVSPropertyOp20
 70
     1
102
RTVSPropertyOp21
 70
     1
102
RTVSPropertyOp22
 70
     1
102
RTVSPropertyOp23
 70
     1
102
RTVSPropertyOp24
 70
     1
102
RTVSPropertyOp25
 70
     1
102
RTVSPropertyOp26
 70
     1
102
RTVSPropertyOp27
 70
     1
  0
XRECORD
  5
1F4AA
102
{ACAD_REACTORS
330
1F4A9
102
}
330
1F4A9
100
AcDbXrecord
280
     1
102
RTVSPropertyOp0
 70
     1
102
RTVSPropertyOp1
 70
     1
102
RTVSPropertyOp2
 70
     1
102
RTVSPropertyOp3
 70
     1
102
RTVSPropertyOp4
 70
     1
102
RTVSPropertyOp5
 70
     1
102
RTVSPropertyOp6
 70
     1
102
RTVSPropertyOp7
 70
     1
102
RTVSPropertyOp8
 70
     1
102
RTVSPropertyOp9
 70
     1
102
RTVSPropertyOp10
 70
     1
102
RTVSPropertyOp11
 70
     1
102
RTVSPropertyOp12
 70
     1
102
RTVSPropertyOp13
 70
     1
102
RTVSPropertyOp14
 70
     1
102
RTVSPropertyOp15
 70
     1
102
RTVSPropertyOp16
 70
     1
102
RTVSPropertyOp17
 70
     1
102
RTVSPropertyOp18
 70
     1
102
RTVSPropertyOp19
 70
     1
102
RTVSPropertyOp20
 70
     1
102
RTVSPropertyOp21
 70
     1
102
RTVSPropertyOp22
 70
     1
102
RTVSPropertyOp23
 70
     1
102
RTVSPropertyOp24
 70
     1
102
RTVSPropertyOp25
 70
     1
102
RTVSPropertyOp26
 70
     1
102
RTVSPropertyOp27
 70
     1
  0
XRECORD
  5
1F4AC
102
{ACAD_REACTORS
330
1F4AB
102
}
330
1F4AB
100
AcDbXrecord
280
     1
102
RTVSPropertyOp0
 70
     1
102
RTVSPropertyOp1
 70
     1
102
RTVSPropertyOp2
 70
     1
102
RTVSPropertyOp3
 70
     1
102
RTVSPropertyOp4
 70
     1
102
RTVSPropertyOp5
 70
     1
102
RTVSPropertyOp6
 70
     1
102
RTVSPropertyOp7
 70
     1
102
RTVSPropertyOp8
 70
     1
102
RTVSPropertyOp9
 70
     1
102
RTVSPropertyOp10
 70
     1
102
RTVSPropertyOp11
 70
     1
102
RTVSPropertyOp12
 70
     1
102
RTVSPropertyOp13
 70
     1
102
RTVSPropertyOp14
 70
     1
102
RTVSPropertyOp15
 70
     1
102
RTVSPropertyOp16
 70
     1
102
RTVSPropertyOp17
 70
     1
102
RTVSPropertyOp18
 70
     1
102
RTVSPropertyOp19
 70
     1
102
RTVSPropertyOp20
 70
     1
102
RTVSPropertyOp21
 70
     1
102
RTVSPropertyOp22
 70
     1
102
RTVSPropertyOp23
 70
     1
102
RTVSPropertyOp24
 70
     1
102
RTVSPropertyOp25
 70
     1
102
RTVSPropertyOp26
 70
     1
102
RTVSPropertyOp27
 70
     1
  0
XRECORD
  5
1F4AE
102
{ACAD_REACTORS
330
1F4AD
102
}
330
1F4AD
100
AcDbXrecord
280
     1
102
RTVSPropertyOp0
 70
     1
102
RTVSPropertyOp1
 70
     1
102
RTVSPropertyOp2
 70
     1
102
RTVSPropertyOp3
 70
     1
102
RTVSPropertyOp4
 70
     1
102
RTVSPropertyOp5
 70
     1
102
RTVSPropertyOp6
 70
     1
102
RTVSPropertyOp7
 70
     1
102
RTVSPropertyOp8
 70
     1
102
RTVSPropertyOp9
 70
     1
102
RTVSPropertyOp10
 70
     1
102
RTVSPropertyOp11
 70
     1
102
RTVSPropertyOp12
 70
     1
102
RTVSPropertyOp13
 70
     1
102
RTVSPropertyOp14
 70
     1
102
RTVSPropertyOp15
 70
     1
102
RTVSPropertyOp16
 70
     1
102
RTVSPropertyOp17
 70
     1
102
RTVSPropertyOp18
 70
     1
102
RTVSPropertyOp19
 70
     1
102
RTVSPropertyOp20
 70
     1
102
RTVSPropertyOp21
 70
     1
102
RTVSPropertyOp22
 70
     1
102
RTVSPropertyOp23
 70
     1
102
RTVSPropertyOp24
 70
     1
102
RTVSPropertyOp25
 70
     1
102
RTVSPropertyOp26
 70
     1
102
RTVSPropertyOp27
 70
     1
  0
XRECORD
  5
1F4B0
102
{ACAD_REACTORS
330
1F4AF
102
}
330
1F4AF
100
AcDbXrecord
280
     1
102
RTVSPropertyOp0
 70
     1
102
RTVSPropertyOp1
 70
     1
102
RTVSPropertyOp2
 70
     1
102
RTVSPropertyOp3
 70
     1
102
RTVSPropertyOp4
 70
     1
102
RTVSPropertyOp5
 70
     1
102
RTVSPropertyOp6
 70
     1
102
RTVSPropertyOp7
 70
     1
102
RTVSPropertyOp8
 70
     1
102
RTVSPropertyOp9
 70
     1
102
RTVSPropertyOp10
 70
     1
102
RTVSPropertyOp11
 70
     1
102
RTVSPropertyOp12
 70
     1
102
RTVSPropertyOp13
 70
     1
102
RTVSPropertyOp14
 70
     1
102
RTVSPropertyOp15
 70
     1
102
RTVSPropertyOp16
 70
     1
102
RTVSPropertyOp17
 70
     1
102
RTVSPropertyOp18
 70
     1
102
RTVSPropertyOp19
 70
     1
102
RTVSPropertyOp20
 70
     1
102
RTVSPropertyOp21
 70
     1
102
RTVSPropertyOp22
 70
     1
102
RTVSPropertyOp23
 70
     1
102
RTVSPropertyOp24
 70
     1
102
RTVSPropertyOp25
 70
     1
102
RTVSPropertyOp26
 70
     1
102
RTVSPropertyOp27
 70
     1
  0
XRECORD
  5
1F4B2
102
{ACAD_REACTORS
330
1F4B1
102
}
330
1F4B1
100
AcDbXrecord
280
     1
102
RTVSPropertyOp0
 70
     1
102
RTVSPropertyOp1
 70
     1
102
RTVSPropertyOp2
 70
     1
102
RTVSPropertyOp3
 70
     1
102
RTVSPropertyOp4
 70
     1
102
RTVSPropertyOp5
 70
     1
102
RTVSPropertyOp6
 70
     1
102
RTVSPropertyOp7
 70
     1
102
RTVSPropertyOp8
 70
     1
102
RTVSPropertyOp9
 70
     1
102
RTVSPropertyOp10
 70
     1
102
RTVSPropertyOp11
 70
     1
102
RTVSPropertyOp12
 70
     1
102
RTVSPropertyOp13
 70
     1
102
RTVSPropertyOp14
 70
     1
102
RTVSPropertyOp15
 70
     1
102
RTVSPropertyOp16
 70
     1
102
RTVSPropertyOp17
 70
     1
102
RTVSPropertyOp18
 70
     1
102
RTVSPropertyOp19
 70
     1
102
RTVSPropertyOp20
 70
     1
102
RTVSPropertyOp21
 70
     1
102
RTVSPropertyOp22
 70
     1
102
RTVSPropertyOp23
 70
     1
102
RTVSPropertyOp24
 70
     1
102
RTVSPropertyOp25
 70
     1
102
RTVSPropertyOp26
 70
     1
102
RTVSPropertyOp27
 70
     1
  0
XRECORD
  5
1F4B4
102
{ACAD_REACTORS
330
1F4B3
102
}
330
1F4B3
100
AcDbXrecord
280
     1
102
RTVSPropertyOp0
 70
     1
102
RTVSPropertyOp1
 70
     1
102
RTVSPropertyOp2
 70
     1
102
RTVSPropertyOp3
 70
     1
102
RTVSPropertyOp4
 70
     1
102
RTVSPropertyOp5
 70
     1
102
RTVSPropertyOp6
 70
     1
102
RTVSPropertyOp7
 70
     1
102
RTVSPropertyOp8
 70
     1
102
RTVSPropertyOp9
 70
     1
102
RTVSPropertyOp10
 70
     1
102
RTVSPropertyOp11
 70
     1
102
RTVSPropertyOp12
 70
     1
102
RTVSPropertyOp13
 70
     1
102
RTVSPropertyOp14
 70
     1
102
RTVSPropertyOp15
 70
     1
102
RTVSPropertyOp16
 70
     1
102
RTVSPropertyOp17
 70
     1
102
RTVSPropertyOp18
 70
     1
102
RTVSPropertyOp19
 70
     1
102
RTVSPropertyOp20
 70
     1
102
RTVSPropertyOp21
 70
     1
102
RTVSPropertyOp22
 70
     1
102
RTVSPropertyOp23
 70
     1
102
RTVSPropertyOp24
 70
     1
102
RTVSPropertyOp25
 70
     1
102
RTVSPropertyOp26
 70
     1
102
RTVSPropertyOp27
 70
     1
  0
XRECORD
  5
1F4B6
102
{ACAD_REACTORS
330
1F4B5
102
}
330
1F4B5
100
AcDbXrecord
280
     1
102
RTVSPropertyOp0
 70
     1
102
RTVSPropertyOp1
 70
     1
102
RTVSPropertyOp2
 70
     1
102
RTVSPropertyOp3
 70
     1
102
RTVSPropertyOp4
 70
     1
102
RTVSPropertyOp5
 70
     1
102
RTVSPropertyOp6
 70
     1
102
RTVSPropertyOp7
 70
     1
102
RTVSPropertyOp8
 70
     1
102
RTVSPropertyOp9
 70
     1
102
RTVSPropertyOp10
 70
     1
102
RTVSPropertyOp11
 70
     1
102
RTVSPropertyOp12
 70
     1
102
RTVSPropertyOp13
 70
     1
102
RTVSPropertyOp14
 70
     1
102
RTVSPropertyOp15
 70
     1
102
RTVSPropertyOp16
 70
     1
102
RTVSPropertyOp17
 70
     1
102
RTVSPropertyOp18
 70
     1
102
RTVSPropertyOp19
 70
     1
102
RTVSPropertyOp20
 70
     1
102
RTVSPropertyOp21
 70
     1
102
RTVSPropertyOp22
 70
     1
102
RTVSPropertyOp23
 70
     1
102
RTVSPropertyOp24
 70
     1
102
RTVSPropertyOp25
 70
     1
102
RTVSPropertyOp26
 70
     1
102
RTVSPropertyOp27
 70
     1
  0
XRECORD
  5
1F4B8
102
{ACAD_REACTORS
330
1F4B7
102
}
330
1F4B7
100
AcDbXrecord
280
     1
102
RTVSPropertyOp0
 70
     1
102
RTVSPropertyOp1
 70
     1
102
RTVSPropertyOp2
 70
     1
102
RTVSPropertyOp3
 70
     1
102
RTVSPropertyOp4
 70
     1
102
RTVSPropertyOp5
 70
     1
102
RTVSPropertyOp6
 70
     1
102
RTVSPropertyOp7
 70
     1
102
RTVSPropertyOp8
 70
     1
102
RTVSPropertyOp9
 70
     1
102
RTVSPropertyOp10
 70
     1
102
RTVSPropertyOp11
 70
     1
102
RTVSPropertyOp12
 70
     1
102
RTVSPropertyOp13
 70
     1
102
RTVSPropertyOp14
 70
     1
102
RTVSPropertyOp15
 70
     1
102
RTVSPropertyOp16
 70
     1
102
RTVSPropertyOp17
 70
     1
102
RTVSPropertyOp18
 70
     1
102
RTVSPropertyOp19
 70
     1
102
RTVSPropertyOp20
 70
     1
102
RTVSPropertyOp21
 70
     1
102
RTVSPropertyOp22
 70
     1
102
RTVSPropertyOp23
 70
     1
102
RTVSPropertyOp24
 70
     1
102
RTVSPropertyOp25
 70
     1
102
RTVSPropertyOp26
 70
     1
102
RTVSPropertyOp27
 70
     1
  0
XRECORD
  5
1F4BA
102
{ACAD_REACTORS
330
1F4B9
102
}
330
1F4B9
100
AcDbXrecord
280
     1
102
RTVSPropertyOp0
 70
     1
102
RTVSPropertyOp1
 70
     1
102
RTVSPropertyOp2
 70
     1
102
RTVSPropertyOp3
 70
     1
102
RTVSPropertyOp4
 70
     1
102
RTVSPropertyOp5
 70
     1
102
RTVSPropertyOp6
 70
     1
102
RTVSPropertyOp7
 70
     1
102
RTVSPropertyOp8
 70
     1
102
RTVSPropertyOp9
 70
     1
102
RTVSPropertyOp10
 70
     1
102
RTVSPropertyOp11
 70
     1
102
RTVSPropertyOp12
 70
     1
102
RTVSPropertyOp13
 70
     1
102
RTVSPropertyOp14
 70
     1
102
RTVSPropertyOp15
 70
     1
102
RTVSPropertyOp16
 70
     1
102
RTVSPropertyOp17
 70
     1
102
RTVSPropertyOp18
 70
     1
102
RTVSPropertyOp19
 70
     1
102
RTVSPropertyOp20
 70
     1
102
RTVSPropertyOp21
 70
     1
102
RTVSPropertyOp22
 70
     1
102
RTVSPropertyOp23
 70
     1
102
RTVSPropertyOp24
 70
     1
102
RTVSPropertyOp25
 70
     1
102
RTVSPropertyOp26
 70
     1
102
RTVSPropertyOp27
 70
     1
  0
XRECORD
  5
1F4BC
102
{ACAD_REACTORS
330
1F4BB
102
}
330
1F4BB
100
AcDbXrecord
280
     1
102
RTVSPropertyOp0
 70
     1
102
RTVSPropertyOp1
 70
     1
102
RTVSPropertyOp2
 70
     1
102
RTVSPropertyOp3
 70
     1
102
RTVSPropertyOp4
 70
     1
102
RTVSPropertyOp5
 70
     1
102
RTVSPropertyOp6
 70
     1
102
RTVSPropertyOp7
 70
     1
102
RTVSPropertyOp8
 70
     1
102
RTVSPropertyOp9
 70
     1
102
RTVSPropertyOp10
 70
     1
102
RTVSPropertyOp11
 70
     1
102
RTVSPropertyOp12
 70
     1
102
RTVSPropertyOp13
 70
     1
102
RTVSPropertyOp14
 70
     1
102
RTVSPropertyOp15
 70
     1
102
RTVSPropertyOp16
 70
     1
102
RTVSPropertyOp17
 70
     1
102
RTVSPropertyOp18
 70
     1
102
RTVSPropertyOp19
 70
     1
102
RTVSPropertyOp20
 70
     1
102
RTVSPropertyOp21
 70
     1
102
RTVSPropertyOp22
 70
     1
102
RTVSPropertyOp23
 70
     1
102
RTVSPropertyOp24
 70
     1
102
RTVSPropertyOp25
 70
     1
102
RTVSPropertyOp26
 70
     1
102
RTVSPropertyOp27
 70
     1
  0
ENDSEC
  0
EOF
